osu file format v14

[General]
AudioFilename: audio.mp3
AudioLeadIn: 0
PreviewTime: 58001
Countdown: 1
SampleSet: Soft
StackLeniency: 0.7
Mode: 0
LetterboxInBreaks: 0
WidescreenStoryboard: 0

[Editor]
Bookmarks: 2,10668,16001,21335,23335,24001,32001,42668,53335,54001,58668,69335,74668,80001,85335,89168,90001,90668,95335,96001,100001,100668,101168,101335
DistanceSpacing: 1
BeatDivisor: 4
GridSize: 4
TimelineZoom: 2.3

[Metadata]
Title:Doki-Doki
TitleUnicode:Doki-Doki
Artist:Thaehan
ArtistUnicode:Thaehan
Creator:Zunv
Version:Okie Dokie
Source:
Tags:
BeatmapID:1261823
BeatmapSetID:596791

[Difficulty]
HPDrainRate:6
CircleSize:4
OverallDifficulty:8
ApproachRate:9.4
SliderMultiplier:2.19999999999999
SliderTickRate:1

[Events]
//Background and Video events
0,0,"678262.jpg",0,0
//Break Periods
//Storyboard Layer 0 (Background)
//Storyboard Layer 1 (Fail)
//Storyboard Layer 2 (Pass)
//Storyboard Layer 3 (Foreground)
//Storyboard Sound Samples

[TimingPoints]
2,333.333333333333,4,2,0,60,1,0
10668,-71.4285714285714,4,2,0,80,0,0
20668,-100,4,2,0,80,0,0
21001,-71.4285714285714,4,2,0,80,0,0
21335,-142.857142857143,4,2,0,80,0,0
22001,-100,4,2,0,80,0,0
22668,-142.857142857143,4,2,0,80,0,0
24668,-100,4,2,0,80,0,0
26668,-142.857142857143,4,2,0,80,0,0
27418,-100,4,2,0,80,0,0
30001,-76.9230769230769,4,2,0,80,0,0
30668,-142.857142857143,4,2,0,80,0,0
41335,-200,4,2,0,80,0,0
42668,-100,4,2,0,80,0,0
53335,-133.333333333333,4,2,0,80,0,0
57335,-79.9999999999999,4,2,0,80,0,0
58668,-66.6666666666667,4,2,0,80,0,1
59668,-100,4,2,0,80,0,1
60001,-66.6666666666667,4,2,0,80,0,1
61001,-100,4,2,0,80,0,1
61501,-66.6666666666667,4,2,0,80,0,1
68001,-100,4,2,0,80,0,1
68335,-66.6666666666667,4,2,0,80,0,1
69335,-66.6666666666667,4,2,0,80,0,0
70001,-100,4,2,0,80,0,0
72001,-66.6666666666667,4,2,0,80,0,1
79335,-100,4,2,0,80,0,1
79668,-66.6666666666667,4,2,0,80,0,1
80001,-100,4,2,0,80,0,0

[HitObjects]
472,193,2,5,14,0:0:0:0:
423,290,168,5,0,0:0:0:0:
396,271,251,1,0,0:0:0:0:
376,244,334,1,0,0:0:0:0:
364,214,417,1,0,0:0:0:0:
363,181,501,1,0,0:0:0:0:
372,149,584,1,0,0:0:0:0:
389,121,668,2,0,L|432:87,2,54.9999999999998,0|0|0,1:0|1:0|1:0,1:0:0:0:
344,58,1001,6,0,L|301:24,2,54.9999999999998,0|0|0,1:0|1:0|1:0,1:0:0:0:
344,58,1335,5,12,0:0:0:0:
317,77,1418,1,0,0:0:0:0:
290,96,1501,1,0,0:0:0:0:
416,142,1668,5,8,0:0:0:0:
389,161,1751,1,0,0:0:0:0:
363,181,1834,1,0,0:0:0:0:
232,189,2001,6,0,L|173:233,1,54.9999999999998,8|0,0:0|0:0,0:0:0:0:
345,255,2168,2,0,L|388:289,1,54.9999999999998,8|0,0:0|0:0,0:0:0:0:
232,321,2335,2,0,L|189:355,1,54.9999999999998,8|8,0:0|0:0,0:0:0:0:
151,358,2501,1,8,0:0:0:0:
136,160,2668,5,12,0:0:0:0:
291,283,2835,2,0,L|349:327,1,54.9999999999998,8|0,0:0|0:0,0:0:0:0:
331,212,3001,1,0,0:0:0:0:
331,212,3084,1,0,0:0:0:0:
331,212,3167,1,0,0:0:0:0:
454,267,3335,5,8,0:0:0:0:
325,72,3501,1,8,0:0:0:0:
291,283,3668,1,0,0:0:0:0:
291,283,3751,1,0,0:0:0:0:
291,283,3834,1,0,0:0:0:0:
61,101,4001,5,12,0:0:0:0:
233,216,4168,1,0,0:0:0:0:
284,233,4251,1,0,0:0:0:0:
338,225,4335,1,0,1:0:0:0:
377,186,4418,1,0,1:0:0:0:
391,133,4501,1,0,1:0:0:0:
369,81,4585,1,0,0:0:0:0:
315,68,4668,1,0,1:0:0:0:
278,108,4751,1,0,1:0:0:0:
287,162,4835,1,0,1:0:0:0:
336,186,4918,1,0,1:0:0:0:
382,157,5001,6,0,L|415:113,1,54.9999999999998,0|0,1:2|1:0,1:0:0:0:
207,216,5335,5,12,0:0:0:0:
122,1,5501,1,0,0:0:0:0:
178,143,5668,2,0,L|257:149,1,54.9999999999998
310,147,5835,1,8,0:0:0:0:
136,259,6001,5,8,0:0:0:0:
221,44,6167,1,0,0:0:0:0:
159,186,6335,2,0,L|79:192,1,54.9999999999998,0|0,1:0|0:0,0:0:0:0:
27,190,6501,1,0,1:0:0:0:
201,302,6668,5,12,0:0:0:0:
116,87,6835,1,0,0:0:0:0:
177,227,7001,2,0,L|256:233,1,54.9999999999998
309,231,7168,1,8,0:0:0:0:
135,343,7335,5,8,0:0:0:0:
220,128,7501,1,0,0:0:0:0:
159,269,7668,2,0,L|80:275,2,54.9999999999998,8|0|8,0:0|0:0|0:0,0:0:0:0:
286,181,8001,5,12,0:0:0:0:
273,334,8168,1,0,0:0:0:0:
273,334,8251,1,0,0:0:0:0:
273,334,8335,2,0,L|194:340,2,54.9999999999998
274,222,8668,5,8,0:0:0:0:
232,134,8835,1,0,0:0:0:0:
289,260,9001,1,8,0:0:0:0:
224,99,9168,1,8,0:0:0:0:
305,292,9335,6,0,L|300:237,1,54.9999999999998,12|0,0:0|0:0,0:0:0:0:
215,65,9501,2,0,L|209:139,1,54.9999999999998,8|0,0:0|0:0,0:0:0:0:
322,327,9668,2,0,L|328:253,1,54.9999999999998,8|0,0:0|0:0,0:0:0:0:
202,27,9835,2,0,L|208:98,1,54.9999999999998,8|0,0:0|0:0,0:0:0:0:
212,208,10001,5,8,0:0:0:0:
177,246,10084,1,8,0:0:0:0:
129,227,10167,1,8,0:0:0:0:
132,175,10251,1,8,0:0:0:0:
181,160,10335,2,0,P|249:188|257:238,1,110
290,66,10668,5,12,0:0:0:0:
290,66,10835,5,0,0:0:0:0:
326,134,10918,1,0,0:0:0:0:
362,202,11001,1,8,0:0:0:0:
318,264,11084,1,0,0:0:0:0:
250,299,11167,1,0,0:0:0:0:
174,297,11251,1,0,0:0:0:0:
108,259,11335,2,0,B|80:208|80:208|80:64,1,153.999995300292,8|0,0:0|0:0,0:0:0:0:
232,144,11668,5,8,0:0:0:0:
200,166,11751,1,0,0:0:0:0:
168,188,11834,1,0,0:0:0:0:
88,56,12001,5,12,0:0:0:0:
119,78,12084,1,0,0:0:0:0:
151,100,12167,1,0,0:0:0:0:
168,188,12335,5,8,0:0:0:0:
199,210,12418,1,0,0:0:0:0:
231,232,12501,1,0,0:0:0:0:
248,320,12668,5,8,0:0:0:0:
279,342,12751,1,0,0:0:0:0:
311,364,12834,1,8,0:0:0:0:
469,285,13001,6,8,L|393:292,1,76.9999976501462
408,192,13168,2,0,L|487:185,1,76.9999976501462,8|0,0:0|0:0,0:0:0:0:
498,84,13335,2,0,L|422:91,1,76.9999976501462,12|0,0:0|0:0,0:0:0:0:
344,97,13501,1,0,0:0:0:0:
267,104,13584,1,0,0:0:0:0:
190,111,13668,1,8,0:0:0:0:
331,176,13835,1,0,0:0:0:0:
200,23,14001,6,0,B|164:23|164:23|96:57,1,76.9999976501462,8|0,0:0|0:0,0:0:0:0:
175,8,14168,2,0,B|139:8|139:8|71:42,1,76.9999976501462
118,129,14335,6,0,B|154:129|154:129|222:95,2,76.9999976501462,8|0|0,0:0|0:0|0:0,0:0:0:0:
257,159,14668,5,12,0:0:0:0:
293,23,14835,2,0,L|334:109,1,76.9999976501462
359,162,15001,1,8,0:0:0:0:
370,236,15084,1,0,0:0:0:0:
332,302,15167,1,0,0:0:0:0:
261,329,15251,1,0,0:0:0:0:
189,306,15334,1,8,0:0:0:0:
211,233,15418,1,0,0:0:0:0:
184,163,15502,1,0,0:0:0:0:
119,125,15585,1,0,0:0:0:0:
44,136,15668,2,8,L|3:222,3,76.9999976501462
10,205,16001,5,12,0:0:0:0:
189,44,16167,1,0,0:0:0:0:
92,184,16335,2,0,L|185:201,1,76.9999976501462,8|0,0:0|0:0,0:0:0:0:
244,197,16501,1,0,0:0:0:0:
380,270,16668,5,8,0:0:0:0:
202,109,16835,1,0,0:0:0:0:
299,249,17001,2,0,L|206:266,1,76.9999976501462,8|0,0:0|0:0,0:0:0:0:
147,263,17168,1,8,0:0:0:0:
11,190,17335,5,12,0:0:0:0:
189,351,17502,1,0,0:0:0:0:
92,211,17668,2,0,L|185:194,1,76.9999976501462,8|0,0:0|0:0,0:0:0:0:
245,197,17835,1,0,0:0:0:0:
381,124,18002,5,8,0:0:0:0:
203,285,18169,1,0,0:0:0:0:
300,145,18335,2,0,L|207:128,1,76.9999976501462,8|0,0:0|0:0,0:0:0:0:
147,131,18501,1,8,0:0:0:0:
11,58,18668,5,12,0:0:0:0:
189,219,18835,1,0,0:0:0:0:
189,219,18918,1,0,0:0:0:0:
189,219,19001,2,0,L|264:232,2,76.9999976501462,8|0|0,0:0|0:0|0:0,0:0:0:0:
300,145,19335,5,8,0:0:0:0:
232,321,19501,1,0,0:0:0:0:
224,131,19668,1,8,0:0:0:0:
308,335,19835,1,8,0:0:0:0:
148,117,20001,5,12,0:0:0:0:
384,349,20168,2,0,L|459:362,2,76.9999976501462,8|0|8,0:0|0:0|0:0,0:0:0:0:
156,307,20501,1,8,0:0:0:0:
384,265,20668,6,8,L|459:251,1,54.9999999999998
408,241,20835,2,8,L|483:227,1,54.9999999999998
354,175,21001,6,0,P|297:221|303:310,1,153.999995300292
178,300,21335,1,12,0:0:0:0:
149,274,21418,1,0,0:0:0:0:
125,243,21501,1,0,0:0:0:0:
111,208,21584,1,0,0:0:0:0:
105,169,21668,1,8,0:0:0:0:
109,132,21751,1,0,0:0:0:0:
120,94,21834,1,0,0:0:0:0:
147,67,21918,1,0,0:0:0:0:
199,50,22001,5,8,0:0:0:0:
251,66,22084,1,0,0:0:0:0:
285,108,22168,1,0,0:0:0:0:
289,162,22250,1,0,0:0:0:0:
256,206,22335,1,8,0:0:0:0:
204,189,22418,1,0,0:0:0:0:
204,134,22501,1,0,0:0:0:0:
256,117,22585,1,0,0:0:0:0:
289,162,22668,6,0,L|302:214,5,38.4999988250731,12|0|0|0|8|0,0:0|0:0|0:0|0:0|0:0|0:0,0:0:0:0:
278,297,23168,6,0,L|204:286,1,38.4999988250731
336,204,23335,2,0,L|262:193,1,38.4999988250731,8|0,0:0|0:0,0:0:0:0:
395,111,23501,2,0,L|352:104,1,38.4999988250731
453,18,23668,2,0,L|410:11,3,38.4999988250731,8|0|8|0,0:0|0:0|0:0|0:0,0:0:0:0:
376,11,24001,5,12,0:0:0:0:
355,43,24084,1,0,0:0:0:0:
335,76,24167,1,0,0:0:0:0:
314,109,24250,1,0,0:0:0:0:
294,141,24334,1,8,0:0:0:0:
274,174,24417,1,0,0:0:0:0:
253,207,24500,1,0,0:0:0:0:
233,239,24584,1,0,0:0:0:0:
213,272,24668,5,8,0:0:0:0:
159,279,24751,1,0,0:0:0:0:
112,252,24834,1,0,0:0:0:0:
91,202,24917,1,0,0:0:0:0:
104,150,25001,1,8,0:0:0:0:
146,115,25084,1,0,0:0:0:0:
200,113,25167,1,0,0:0:0:0:
244,144,25251,1,0,0:0:0:0:
261,195,25335,6,0,L|274:247,5,54.9999999999998,12|0|0|0|8|0,0:0|0:0|0:0|0:0|0:0|0:0,0:0:0:0:
186,353,25835,6,0,L|199:300,1,54.9999999999998
99,280,26001,2,0,L|137:241,1,54.9999999999998,8|0,0:0|0:0,0:0:0:0:
59,171,26168,2,0,L|111:156,1,54.9999999999998
79,57,26335,2,0,L|131:70,3,54.9999999999998,8|8|8|0,0:0|0:0|0:0|0:0,0:0:0:0:
170,70,26668,5,12,0:0:0:0:
208,73,26751,1,0,0:0:0:0:
245,83,26834,1,0,0:0:0:0:
279,101,26917,1,0,0:0:0:0:
309,124,27001,1,8,0:0:0:0:
334,154,27084,1,0,0:0:0:0:
353,187,27167,1,0,0:0:0:0:
366,223,27251,1,0,0:0:0:0:
370,262,27334,1,8,0:0:0:0:
318,256,27418,5,0,0:0:0:0:
282,295,27501,1,0,0:0:0:0:
291,347,27584,1,0,0:0:0:0:
340,374,27668,1,8,0:0:0:0:
394,376,27751,1,0,0:0:0:0:
443,352,27834,1,0,0:0:0:0:
476,308,27917,1,0,0:0:0:0:
486,253,28001,6,0,L|468:168,5,54.9999999999998,12|0|0|0|8|0,0:0|0:0|0:0|0:0|0:0|0:0,0:0:0:0:
446,91,28501,6,0,L|435:37,1,54.9999999999998
265,66,28668,2,0,L|275:119,1,54.9999999999998,8|0,0:0|0:0,0:0:0:0:
372,162,28835,2,0,L|361:108,1,54.9999999999998
191,137,29001,2,0,L|201:190,3,54.9999999999998,8|0|8|0,0:0|0:0|0:0|0:0,0:0:0:0:
126,228,29335,5,12,0:0:0:0:
160,270,29418,1,0,0:0:0:0:
210,286,29501,1,0,0:0:0:0:
259,262,29584,1,0,0:0:0:0:
298,232,29668,1,8,0:0:0:0:
339,268,29751,1,0,0:0:0:0:
390,286,29834,1,0,0:0:0:0:
443,274,29918,1,0,0:0:0:0:
485,239,30001,5,8,0:0:0:0:
497,169,30084,1,0,0:0:0:0:
479,100,30167,1,0,0:0:0:0:
434,46,30250,1,0,0:0:0:0:
370,11,30334,1,8,0:0:0:0:
297,11,30418,1,0,0:0:0:0:
235,47,30501,1,0,0:0:0:0:
200,109,30584,1,0,0:0:0:0:
201,181,30668,6,0,L|215:275,1,76.9999976501462
335,149,31001,2,0,L|344:203,1,38.4999988250731
320,175,31168,2,0,L|329:229,1,38.4999988250731
394,93,31335,2,0,P|345:67|294:80,2,76.9999976501462
450,188,31835,1,0,0:0:0:0:
335,149,32001,5,14,0:0:0:0:
318,144,32084,1,0,0:0:0:0:
301,139,32167,1,0,0:0:0:0:
285,134,32250,1,0,0:0:0:0:
268,129,32334,1,8,0:0:0:0:
251,124,32417,1,0,0:0:0:0:
235,119,32500,1,0,0:0:0:0:
218,114,32584,1,0,0:0:0:0:
202,109,32667,5,8,0:0:0:0:
170,146,32751,1,0,0:0:0:0:
142,185,32834,1,0,0:0:0:0:
114,224,32918,1,0,0:0:0:0:
85,263,33001,1,8,0:0:0:0:
129,253,33084,1,0,0:0:0:0:
174,249,33167,1,0,0:0:0:0:
219,249,33251,1,0,0:0:0:0:
263,254,33335,6,0,L|330:268,1,38.4999988250731,12|0,0:0|0:0,0:0:0:0:
212,334,33501,2,0,L|174:326,1,38.4999988250731
255,165,33668,2,0,L|321:178,1,38.4999988250731,8|0,0:0|0:0,0:0:0:0:
219,249,33835,2,0,L|181:241,1,38.4999988250731
132,136,34001,6,0,L|122:111,6,19.2499994125366,8|0|0|0|0|0|0,0:0|0:0|0:0|0:0|0:0|0:0|0:0,0:0:0:0:
208,91,34335,6,0,L|217:68,4,25.6666658833821,8|0|0|8|0,0:0|0:0|0:0|0:0|0:0,0:0:0:0:
255,165,34668,6,0,L|321:178,7,38.4999988250731,12|0|0|0|8|0|0|0,0:0|0:0|0:0|0:0|0:0|0:0|0:0|0:0,0:0:0:0:
326,207,35335,5,8,0:0:0:0:
360,224,35418,1,0,0:0:0:0:
398,225,35501,1,0,0:0:0:0:
432,209,35585,1,0,0:0:0:0:
457,180,35668,1,8,0:0:0:0:
467,143,35751,1,0,0:0:0:0:
459,106,35835,1,0,0:0:0:0:
436,75,35918,1,0,0:0:0:0:
402,57,36001,6,0,L|341:43,1,38.4999988250731,12|0,0:0|0:0,0:0:0:0:
289,136,36168,2,0,L|227:121,1,38.4999988250731
175,214,36335,2,0,L|113:199,1,38.4999988250731,8|0,0:0|0:0,0:0:0:0:
61,292,36501,2,0,L|0:277,1,38.4999988250731
162,316,36668,6,0,L|182:343,6,19.2499994125366,8|0|0|0|0|0|0,0:0|0:0|0:0|0:0|0:0|0:0|0:0,0:0:0:0:
261,273,37001,6,0,L|277:253,4,25.6666658833821,8|0|0|8|0,0:0|0:0|0:0|0:0|0:0,0:0:0:0:
175,214,37335,6,0,L|146:175,7,38.4999988250731,12|0|0|0|8|0|0|0,0:0|0:0|0:0|0:0|0:0|0:0|0:0|0:0,0:0:0:0:
121,178,38001,1,8,0:0:0:0:
85,165,38084,1,0,0:0:0:0:
61,135,38167,1,0,0:0:0:0:
57,98,38251,1,0,0:0:0:0:
73,64,38335,1,8,0:0:0:0:
106,44,38417,1,0,0:0:0:0:
143,44,38501,1,0,0:0:0:0:
181,53,38584,1,0,0:0:0:0:
218,62,38668,6,0,L|275:78,1,38.4999988250731,12|0,0:0|0:0,0:0:0:0:
382,147,38835,2,0,L|325:162,1,38.4999988250731
217,225,39001,2,0,L|273:240,1,38.4999988250731,8|0,0:0|0:0,0:0:0:0:
383,309,39168,2,0,L|326:324,1,38.4999988250731
199,363,39335,6,0,L|169:354,6,19.2499994125366,8|0|0|0|0|0|0,0:0|0:0|0:0|0:0|0:0|0:0|0:0,0:0:0:0:
119,283,39668,6,0,L|146:274,4,25.6666658833821,8|0|0|8|0,0:0|0:0|0:0|0:0|0:0,0:0:0:0:
254,235,40001,5,12,0:0:0:0:
286,255,40084,1,0,0:0:0:0:
323,266,40167,1,0,0:0:0:0:
361,268,40251,1,0,0:0:0:0:
398,258,40334,1,8,0:0:0:0:
431,239,40417,1,0,0:0:0:0:
459,212,40501,1,0,0:0:0:0:
477,179,40584,1,0,0:0:0:0:
486,141,40668,5,8,0:0:0:0:
437,116,40751,1,0,0:0:0:0:
385,101,40834,1,0,0:0:0:0:
330,95,40918,1,0,0:0:0:0:
275,99,41001,1,8,0:0:0:0:
222,113,41084,1,0,0:0:0:0:
172,136,41168,1,0,0:0:0:0:
128,168,41251,1,0,0:0:0:0:
91,209,41335,6,0,P|63:249|53:285,1,82.4999999999996
84,316,41668,2,0,L|120:340,2,27.4999999999999
10,217,42001,1,0,0:0:0:0:
157,268,42168,1,0,0:0:0:0:
83,143,42335,2,0,P|95:103|120:71,1,82.4999999999996
176,144,42668,6,0,P|192:197|225:240,1,110,14|0,0:0|0:0,0:0:0:0:
282,150,42918,1,0,0:0:0:0:
282,150,43001,2,0,P|265:96|232:53,1,110,8|0,0:0|0:0,0:0:0:0:
117,230,43335,1,8,0:0:0:0:
282,150,43501,1,0,0:0:0:0:
335,139,43584,1,0,0:0:0:0:
388,151,43668,2,0,P|440:166|483:199,1,110,8|0,0:0|0:0,0:0:0:0:
288,256,44001,6,0,P|235:240|192:207,1,110,12|0,0:0|0:0,0:0:0:0:
282,150,44251,1,0,0:0:0:0:
282,150,44335,2,0,P|335:166|378:199,1,110,8|0,0:0|0:0,0:0:0:0:
200,316,44668,1,8,0:0:0:0:
282,150,44835,1,0,0:0:0:0:
272,96,44918,1,0,0:0:0:0:
232,59,45001,1,8,0:0:0:0:
377,198,45168,1,8,0:0:0:0:
232,59,45335,5,12,0:0:0:0:
184,34,45418,1,0,0:0:0:0:
129,32,45501,1,0,0:0:0:0:
78,52,45585,1,0,0:0:0:0:
41,91,45668,2,0,P|17:140|13:194,1,110,8|0,0:0|0:0,0:0:0:0:
232,59,46001,2,0,P|286:62|335:86,1,110,8|0,0:0|0:0,0:0:0:0:
116,222,46335,2,0,P|61:218|12:194,1,110,8|0,0:0|0:0,0:0:0:0:
146,116,46668,5,12,0:0:0:0:
88,357,46835,1,0,0:0:0:0:
232,59,47001,1,8,0:0:0:0:
290,300,47168,1,0,0:0:0:0:
116,222,47335,5,8,0:0:0:0:
79,203,47418,1,0,0:0:0:0:
52,172,47501,1,0,0:0:0:0:
38,134,47585,1,0,0:0:0:0:
38,93,47668,2,0,P|50:62|68:43,1,54.9999999999998,8|8,0:0|0:0,0:0:0:0:
146,116,47835,2,0,P|134:147|116:166,1,54.9999999999998,8|0,0:0|0:0,0:0:0:0:
64,46,48001,6,0,P|109:14|163:8,1,110,12|0,2:0|0:0,0:0:0:0:
244,77,48251,1,0,0:0:0:0:
244,77,48335,2,0,P|199:109|145:115,1,110,8|0,2:0|0:0,0:0:0:0:
326,13,48668,1,8,0:0:0:0:
255,182,48835,2,0,L|226:241,1,54.9999999999998
337,226,49001,2,0,P|347:171|331:120,1,110,8|0,2:0|0:0,0:0:0:0:
298,77,49251,1,0,0:0:0:0:
249,53,49335,5,12,0:0:0:0:
230,231,49501,1,0,0:0:0:0:
254,279,49584,1,0,0:0:0:0:
297,313,49668,1,8,0:0:0:0:
249,53,49835,1,0,0:0:0:0:
230,231,50001,2,0,P|207:281|163:313,1,110,8|0,2:0|0:0,0:0:0:0:
110,326,50251,1,0,0:0:0:0:
57,317,50335,1,8,0:0:0:0:
110,196,50501,1,8,0:0:0:0:
163,313,50668,5,12,0:0:0:0:
211,336,50751,1,0,0:0:0:0:
266,331,50834,1,0,0:0:0:0:
310,300,50918,1,0,0:0:0:0:
331,250,51001,2,0,P|339:196|320:145,1,110,8|0,2:0|0:0,0:0:0:0:
72,25,51335,1,8,0:0:0:0:
237,0,51501,1,0,0:0:0:0:
140,209,51668,2,0,P|137:264|162:312,1,110,8|0,2:0|0:0,0:0:0:0:
242,243,52001,6,0,L|252:200,1,27.4999999999999
378,225,52168,2,0,L|368:182,1,27.4999999999999
266,141,52335,2,0,L|276:98,1,27.4999999999999
348,119,52502,2,0,L|338:76,1,27.4999999999999
293,42,52668,2,0,L|303:-1,14,27.4999999999999
348,119,53335,6,0,L|358:163,7,41.2500015735625,14|0|0|0|8|0|0|0,0:0|0:0|0:0|0:0|0:0|0:0|0:0|0:0,0:0:0:0:
276,241,54001,2,0,L|231:227,7,41.2500015735625,8|0|0|0|8|0|0|0,0:0|0:0|0:0|0:0|0:0|0:0|0:0|0:0,0:0:0:0:
189,92,54668,2,0,L|222:60,7,41.2500015735625,12|0|0|0|8|0|0|0,0:0|0:0|0:0|0:0|0:0|0:0|0:0|0:0,0:0:0:0:
387,92,55335,6,0,L|397:136,7,41.2500015735625,8|0|0|0|8|0|8|0,0:0|0:0|0:0|0:0|0:0|0:0|0:0|0:0,0:0:0:0:
276,303,56001,2,0,L|231:289,7,41.2500015735625,12|0|0|0|8|0|0|0,0:0|0:0|0:0|0:0|0:0|0:0|0:0|0:0,0:0:0:0:
146,71,56668,2,0,L|179:39,7,41.2500015735625,8|0|0|0|8|0|0|0,0:0|0:0|0:0|0:0|0:0|0:0|0:0|0:0,0:0:0:0:
254,113,57335,2,0,B|313:153|313:153|335:206|335:206|277:206|277:206|238:179|238:179|180:179|180:179|202:232|202:232|268:277,1,412.499999999998
335,292,58001,6,8,L|394:332,2,68.7499999999997
170,93,58335,6,0,L|110:52,2,68.7499999999997,0|0|0,1:0|1:0|1:0,1:0:0:0:
290,66,58668,1,14,0:0:0:0:
290,66,58835,1,0,0:0:0:0:
358,109,58918,1,0,0:0:0:0:
439,105,59001,1,8,0:0:0:0:
470,175,59084,1,0,0:0:0:0:
467,256,59167,1,0,0:0:0:0:
427,327,59251,1,0,0:0:0:0:
361,373,59335,2,0,B|257:339|257:339|212:276,1,165.00000629425,8|0,0:0|0:0,0:0:0:0:
315,264,59668,6,0,L|393:289,2,54.9999999999998,8|0|0,0:0|0:0|0:0,0:0:0:0:
93,288,60001,5,12,0:0:0:0:
119,210,60084,1,0,0:0:0:0:
145,132,60167,1,0,0:0:0:0:
315,264,60335,5,8,0:0:0:0:
289,186,60418,1,0,0:0:0:0:
263,108,60501,1,0,0:0:0:0:
119,210,60668,5,8,0:0:0:0:
145,132,60751,1,0,0:0:0:0:
171,54,60834,1,8,0:0:0:0:
280,56,61001,6,8,L|255:134,1,54.9999999999998
368,32,61168,2,0,L|343:111,1,54.9999999999998,8|0,0:0|0:0,0:0:0:0:
456,8,61335,2,0,L|431:87,1,54.9999999999998,12|0,0:0|0:0,0:0:0:0:
417,137,61501,5,0,0:0:0:0:
391,215,61585,1,0,0:0:0:0:
365,294,61668,1,8,0:0:0:0:
229,176,61835,1,0,0:0:0:0:
351,84,62001,6,0,B|317:131|317:131|265:146,1,82.500003147125,8|0,0:0|0:0,0:0:0:0:
352,113,62168,2,0,B|318:160|318:160|266:175,1,82.500003147125
155,151,62335,2,0,B|189:104|189:104|241:89,2,82.500003147125,8|0|0,0:0|0:0|0:0,0:0:0:0:
94,266,62668,5,12,0:0:0:0:
94,266,62835,1,0,0:0:0:0:
140,292,62918,1,0,0:0:0:0:
193,309,63002,1,8,0:0:0:0:
169,258,63085,1,0,0:0:0:0:
157,206,63168,1,0,0:0:0:0:
155,151,63251,1,0,0:0:0:0:
165,96,63335,1,8,0:0:0:0:
193,144,63418,1,0,0:0:0:0:
236,176,63501,1,0,0:0:0:0:
289,192,63584,1,0,0:0:0:0:
344,200,63668,6,8,P|391:199|440:191,3,82.500003147125
236,176,64001,5,12,0:0:0:0:
425,149,64168,1,0,0:0:0:0:
279,77,64335,2,0,L|183:89,1,82.500003147125,8|0,0:0|0:0,0:0:0:0:
108,146,64501,1,0,0:0:0:0:
286,225,64668,5,8,0:0:0:0:
97,198,64835,1,0,0:0:0:0:
243,126,65001,2,0,L|339:138,1,82.500003147125,8|0,0:0|0:0,0:0:0:0:
414,195,65168,1,8,0:0:0:0:
163,272,65335,5,8,0:0:0:0:
352,245,65502,1,0,0:0:0:0:
206,173,65669,2,0,L|110:185,1,82.500003147125,8|0,0:0|0:0,0:0:0:0:
35,242,65835,1,0,0:0:0:0:
218,323,66001,5,8,0:0:0:0:
29,296,66168,1,0,0:0:0:0:
175,224,66335,2,0,L|271:236,1,82.500003147125,8|0,0:0|0:0,0:0:0:0:
346,293,66501,1,8,0:0:0:0:
128,370,66668,5,12,0:0:0:0:
322,211,66835,1,0,0:0:0:0:
371,173,66918,1,0,0:0:0:0:
418,134,67001,1,8,0:0:0:0:
202,163,67168,1,0,0:0:0:0:
418,134,67335,2,0,L|499:123,2,82.500003147125,8|0|0,0:0|0:0|0:0,0:0:0:0:
185,276,67668,1,8,0:0:0:0:
292,28,67835,1,8,0:0:0:0:
382,299,68001,6,0,L|411:384,1,54.9999999999998,12|0,0:0|0:0,0:0:0:0:
372,327,68168,2,0,L|401:412,1,54.9999999999998,8|0,0:0|0:0,0:0:0:0:
428,223,68335,5,8,0:0:0:0:
259,346,68501,1,0,0:0:0:0:
322,211,68668,5,8,0:0:0:0:
345,154,68751,1,8,0:0:0:0:
333,94,68834,1,8,0:0:0:0:
289,52,68917,1,8,0:0:0:0:
229,40,69001,2,0,L|169:46,6,41.2500015735625
502,19,69335,5,12,0:0:0:0:
368,20,70001,5,0,1:0:0:0:
364,61,70084,1,0,1:0:0:0:
360,102,70168,1,0,1:0:0:0:
507,205,70335,5,0,1:0:0:0:
503,163,70418,1,0,1:0:0:0:
499,122,70501,1,0,1:0:0:0:
347,201,70668,6,0,L|338:296,2,54.9999999999998,12|0|0,0:0|1:0|1:0,1:0:0:0:
212,110,71001,2,0,L|219:27,2,54.9999999999998,8|0|0,0:0|0:0|0:0,0:0:0:0:
362,61,71335,2,0,L|416:56,2,54.9999999999998,8|0|8,0:0|0:0|0:0,0:0:0:0:
131,73,71668,2,8,L|76:68,2,54.9999999999998
396,133,72001,6,0,L|386:244,1,82.500003147125,12|0,0:0|0:0,0:0:0:0:
384,256,72168,1,0,0:0:0:0:
377,296,72251,1,0,0:0:0:0:
289,186,72335,2,0,B|263:142|263:142|202:107,1,82.500003147125,8|0,0:0|0:0,0:0:0:0:
101,94,72501,1,0,0:0:0:0:
269,294,72668,1,8,0:0:0:0:
251,54,72835,1,0,0:0:0:0:
289,186,73001,5,8,0:0:0:0:
293,227,73084,1,0,0:0:0:0:
296,268,73168,2,0,B|305:349,1,82.500003147125
369,220,73335,5,12,0:0:0:0:
369,220,73501,1,0,0:0:0:0:
375,166,73584,1,0,0:0:0:0:
368,111,73668,1,8,0:0:0:0:
332,153,73751,1,0,0:0:0:0:
289,186,73834,1,0,0:0:0:0:
239,210,73917,1,0,0:0:0:0:
186,223,74001,1,8,0:0:0:0:
218,178,74084,1,0,0:0:0:0:
230,125,74167,1,0,0:0:0:0:
222,71,74250,1,0,0:0:0:0:
192,22,74335,6,0,L|122:6,6,41.2500015735625,8|0|8|0|8|0|8,0:0|0:0|0:0|0:0|0:0|0:0|0:0,0:0:0:0:
429,93,74668,5,12,0:0:0:0:
275,260,74835,1,0,0:0:0:0:
488,200,75001,2,0,L|400:192,1,82.500003147125,8|0,0:0|0:0,0:0:0:0:
512,104,75168,1,0,0:0:0:0:
346,299,75335,5,8,0:0:0:0:
192,132,75502,1,0,0:0:0:0:
405,192,75668,2,0,L|317:199,1,82.500003147125,8|0,0:0|0:0,0:0:0:0:
429,288,75835,1,8,0:0:0:0:
263,92,76001,5,12,0:0:0:0:
109,259,76168,1,0,0:0:0:0:
322,199,76334,2,0,L|234:191,1,82.500003147125,8|0,0:0|0:0,0:0:0:0:
346,103,76501,1,0,0:0:0:0:
180,298,76668,5,8,0:0:0:0:
26,131,76835,1,0,0:0:0:0:
239,191,77001,2,0,L|151:198,1,82.500003147125,8|0,0:0|0:0,0:0:0:0:
263,287,77168,1,0,0:0:0:0:
97,91,77335,5,12,0:0:0:0:
298,142,77501,1,0,0:0:0:0:
377,165,77584,1,0,0:0:0:0:
456,188,77668,1,8,0:0:0:0:
362,63,77835,1,0,0:0:0:0:
401,260,78001,2,0,L|420:350,2,82.500003147125,8|0|0,0:0|0:0|0:0,0:0:0:0:
437,90,78335,1,8,0:0:0:0:
315,233,78501,1,8,0:0:0:0:
456,188,78668,5,0,0:0:0:0:
298,142,78835,2,0,L|218:118,1,82.500003147125
140,94,79001,1,0,0:0:0:0:
362,63,79168,1,0,0:0:0:0:
235,197,79335,6,0,L|171:259,1,54.9999999999998
237,226,79501,2,0,L|173:288,1,54.9999999999998
298,142,79668,6,0,L|357:85,3,55.0000020980833
209,39,80001,1,12,0:0:0:0:
174,81,80084,1,0,0:0:0:0:
160,135,80167,1,0,0:0:0:0:
167,189,80250,1,0,0:0:0:0:
195,235,80334,1,8,0:0:0:0:
241,267,80417,1,0,0:0:0:0:
293,280,80500,1,0,0:0:0:0:
348,270,80584,1,0,0:0:0:0:
392,236,80668,6,0,L|451:179,7,55.0000020980833,8|0|0|0|8|0|0|0,0:0|0:0|0:0|0:0|0:0|0:0|0:0|0:0,0:0:0:0:
455,147,81335,5,12,0:0:0:0:
447,92,81418,1,0,0:0:0:0:
416,46,81501,1,0,0:0:0:0:
372,14,81584,1,0,0:0:0:0:
318,5,81668,1,8,0:0:0:0:
265,17,81751,1,0,0:0:0:0:
218,47,81834,1,0,0:0:0:0:
191,96,81918,1,0,0:0:0:0:
194,151,82001,6,0,L|202:246,3,54.9999999999998
289,270,82335,6,0,L|294:325,1,54.9999999999998
319,151,82501,2,0,L|323:96,1,54.9999999999998,8|0,0:0|0:0,0:0:0:0:
431,218,82668,5,12,0:0:0:0:
394,258,82751,1,0,0:0:0:0:
343,277,82834,1,0,0:0:0:0:
289,270,82917,1,0,0:0:0:0:
244,238,83001,1,8,0:0:0:0:
199,206,83084,1,0,0:0:0:0:
145,199,83167,1,0,0:0:0:0:
94,218,83251,1,0,0:0:0:0:
163,305,83335,5,8,0:0:0:0:
212,283,83418,1,0,0:0:0:0:
244,238,83501,1,0,0:0:0:0:
248,184,83584,1,0,0:0:0:0:
226,132,83668,1,8,0:0:0:0:
181,100,83751,1,0,0:0:0:0:
126,96,83834,1,0,0:0:0:0:
76,120,83918,1,0,0:0:0:0:
145,199,84001,5,12,0:0:0:0:
171,190,84084,1,0,0:0:0:0:
194,176,84167,1,0,0:0:0:0:
212,156,84250,1,0,0:0:0:0:
225,131,84334,1,8,0:0:0:0:
231,104,84417,1,0,0:0:0:0:
229,77,84500,1,0,0:0:0:0:
220,51,84584,1,0,0:0:0:0:
205,28,84668,5,8,0:0:0:0:
155,51,84751,1,0,0:0:0:0:
124,95,84834,1,0,0:0:0:0:
120,149,84917,1,0,0:0:0:0:
144,198,85001,1,8,0:0:0:0:
192,174,85084,1,0,0:0:0:0:
246,178,85167,1,0,0:0:0:0:
291,208,85250,1,0,0:0:0:0:
215,256,85335,5,12,0:0:0:0:
255,291,85418,1,0,0:0:0:0:
309,298,85501,1,0,0:0:0:0:
357,273,85584,1,0,0:0:0:0:
382,225,85668,1,8,0:0:0:0:
375,171,85751,1,0,0:0:0:0:
340,130,85834,1,0,0:0:0:0:
287,117,85918,1,0,0:0:0:0:
236,137,86001,6,0,L|163:186,7,54.9999999999998,8|0|0|0|8|0|0|0,0:0|0:0|0:0|0:0|0:0|0:0|0:0|0:0,0:0:0:0:
291,208,86668,5,12,0:0:0:0:
258,251,86751,1,0,0:0:0:0:
208,272,86834,1,0,0:0:0:0:
153,267,86917,1,0,0:0:0:0:
109,235,87001,1,8,0:0:0:0:
86,186,87084,1,0,0:0:0:0:
90,132,87167,1,0,0:0:0:0:
120,86,87251,1,0,0:0:0:0:
165,54,87335,6,0,L|214:11,3,54.9999999999998,8|0|0|0,0:0|0:0|0:0|0:0,0:0:0:0:
291,208,87668,6,0,L|250:244,1,54.9999999999998,8|0,0:0|0:0,0:0:0:0:
259,109,87835,2,0,L|301:72,1,54.9999999999998,8|0,0:0|0:0,0:0:0:0:
365,135,88001,5,12,0:0:0:0:
337,179,88084,1,0,0:0:0:0:
291,208,88167,1,0,0:0:0:0:
237,212,88250,1,0,0:0:0:0:
187,191,88334,1,8,0:0:0:0:
135,169,88417,1,0,0:0:0:0:
81,172,88500,1,0,0:0:0:0:
36,201,88584,1,0,0:0:0:0:
116,272,88668,5,8,0:0:0:0:
156,236,88751,1,0,0:0:0:0:
187,191,88834,1,0,0:0:0:0:
204,140,88917,1,0,0:0:0:0:
207,84,89001,1,8,0:0:0:0:
196,31,89084,1,0,0:0:0:0:
125,74,89168,5,0,0:0:0:0:
153,120,89251,1,0,0:0:0:0:
204,140,89334,1,0,0:0:0:0:
255,124,89417,1,0,0:0:0:0:
285,79,89501,5,0,0:0:0:0:
285,131,89584,1,0,0:0:0:0:
310,178,89667,1,0,0:0:0:0:
358,208,89750,1,0,0:0:0:0:
412,210,89834,1,0,0:0:0:0:
459,185,89917,1,0,0:0:0:0:
482,134,90001,2,0,P|464:54|410:146,1,219.999999999999
256,192,90668,6,0,L|304:240,7,54.9999999999998,14|0|0|0|8|0|0|0,0:0|0:0|0:0|0:0|0:0|0:0|0:0|0:0,0:0:0:0:
323,112,91335,2,0,L|284:73,7,54.9999999999998,8|0|0|0|8|0|0|0,0:0|0:0|0:0|0:0|0:0|0:0|0:0|0:0,0:0:0:0:
137,163,92001,6,0,L|89:211,7,54.9999999999998,12|0|0|0|8|0|0|0,0:0|0:0|0:0|0:0|0:0|0:0|0:0|0:0,0:0:0:0:
217,230,92668,2,0,L|255:191,3,54.9999999999998,8|0|0|0,0:0|0:0|0:0|0:0,0:0:0:0:
139,303,93001,6,0,L|91:351,1,54.9999999999998,8|0,0:0|0:0,0:0:0:0:
219,370,93168,2,0,L|257:331,1,54.9999999999998,8|0,0:0|0:0,0:0:0:0:
255,191,93335,6,0,L|216:152,7,54.9999999999998,12|0|0|0|8|0|0|0,0:0|0:0|0:0|0:0|0:0|0:0|0:0|0:0,0:0:0:0:
244,33,94001,2,0,L|282:71,7,54.9999999999998,8|0|0|0|8|0|0|0,0:0|0:0|0:0|0:0|0:0|0:0|0:0|0:0,0:0:0:0:
389,172,94668,6,0,L|350:210,7,54.9999999999998,12|0|0|0|8|0|0|0,0:0|0:0|0:0|0:0|0:0|0:0|0:0|0:0,0:0:0:0:
309,249,95335,1,8,0:0:0:0:
268,284,95418,1,0,0:0:0:0:
214,293,95501,1,0,0:0:0:0:
164,272,95584,1,0,0:0:0:0:
123,235,95668,2,8,L|84:196,1,54.9999999999998
277,109,95835,2,0,L|315:147,1,54.9999999999998,8|0,0:0|0:0,0:0:0:0:
189,156,96001,6,0,L|150:117,7,54.9999999999998,12|0|0|0|8|0|0|0,0:0|0:0|0:0|0:0|0:0|0:0|0:0|0:0,0:0:0:0:
220,56,96668,2,0,L|258:17,7,54.9999999999998,8|0|0|0|8|0|0|0,0:0|0:0|0:0|0:0|0:0|0:0|0:0|0:0,0:0:0:0:
261,156,97335,6,0,L|299:194,7,54.9999999999998,12|0|0|0|8|0|0|0,0:0|0:0|0:0|0:0|0:0|0:0|0:0|0:0,0:0:0:0:
230,256,98001,2,0,L|191:294,3,54.9999999999998,8|0|0|0,0:0|0:0|0:0|0:0,0:0:0:0:
87,122,98335,6,0,L|125:83,1,54.9999999999998,8|0,0:0|0:0,0:0:0:0:
300,117,98501,2,0,L|261:155,1,54.9999999999998,8|0,0:0|0:0,0:0:0:0:
243,61,98668,6,0,L|281:22,7,54.9999999999998
260,155,99335,2,0,L|299:194,5,54.9999999999998
147,55,99835,1,0,0:0:0:0:
134,52,99918,1,0,0:0:0:0:
121,49,100001,5,0,0:0:0:0:
71,72,100084,1,0,0:0:0:0:
40,116,100167,1,0,0:0:0:0:
36,171,100250,1,0,0:0:0:0:
60,219,100334,1,0,0:0:0:0:
106,249,100417,1,0,0:0:0:0:
160,252,100500,1,0,0:0:0:0:
208,227,100584,1,0,0:0:0:0:
237,181,100667,5,0,0:0:0:0:
272,243,100751,1,0,0:0:0:0:
340,267,100834,1,0,0:0:0:0:
407,241,100917,1,0,0:0:0:0:
441,178,101001,1,0,0:0:0:0:
426,107,101084,1,0,0:0:0:0:
369,64,101168,2,0,L|304:35,1,54.9999999999998
339,164,101335,5,14,0:0:0:0:
