osu file format v14

[General]
AudioFilename: cocki-cocki.mp3
AudioLeadIn: 0
PreviewTime: 10807
Countdown: 0
SampleSet: Normal
StackLeniency: 0.7
Mode: 1
LetterboxInBreaks: 0
WidescreenStoryboard: 0

[Editor]
Bookmarks: 5474,32140,42807,53474,90807
DistanceSpacing: 1.3
BeatDivisor: 4
GridSize: 32
TimelineZoom: 2.799999

[Metadata]
Title:Doki-Doki
TitleUnicode:Doki-Doki
Artist:Thaehan
ArtistUnicode:Thaehan
Creator:Taikocracy
Version:Futsuu
Source:
Tags:Ayyri JUDYDANNY Loki Power Up Electronic Chiptune
BeatmapID:1319598
BeatmapSetID:626006

[Difficulty]
HPDrainRate:6
CircleSize:2
OverallDifficulty:4
ApproachRate:10
SliderMultiplier:1.4
SliderTickRate:1

[Events]
//Background and Video events
0,0,"asian-art-painting-original-painting-ink-brush-art-Chinese-plum-painting-abstract-watercolor-famous-artist-fengshui.jpg",0,0
//Break Periods
//Storyboard Layer 0 (Background)
//Storyboard Layer 1 (Fail)
//Storyboard Layer 2 (Pass)
//Storyboard Layer 3 (Foreground)
//Storyboard Sound Samples

[TimingPoints]
141,333.333333333333,4,1,0,100,1,0
10807,-100,4,1,0,100,0,1
21474,-100,4,1,0,100,0,0
58807,-100,4,1,0,100,0,1
69474,-100,4,1,0,100,0,0
72140,-100,4,1,0,100,0,1
80140,-100,4,1,0,100,0,0

[HitObjects]
256,192,141,5,4,0:0:0:0:
256,192,807,1,8,0:0:0:0:
256,192,1140,1,0,0:0:0:0:
256,192,1474,1,8,0:0:0:0:
256,192,1640,1,8,0:0:0:0:
256,192,1807,1,0,0:0:0:0:
256,192,2140,1,0,0:0:0:0:
256,192,2307,1,0,0:0:0:0:
256,192,2474,1,8,0:0:0:0:
256,192,2807,1,0,0:0:0:0:
256,192,3140,1,8,0:0:0:0:
256,192,3474,1,8,0:0:0:0:
256,192,3807,1,0,0:0:0:0:
256,192,4140,1,8,0:0:0:0:
256,192,4807,1,8,0:0:0:0:
256,192,5140,1,8,0:0:0:0:
256,192,5474,1,0,0:0:0:0:
256,192,6140,1,8,0:0:0:0:
256,192,6807,1,0,0:0:0:0:
256,192,7474,1,8,0:0:0:0:
256,192,7807,1,0,0:0:0:0:
256,192,8140,1,8,0:0:0:0:
256,192,8474,1,0,0:0:0:0:
256,192,8640,1,0,0:0:0:0:
256,192,8807,1,8,0:0:0:0:
256,192,9140,1,8,0:0:0:0:
256,192,9474,1,0,0:0:0:0:
256,192,10140,1,8,0:0:0:0:
256,192,10807,1,4,0:0:0:0:
256,192,11140,1,0,0:0:0:0:
256,192,11307,1,0,0:0:0:0:
256,192,11474,1,8,0:0:0:0:
256,192,11807,1,0,0:0:0:0:
256,192,12140,1,8,0:0:0:0:
256,192,12807,1,8,0:0:0:0:
256,192,13140,1,0,0:0:0:0:
256,192,13474,1,8,0:0:0:0:
256,192,13807,1,0,0:0:0:0:
256,192,13974,1,0,0:0:0:0:
256,192,14140,1,8,0:0:0:0:
256,192,14474,1,8,0:0:0:0:
256,192,14807,1,0,0:0:0:0:
256,192,15140,1,0,0:0:0:0:
256,192,15474,1,8,0:0:0:0:
256,192,15640,1,8,0:0:0:0:
256,192,15807,1,0,0:0:0:0:
256,192,16140,1,8,0:0:0:0:
256,192,16640,1,8,0:0:0:0:
256,192,16807,1,0,0:0:0:0:
256,192,17307,1,0,0:0:0:0:
256,192,17474,1,8,0:0:0:0:
256,192,17974,1,8,0:0:0:0:
256,192,18140,1,0,0:0:0:0:
256,192,18474,1,8,0:0:0:0:
256,192,18807,1,0,0:0:0:0:
256,192,19140,1,0,0:0:0:0:
256,192,19307,1,0,0:0:0:0:
256,192,19474,1,8,0:0:0:0:
256,192,19807,1,8,0:0:0:0:
256,192,20140,1,0,0:0:0:0:
256,192,20807,1,0,0:0:0:0:
256,192,21140,1,8,0:0:0:0:
256,192,21474,1,0,0:0:0:0:
256,192,22140,1,0,0:0:0:0:
256,192,22307,1,0,0:0:0:0:
256,192,22474,1,0,0:0:0:0:
256,192,22807,1,8,0:0:0:0:
256,192,23140,1,0,0:0:0:0:
256,192,23474,1,8,0:0:0:0:
256,192,23807,1,8,0:0:0:0:
256,192,24140,1,0,0:0:0:0:
256,192,24807,1,0,0:0:0:0:
256,192,24974,1,0,0:0:0:0:
256,192,25140,1,0,0:0:0:0:
256,192,25474,1,8,0:0:0:0:
256,192,25807,1,0,0:0:0:0:
256,192,26140,1,8,0:0:0:0:
256,192,26474,1,8,0:0:0:0:
256,192,26807,1,0,0:0:0:0:
256,192,27474,1,0,0:0:0:0:
256,192,27640,1,0,0:0:0:0:
256,192,27807,1,0,0:0:0:0:
256,192,28140,1,8,0:0:0:0:
256,192,28474,1,0,0:0:0:0:
256,192,28807,1,8,0:0:0:0:
256,192,29140,1,0,0:0:0:0:
256,192,29474,1,8,0:0:0:0:
256,192,30140,1,0,0:0:0:0:
256,192,30474,1,8,0:0:0:0:
256,192,30807,1,0,0:0:0:0:
256,192,31140,1,0,0:0:0:0:
256,192,31307,1,0,0:0:0:0:
256,192,31474,1,8,0:0:0:0:
256,192,31807,1,0,0:0:0:0:
256,192,32140,1,0,0:0:0:0:
256,192,32474,1,0,0:0:0:0:
256,192,32640,1,0,0:0:0:0:
256,192,32807,1,0,0:0:0:0:
256,192,33140,1,8,0:0:0:0:
256,192,33474,1,0,0:0:0:0:
256,192,34140,1,8,0:0:0:0:
256,192,34307,1,0,0:0:0:0:
256,192,34474,1,8,0:0:0:0:
256,192,34807,1,0,0:0:0:0:
256,192,35140,1,0,0:0:0:0:
256,192,35307,1,0,0:0:0:0:
256,192,35474,1,0,0:0:0:0:
256,192,35807,1,8,0:0:0:0:
256,192,36140,1,0,0:0:0:0:
256,192,36807,1,8,0:0:0:0:
256,192,36974,1,0,0:0:0:0:
256,192,37140,5,8,0:0:0:0:
256,192,37474,1,0,0:0:0:0:
256,192,37807,1,0,0:0:0:0:
256,192,37974,1,0,0:0:0:0:
256,192,38140,1,0,0:0:0:0:
256,192,38474,1,8,0:0:0:0:
256,192,38807,1,0,0:0:0:0:
256,192,39474,1,8,0:0:0:0:
256,192,39640,1,0,0:0:0:0:
256,192,39807,1,8,0:0:0:0:
256,192,40140,1,0,0:0:0:0:
256,192,40474,1,0,0:0:0:0:
256,192,40640,1,0,0:0:0:0:
256,192,40807,1,0,0:0:0:0:
256,192,41140,1,8,0:0:0:0:
256,192,41474,1,0,0:0:0:0:
256,192,42140,5,8,0:0:0:0:
256,192,42807,5,0,0:0:0:0:
256,192,43140,1,8,0:0:0:0:
256,192,43307,1,8,0:0:0:0:
256,192,43474,1,0,0:0:0:0:
256,192,43807,1,8,0:0:0:0:
256,192,44140,1,0,0:0:0:0:
256,192,44474,1,8,0:0:0:0:
256,192,44640,1,0,0:0:0:0:
256,192,44807,1,8,0:0:0:0:
256,192,45474,1,0,0:0:0:0:
256,192,45807,1,8,0:0:0:0:
256,192,46140,1,0,0:0:0:0:
256,192,46474,1,8,0:0:0:0:
256,192,46640,1,0,0:0:0:0:
256,192,46807,1,8,0:0:0:0:
256,192,47140,1,0,0:0:0:0:
256,192,47474,1,8,0:0:0:0:
256,192,47640,1,8,0:0:0:0:
256,192,47807,1,0,0:0:0:0:
256,192,48140,1,0,0:0:0:0:
256,192,48474,1,8,0:0:0:0:
256,192,48640,1,8,0:0:0:0:
256,192,48807,1,0,0:0:0:0:
256,192,49140,1,8,0:0:0:0:
256,192,49474,1,0,0:0:0:0:
256,192,49807,1,0,0:0:0:0:
256,192,49974,1,0,0:0:0:0:
256,192,50140,1,8,0:0:0:0:
256,192,50807,1,8,0:0:0:0:
256,192,50974,1,0,0:0:0:0:
256,192,51140,1,8,0:0:0:0:
256,192,51474,1,0,0:0:0:0:
256,192,51807,1,8,0:0:0:0:
256,192,52140,1,0,0:0:0:0:
256,192,52807,1,8,0:0:0:0:
256,192,53474,1,0,0:0:0:0:
256,192,54140,1,0,0:0:0:0:
256,192,54807,1,8,0:0:0:0:
256,192,55474,1,8,0:0:0:0:
256,192,56140,1,0,0:0:0:0:
256,192,56474,1,0,0:0:0:0:
256,192,56807,1,8,0:0:0:0:
256,192,57140,1,8,0:0:0:0:
256,192,57474,1,4,0:0:0:0:
256,192,58474,1,8,0:0:0:0:
256,192,58807,1,4,0:0:0:0:
256,192,59140,1,8,0:0:0:0:
256,192,59307,1,8,0:0:0:0:
256,192,59474,1,0,0:0:0:0:
256,192,59807,1,8,0:0:0:0:
256,192,60140,1,0,0:0:0:0:
256,192,60807,1,8,0:0:0:0:
256,192,61140,1,0,0:0:0:0:
256,192,61474,1,0,0:0:0:0:
256,192,61807,1,8,0:0:0:0:
256,192,61974,1,8,0:0:0:0:
256,192,62140,1,0,0:0:0:0:
256,192,62474,1,8,0:0:0:0:
256,192,62807,1,0,0:0:0:0:
256,192,63474,1,0,0:0:0:0:
256,192,63640,1,0,0:0:0:0:
256,192,63807,1,8,0:0:0:0:
256,192,64140,1,8,0:0:0:0:
256,192,64640,1,8,0:0:0:0:
256,192,64807,1,0,0:0:0:0:
256,192,65307,1,0,0:0:0:0:
256,192,65474,1,8,0:0:0:0:
256,192,65974,1,8,0:0:0:0:
256,192,66140,1,0,0:0:0:0:
256,192,66474,1,8,0:0:0:0:
256,192,66807,1,0,0:0:0:0:
256,192,67140,1,0,0:0:0:0:
256,192,67307,1,0,0:0:0:0:
256,192,67474,1,8,0:0:0:0:
256,192,67807,1,8,0:0:0:0:
256,192,68140,1,0,0:0:0:0:
256,192,68807,1,0,0:0:0:0:
256,192,69140,1,8,0:0:0:0:
256,192,69474,1,0,0:0:0:0:
256,192,70140,1,8,0:0:0:0:
256,192,70307,1,8,0:0:0:0:
256,192,70474,1,0,0:0:0:0:
256,192,70807,1,8,0:0:0:0:
256,192,71140,1,0,0:0:0:0:
256,192,71474,1,8,0:0:0:0:
256,192,71807,1,0,0:0:0:0:
256,192,72140,1,8,0:0:0:0:
256,192,72474,1,0,0:0:0:0:
256,192,72640,1,0,0:0:0:0:
256,192,72807,1,8,0:0:0:0:
256,192,73140,1,8,0:0:0:0:
256,192,73474,1,0,0:0:0:0:
256,192,74140,1,8,0:0:0:0:
256,192,74474,1,0,0:0:0:0:
256,192,74807,1,8,0:0:0:0:
256,192,75307,1,8,0:0:0:0:
256,192,75474,1,0,0:0:0:0:
256,192,75974,1,0,0:0:0:0:
256,192,76140,1,8,0:0:0:0:
256,192,76640,1,8,0:0:0:0:
256,192,76807,1,0,0:0:0:0:
256,192,77140,1,0,0:0:0:0:
256,192,77474,1,8,0:0:0:0:
256,192,77807,1,8,0:0:0:0:
256,192,77974,1,8,0:0:0:0:
256,192,78140,1,0,0:0:0:0:
256,192,78474,1,8,0:0:0:0:
256,192,78807,1,0,0:0:0:0:
256,192,79474,1,0,0:0:0:0:
256,192,79807,1,8,0:0:0:0:
256,192,80140,1,0,0:0:0:0:
256,192,80474,1,0,0:0:0:0:
256,192,80640,1,0,0:0:0:0:
256,192,80807,1,8,0:0:0:0:
256,192,81140,1,8,0:0:0:0:
256,192,81474,1,0,0:0:0:0:
256,192,81807,1,0,0:0:0:0:
256,192,82140,1,8,0:0:0:0:
256,192,82807,1,0,0:0:0:0:
256,192,83140,1,8,0:0:0:0:
256,192,83307,1,8,0:0:0:0:
256,192,83474,1,0,0:0:0:0:
256,192,83807,1,0,0:0:0:0:
256,192,84140,1,8,0:0:0:0:
256,192,84474,1,0,0:0:0:0:
256,192,84807,1,8,0:0:0:0:
256,192,85474,1,0,0:0:0:0:
256,192,85807,1,0,0:0:0:0:
256,192,85974,1,0,0:0:0:0:
256,192,86140,1,8,0:0:0:0:
256,192,86474,1,8,0:0:0:0:
256,192,86807,1,0,0:0:0:0:
256,192,87140,1,0,0:0:0:0:
256,192,87474,1,8,0:0:0:0:
256,192,88140,1,0,0:0:0:0:
256,192,88474,1,8,0:0:0:0:
256,192,88640,1,8,0:0:0:0:
256,192,88807,1,0,0:0:0:0:
256,192,89140,1,0,0:0:0:0:
256,192,89474,1,8,0:0:0:0:
256,192,90474,1,8,0:0:0:0:
256,192,90807,1,0,0:0:0:0:
256,192,90974,1,0,0:0:0:0:
256,192,91140,1,8,0:0:0:0:
256,192,91474,1,0,0:0:0:0:
256,192,91807,1,8,0:0:0:0:
256,192,92140,1,0,0:0:0:0:
256,192,92307,1,0,0:0:0:0:
256,192,92474,1,8,0:0:0:0:
256,192,92807,1,0,0:0:0:0:
256,192,93474,1,0,0:0:0:0:
256,192,93640,1,0,0:0:0:0:
256,192,93807,1,8,0:0:0:0:
256,192,94140,1,0,0:0:0:0:
256,192,94474,1,8,0:0:0:0:
256,192,94807,1,8,0:0:0:0:
256,192,94974,1,8,0:0:0:0:
256,192,95140,1,0,0:0:0:0:
256,192,95474,1,8,0:0:0:0:
256,192,95807,1,8,0:0:0:0:
256,192,96140,1,0,0:0:0:0:
256,192,96307,1,0,0:0:0:0:
256,192,96474,1,8,0:0:0:0:
256,192,96807,1,0,0:0:0:0:
256,192,97140,1,8,0:0:0:0:
256,192,97474,1,0,0:0:0:0:
256,192,97640,1,0,0:0:0:0:
256,192,97807,1,8,0:0:0:0:
256,192,98140,1,0,0:0:0:0:
256,192,98807,1,0,0:0:0:0:
256,192,99140,1,8,0:0:0:0:
256,192,99474,1,0,0:0:0:0:
256,192,99807,1,8,0:0:0:0:
256,192,100140,1,8,0:0:0:0:
256,192,100307,1,8,0:0:0:0:
256,192,100474,1,0,0:0:0:0:
256,192,100807,1,0,0:0:0:0:
256,192,101140,1,12,0:0:0:0:
256,192,101474,1,4,0:0:0:0:
