osu file format v14

[General]
AudioFilename: cocki-cocki.mp3
AudioLeadIn: 0
PreviewTime: 10807
Countdown: 0
SampleSet: Normal
StackLeniency: 0.7
Mode: 1
LetterboxInBreaks: 0
WidescreenStoryboard: 0

[Editor]
Bookmarks: 141,10807,21474,32140,42807,53474,58807,69474,72140,80140,90807,101474
DistanceSpacing: 1.3
BeatDivisor: 4
GridSize: 32
TimelineZoom: 2.799999

[Metadata]
Title:Doki-Doki
TitleUnicode:Doki-Doki
Artist:Thaehan
ArtistUnicode:Thaehan
Creator:Taikocracy
Version:Ayyri's Outer Oni
Source:
Tags:Ayyri JUDYDANNY Loki Power Up Electronic Chiptune
BeatmapID:1319597
BeatmapSetID:626006

[Difficulty]
HPDrainRate:6
CircleSize:2
OverallDifficulty:6
ApproachRate:10
SliderMultiplier:1.4
SliderTickRate:1

[Events]
//Background and Video events
0,0,"Kokoro 658.jpg",0,75
//Break Periods
//Storyboard Layer 0 (Background)
//Storyboard Layer 1 (Fail)
//Storyboard Layer 2 (Pass)
//Storyboard Layer 3 (Foreground)
//Storyboard Sound Samples

[TimingPoints]
141,333.333333333333,4,1,0,100,1,0
10807,-100,4,1,0,100,0,1
21474,-100,4,1,0,100,0,0
58807,-100,4,1,0,100,0,1
69474,-100,4,1,0,100,0,0
72140,-100,4,1,0,100,0,1
80140,-100,4,1,0,100,0,0
90807,-100,4,1,0,100,0,1
101474,-100,4,1,0,100,0,0

[HitObjects]
256,192,141,5,4,0:0:0:0:
256,192,307,1,8,0:0:0:0:
256,192,390,1,0,0:0:0:0:
256,192,474,1,8,0:0:0:0:
256,192,557,1,8,0:0:0:0:
256,192,640,1,0,0:0:0:0:
256,192,724,1,8,0:0:0:0:
256,192,807,1,8,0:0:0:0:
256,192,890,1,0,0:0:0:0:
256,192,974,1,8,0:0:0:0:
256,192,1140,1,8,0:0:0:0:
256,192,1224,1,8,0:0:0:0:
256,192,1307,1,0,0:0:0:0:
256,192,1474,1,8,0:0:0:0:
256,192,1557,1,0,0:0:0:0:
256,192,1640,1,8,0:0:0:0:
256,192,1807,1,0,0:0:0:0:
256,192,1890,1,8,0:0:0:0:
256,192,1974,1,0,0:0:0:0:
256,192,2140,1,8,0:0:0:0:
256,192,2224,1,0,0:0:0:0:
256,192,2307,1,8,0:0:0:0:
256,192,2474,1,0,0:0:0:0:
256,192,2557,1,0,0:0:0:0:
256,192,2640,1,8,0:0:0:0:
256,192,2724,1,8,0:0:0:0:
256,192,2807,1,0,0:0:0:0:
256,192,2974,1,8,0:0:0:0:
256,192,3057,1,0,0:0:0:0:
256,192,3140,1,8,0:0:0:0:
256,192,3224,1,8,0:0:0:0:
256,192,3307,1,0,0:0:0:0:
256,192,3474,1,0,0:0:0:0:
256,192,3640,1,8,0:0:0:0:
256,192,3807,1,0,0:0:0:0:
256,192,3890,1,8,0:0:0:0:
256,192,3974,1,0,0:0:0:0:
256,192,4140,1,0,0:0:0:0:
256,192,4307,1,8,0:0:0:0:
256,192,4390,1,0,0:0:0:0:
256,192,4474,1,8,0:0:0:0:
256,192,4557,1,8,0:0:0:0:
256,192,4640,1,0,0:0:0:0:
256,192,4724,1,8,0:0:0:0:
256,192,4807,1,8,0:0:0:0:
256,192,4890,1,0,0:0:0:0:
256,192,4974,1,8,0:0:0:0:
256,192,5057,1,0,0:0:0:0:
256,192,5140,1,8,0:0:0:0:
256,192,5196,1,8,0:0:0:0:
256,192,5252,1,8,0:0:0:0:
256,192,5307,1,0,0:0:0:0:
256,192,5390,1,8,0:0:0:0:
256,192,5474,1,0,0:0:0:0:
256,192,5807,1,8,0:0:0:0:
256,192,5974,1,0,0:0:0:0:
256,192,6140,1,0,0:0:0:0:
256,192,6474,1,8,0:0:0:0:
256,192,6640,1,8,0:0:0:0:
256,192,6807,1,0,0:0:0:0:
256,192,7140,1,8,0:0:0:0:
256,192,7307,1,0,0:0:0:0:
256,192,7474,1,0,0:0:0:0:
256,192,7640,1,8,0:0:0:0:
256,192,7807,1,0,0:0:0:0:
256,192,7974,1,8,0:0:0:0:
256,192,8140,1,8,0:0:0:0:
256,192,8307,1,0,0:0:0:0:
256,192,8390,1,0,0:0:0:0:
256,192,8474,1,8,0:0:0:0:
256,192,8557,1,8,0:0:0:0:
256,192,8640,1,8,0:0:0:0:
256,192,8807,1,8,0:0:0:0:
256,192,8974,1,0,0:0:0:0:
256,192,9140,1,8,0:0:0:0:
256,192,9307,1,8,0:0:0:0:
256,192,9474,1,0,0:0:0:0:
256,192,9640,1,8,0:0:0:0:
256,192,9724,1,0,0:0:0:0:
256,192,9807,1,8,0:0:0:0:
256,192,9974,1,8,0:0:0:0:
256,192,10140,1,0,0:0:0:0:
256,192,10224,1,8,0:0:0:0:
256,192,10307,1,0,0:0:0:0:
256,192,10390,1,0,0:0:0:0:
256,192,10474,1,12,0:0:0:0:
256,192,10807,1,4,0:0:0:0:
256,192,10974,1,0,0:0:0:0:
256,192,11057,1,8,0:0:0:0:
256,192,11140,1,8,0:0:0:0:
256,192,11224,1,0,0:0:0:0:
256,192,11307,1,8,0:0:0:0:
256,192,11390,1,0,0:0:0:0:
256,192,11474,1,8,0:0:0:0:
256,192,11640,1,0,0:0:0:0:
256,192,11807,1,8,0:0:0:0:
256,192,11890,1,8,0:0:0:0:
256,192,11974,1,0,0:0:0:0:
256,192,12140,1,0,0:0:0:0:
256,192,12224,1,8,0:0:0:0:
256,192,12307,1,0,0:0:0:0:
256,192,12474,1,8,0:0:0:0:
256,192,12557,1,0,0:0:0:0:
256,192,12640,1,8,0:0:0:0:
256,192,12807,1,0,0:0:0:0:
256,192,12890,1,8,0:0:0:0:
256,192,12974,1,0,0:0:0:0:
256,192,13140,1,0,0:0:0:0:
256,192,13224,1,0,0:0:0:0:
256,192,13307,1,8,0:0:0:0:
256,192,13474,1,0,0:0:0:0:
256,192,13640,1,8,0:0:0:0:
256,192,13724,1,0,0:0:0:0:
256,192,13807,1,0,0:0:0:0:
256,192,13974,1,8,0:0:0:0:
256,192,14140,1,8,0:0:0:0:
256,192,14307,1,0,0:0:0:0:
256,192,14474,1,8,0:0:0:0:
256,192,14557,1,8,0:0:0:0:
256,192,14640,1,0,0:0:0:0:
256,192,14807,1,8,0:0:0:0:
256,192,14974,1,8,0:0:0:0:
256,192,15057,1,0,0:0:0:0:
256,192,15140,1,8,0:0:0:0:
256,192,15224,1,8,0:0:0:0:
256,192,15307,1,0,0:0:0:0:
256,192,15390,1,8,0:0:0:0:
256,192,15474,1,8,0:0:0:0:
256,192,15557,1,0,0:0:0:0:
256,192,15640,1,8,0:0:0:0:
256,192,15724,1,0,0:0:0:0:
256,192,15807,1,8,0:0:0:0:
256,192,15863,1,8,0:0:0:0:
256,192,15918,1,8,0:0:0:0:
256,192,15974,1,0,0:0:0:0:
256,192,16057,1,0,0:0:0:0:
256,192,16140,1,8,0:0:0:0:
256,192,16307,1,8,0:0:0:0:
256,192,16474,1,0,0:0:0:0:
256,192,16640,1,8,0:0:0:0:
256,192,16807,1,8,0:0:0:0:
256,192,16974,1,8,0:0:0:0:
256,192,17140,1,0,0:0:0:0:
256,192,17307,1,8,0:0:0:0:
256,192,17474,1,8,0:0:0:0:
256,192,17640,1,8,0:0:0:0:
256,192,17807,1,0,0:0:0:0:
256,192,17974,1,8,0:0:0:0:
256,192,18140,1,8,0:0:0:0:
256,192,18307,1,8,0:0:0:0:
256,192,18474,1,0,0:0:0:0:
256,192,18640,1,8,0:0:0:0:
256,192,18807,1,0,0:0:0:0:
256,192,18974,1,8,0:0:0:0:
256,192,19057,1,0,0:0:0:0:
256,192,19140,1,8,0:0:0:0:
256,192,19224,1,8,0:0:0:0:
256,192,19307,1,0,0:0:0:0:
256,192,19474,1,0,0:0:0:0:
256,192,19640,1,8,0:0:0:0:
256,192,19807,1,0,0:0:0:0:
256,192,19974,1,8,0:0:0:0:
256,192,20140,1,8,0:0:0:0:
256,192,20307,1,8,0:0:0:0:
256,192,20390,1,8,0:0:0:0:
256,192,20474,1,0,0:0:0:0:
256,192,20640,1,0,0:0:0:0:
256,192,20807,1,8,0:0:0:0:
256,192,20890,1,0,0:0:0:0:
256,192,20974,1,8,0:0:0:0:
256,192,21057,1,0,0:0:0:0:
256,192,21140,1,12,0:0:0:0:
256,192,21474,1,0,0:0:0:0:
256,192,21557,1,8,0:0:0:0:
256,192,21640,1,0,0:0:0:0:
256,192,21724,1,8,0:0:0:0:
256,192,21807,1,8,0:0:0:0:
256,192,21890,1,0,0:0:0:0:
256,192,21974,1,8,0:0:0:0:
256,192,22057,1,0,0:0:0:0:
256,192,22140,1,8,0:0:0:0:
256,192,22224,1,8,0:0:0:0:
256,192,22307,1,8,0:0:0:0:
256,192,22390,1,8,0:0:0:0:
256,192,22474,1,0,0:0:0:0:
256,192,22557,1,0,0:0:0:0:
256,192,22640,1,8,0:0:0:0:
256,192,22724,1,0,0:0:0:0:
256,192,22807,1,8,0:0:0:0:
256,192,22890,1,8,0:0:0:0:
256,192,22974,1,0,0:0:0:0:
256,192,23057,1,0,0:0:0:0:
256,192,23140,1,8,0:0:0:0:
256,192,23224,1,0,0:0:0:0:
256,192,23307,1,8,0:0:0:0:
256,192,23390,1,8,0:0:0:0:
256,192,23474,1,0,0:0:0:0:
256,192,23557,1,8,0:0:0:0:
256,192,23640,1,0,0:0:0:0:
256,192,23724,1,8,0:0:0:0:
256,192,23807,1,8,0:0:0:0:
256,192,23890,1,0,0:0:0:0:
256,192,23974,1,8,0:0:0:0:
256,192,24057,1,0,0:0:0:0:
256,192,24140,1,0,0:0:0:0:
256,192,24224,1,8,0:0:0:0:
256,192,24307,1,8,0:0:0:0:
256,192,24390,1,0,0:0:0:0:
256,192,24474,1,8,0:0:0:0:
256,192,24557,1,0,0:0:0:0:
256,192,24640,1,8,0:0:0:0:
256,192,24724,1,8,0:0:0:0:
256,192,24807,1,8,0:0:0:0:
256,192,24890,1,8,0:0:0:0:
256,192,24974,1,0,0:0:0:0:
256,192,25057,1,0,0:0:0:0:
256,192,25140,1,8,0:0:0:0:
256,192,25224,1,0,0:0:0:0:
256,192,25307,1,8,0:0:0:0:
256,192,25390,1,0,0:0:0:0:
256,192,25474,1,8,0:0:0:0:
256,192,25557,1,8,0:0:0:0:
256,192,25640,1,0,0:0:0:0:
256,192,25724,1,8,0:0:0:0:
256,192,25807,1,8,0:0:0:0:
256,192,25890,1,0,0:0:0:0:
256,192,25974,1,8,0:0:0:0:
256,192,26057,1,0,0:0:0:0:
256,192,26140,1,8,0:0:0:0:
256,192,26224,1,8,0:0:0:0:
256,192,26307,1,0,0:0:0:0:
256,192,26390,1,0,0:0:0:0:
256,192,26474,1,8,0:0:0:0:
256,192,26557,1,8,0:0:0:0:
256,192,26640,1,8,0:0:0:0:
256,192,26724,1,8,0:0:0:0:
256,192,26807,1,0,0:0:0:0:
256,192,26890,1,8,0:0:0:0:
256,192,26974,1,0,0:0:0:0:
256,192,27057,1,8,0:0:0:0:
256,192,27140,1,8,0:0:0:0:
256,192,27224,1,0,0:0:0:0:
256,192,27307,1,8,0:0:0:0:
256,192,27390,1,0,0:0:0:0:
256,192,27474,1,8,0:0:0:0:
256,192,27557,1,8,0:0:0:0:
256,192,27640,1,0,0:0:0:0:
256,192,27724,1,8,0:0:0:0:
256,192,27807,1,8,0:0:0:0:
256,192,27890,1,0,0:0:0:0:
256,192,27974,1,8,0:0:0:0:
256,192,28057,1,0,0:0:0:0:
256,192,28140,1,8,0:0:0:0:
256,192,28224,1,8,0:0:0:0:
256,192,28307,1,0,0:0:0:0:
256,192,28390,1,0,0:0:0:0:
256,192,28474,1,8,0:0:0:0:
256,192,28557,1,0,0:0:0:0:
256,192,28640,1,8,0:0:0:0:
256,192,28724,1,8,0:0:0:0:
256,192,28807,1,0,0:0:0:0:
256,192,28890,1,8,0:0:0:0:
256,192,28974,1,8,0:0:0:0:
256,192,29057,1,8,0:0:0:0:
256,192,29140,1,8,0:0:0:0:
256,192,29224,1,0,0:0:0:0:
256,192,29307,1,8,0:0:0:0:
256,192,29390,1,0,0:0:0:0:
256,192,29474,1,8,0:0:0:0:
256,192,29557,1,8,0:0:0:0:
256,192,29640,1,0,0:0:0:0:
256,192,29724,1,0,0:0:0:0:
256,192,29807,1,8,0:0:0:0:
256,192,29890,1,8,0:0:0:0:
256,192,29974,1,0,0:0:0:0:
256,192,30057,1,8,0:0:0:0:
256,192,30140,1,8,0:0:0:0:
256,192,30224,1,0,0:0:0:0:
256,192,30307,1,8,0:0:0:0:
256,192,30390,1,0,0:0:0:0:
256,192,30474,1,8,0:0:0:0:
256,192,30557,1,8,0:0:0:0:
256,192,30640,1,0,0:0:0:0:
256,192,30724,1,0,0:0:0:0:
256,192,30807,1,8,0:0:0:0:
256,192,31140,1,8,0:0:0:0:
256,192,31224,1,8,0:0:0:0:
256,192,31307,1,8,0:0:0:0:
256,192,31474,1,8,0:0:0:0:
256,192,31640,1,0,0:0:0:0:
256,192,31807,1,0,0:0:0:0:
256,192,31974,1,8,0:0:0:0:
256,192,32140,1,0,0:0:0:0:
256,192,32224,1,8,0:0:0:0:
256,192,32307,1,0,0:0:0:0:
256,192,32390,1,8,0:0:0:0:
256,192,32474,1,8,0:0:0:0:
256,192,32557,1,0,0:0:0:0:
256,192,32640,1,8,0:0:0:0:
256,192,32724,1,0,0:0:0:0:
256,192,32807,1,8,0:0:0:0:
256,192,32890,1,8,0:0:0:0:
256,192,32974,1,0,0:0:0:0:
256,192,33057,1,0,0:0:0:0:
256,192,33140,1,8,0:0:0:0:
256,192,33224,1,8,0:0:0:0:
256,192,33307,1,8,0:0:0:0:
256,192,33390,1,8,0:0:0:0:
256,192,33474,1,0,0:0:0:0:
256,192,33557,1,8,0:0:0:0:
256,192,33640,1,0,0:0:0:0:
256,192,33724,1,8,0:0:0:0:
256,192,33807,1,8,0:0:0:0:
256,192,33890,1,0,0:0:0:0:
256,192,33974,1,8,0:0:0:0:
256,192,34057,1,0,0:0:0:0:
256,192,34140,1,8,0:0:0:0:
256,192,34196,1,8,0:0:0:0:
256,192,34252,1,8,0:0:0:0:
256,192,34307,1,0,0:0:0:0:
256,192,34390,1,0,0:0:0:0:
256,192,34474,1,8,0:0:0:0:
256,192,34557,1,8,0:0:0:0:
256,192,34640,1,0,0:0:0:0:
256,192,34724,1,0,0:0:0:0:
256,192,34807,1,8,0:0:0:0:
256,192,34890,1,0,0:0:0:0:
256,192,34974,1,0,0:0:0:0:
256,192,35057,1,8,0:0:0:0:
256,192,35140,1,0,0:0:0:0:
256,192,35224,1,8,0:0:0:0:
256,192,35307,1,8,0:0:0:0:
256,192,35390,1,0,0:0:0:0:
256,192,35474,1,8,0:0:0:0:
256,192,35557,1,0,0:0:0:0:
256,192,35640,1,8,0:0:0:0:
256,192,35724,1,0,0:0:0:0:
256,192,35807,1,8,0:0:0:0:
256,192,35890,1,8,0:0:0:0:
256,192,35974,1,0,0:0:0:0:
256,192,36057,1,0,0:0:0:0:
256,192,36140,1,8,0:0:0:0:
256,192,36224,1,0,0:0:0:0:
256,192,36307,1,0,0:0:0:0:
256,192,36390,1,8,0:0:0:0:
256,192,36474,1,8,0:0:0:0:
256,192,36557,1,0,0:0:0:0:
256,192,36640,1,8,0:0:0:0:
256,192,36724,1,0,0:0:0:0:
256,192,36807,1,8,0:0:0:0:
256,192,36863,1,0,0:0:0:0:
256,192,36919,1,0,0:0:0:0:
256,192,36974,1,8,0:0:0:0:
256,192,37057,1,0,0:0:0:0:
256,192,37141,1,8,0:0:0:0:
256,192,37224,1,8,0:0:0:0:
256,192,37307,1,0,0:0:0:0:
256,192,37391,1,0,0:0:0:0:
256,192,37474,1,8,0:0:0:0:
256,192,37557,1,8,0:0:0:0:
256,192,37640,1,0,0:0:0:0:
256,192,37724,1,8,0:0:0:0:
256,192,37807,1,8,0:0:0:0:
256,192,37890,1,0,0:0:0:0:
256,192,37974,1,8,0:0:0:0:
256,192,38057,1,0,0:0:0:0:
256,192,38140,1,8,0:0:0:0:
256,192,38224,1,8,0:0:0:0:
256,192,38307,1,0,0:0:0:0:
256,192,38390,1,0,0:0:0:0:
256,192,38474,1,8,0:0:0:0:
256,192,38557,1,0,0:0:0:0:
256,192,38640,1,8,0:0:0:0:
256,192,38724,1,0,0:0:0:0:
256,192,38807,1,8,0:0:0:0:
256,192,38890,1,8,0:0:0:0:
256,192,38974,1,0,0:0:0:0:
256,192,39057,1,0,0:0:0:0:
256,192,39140,1,8,0:0:0:0:
256,192,39224,1,0,0:0:0:0:
256,192,39307,1,0,0:0:0:0:
256,192,39390,1,0,0:0:0:0:
256,192,39474,1,8,0:0:0:0:
256,192,39530,1,0,0:0:0:0:
256,192,39586,1,0,0:0:0:0:
256,192,39641,1,8,0:0:0:0:
256,192,39724,1,0,0:0:0:0:
256,192,39808,1,8,0:0:0:0:
256,192,39890,1,8,0:0:0:0:
256,192,39974,1,0,0:0:0:0:
256,192,40058,1,0,0:0:0:0:
256,192,40141,1,8,0:0:0:0:
256,192,40224,1,8,0:0:0:0:
256,192,40307,1,0,0:0:0:0:
256,192,40390,1,8,0:0:0:0:
256,192,40474,1,8,0:0:0:0:
256,192,40557,1,0,0:0:0:0:
256,192,40640,1,8,0:0:0:0:
256,192,40724,1,0,0:0:0:0:
256,192,40807,1,8,0:0:0:0:
256,192,40890,1,8,0:0:0:0:
256,192,40974,1,0,0:0:0:0:
256,192,41057,1,8,0:0:0:0:
256,192,41140,1,8,0:0:0:0:
256,192,41224,1,0,0:0:0:0:
256,192,41307,1,8,0:0:0:0:
256,192,41390,1,0,0:0:0:0:
256,192,41474,1,8,0:0:0:0:
256,192,41807,1,8,0:0:0:0:
256,192,41890,1,8,0:0:0:0:
256,192,41974,1,8,0:0:0:0:
256,192,42140,1,8,0:0:0:0:
256,192,42307,1,0,0:0:0:0:
256,192,42474,1,0,0:0:0:0:
256,192,42640,1,8,0:0:0:0:
256,192,42807,1,0,0:0:0:0:
256,192,42974,1,8,0:0:0:0:
256,192,43057,1,8,0:0:0:0:
256,192,43140,1,0,0:0:0:0:
256,192,43307,1,8,0:0:0:0:
256,192,43474,1,0,0:0:0:0:
256,192,43640,1,0,0:0:0:0:
256,192,43696,1,0,0:0:0:0:
256,192,43752,1,0,0:0:0:0:
256,192,43807,1,8,0:0:0:0:
256,192,43890,1,8,0:0:0:0:
256,192,43974,1,0,0:0:0:0:
256,192,44057,1,8,0:0:0:0:
256,192,44140,1,0,0:0:0:0:
256,192,44307,1,8,0:0:0:0:
256,192,44390,1,0,0:0:0:0:
256,192,44474,1,8,0:0:0:0:
256,192,44640,1,8,0:0:0:0:
256,192,44807,1,0,0:0:0:0:
256,192,44974,1,8,0:0:0:0:
256,192,45057,1,8,0:0:0:0:
256,192,45140,1,0,0:0:0:0:
256,192,45307,1,8,0:0:0:0:
256,192,45474,1,0,0:0:0:0:
256,192,45557,1,8,0:0:0:0:
256,192,45640,1,0,0:0:0:0:
256,192,45724,1,8,0:0:0:0:
256,192,45807,1,8,0:0:0:0:
256,192,45974,1,0,0:0:0:0:
256,192,46140,1,8,0:0:0:0:
256,192,46307,1,8,0:0:0:0:
256,192,46474,1,0,0:0:0:0:
256,192,46640,1,0,0:0:0:0:
256,192,46807,1,8,0:0:0:0:
256,192,46974,1,8,0:0:0:0:
256,192,47140,1,0,0:0:0:0:
256,192,47307,1,8,0:0:0:0:
256,192,47474,1,8,0:0:0:0:
256,192,47557,1,0,0:0:0:0:
256,192,47640,1,8,0:0:0:0:
256,192,47724,1,8,0:0:0:0:
256,192,47807,1,0,0:0:0:0:
256,192,47890,1,8,0:0:0:0:
256,192,47974,1,0,0:0:0:0:
256,192,48140,1,8,0:0:0:0:
256,192,48307,1,0,0:0:0:0:
256,192,48390,1,0,0:0:0:0:
256,192,48474,1,8,0:0:0:0:
256,192,48640,1,8,0:0:0:0:
256,192,48807,1,0,0:0:0:0:
256,192,48974,1,0,0:0:0:0:
256,192,49029,1,0,0:0:0:0:
256,192,49085,1,0,0:0:0:0:
256,192,49140,1,8,0:0:0:0:
256,192,49224,1,8,0:0:0:0:
256,192,49307,1,0,0:0:0:0:
256,192,49390,1,8,0:0:0:0:
256,192,49474,1,0,0:0:0:0:
256,192,49640,1,8,0:0:0:0:
256,192,49724,1,0,0:0:0:0:
256,192,49807,1,8,0:0:0:0:
256,192,49974,1,0,0:0:0:0:
256,192,50140,1,8,0:0:0:0:
256,192,50307,1,0,0:0:0:0:
256,192,50390,1,8,0:0:0:0:
256,192,50474,1,8,0:0:0:0:
256,192,50640,1,0,0:0:0:0:
256,192,50807,1,0,0:0:0:0:
256,192,50890,1,8,0:0:0:0:
256,192,50974,1,8,0:0:0:0:
256,192,51057,1,0,0:0:0:0:
256,192,51140,1,8,0:0:0:0:
256,192,51307,1,0,0:0:0:0:
256,192,51474,1,8,0:0:0:0:
256,192,51640,1,0,0:0:0:0:
256,192,51807,1,8,0:0:0:0:
256,192,51974,1,0,0:0:0:0:
256,192,52140,1,8,0:0:0:0:
256,192,52307,1,8,0:0:0:0:
256,192,52474,1,0,0:0:0:0:
256,192,52640,1,8,0:0:0:0:
256,192,52807,1,0,0:0:0:0:
256,192,52863,1,0,0:0:0:0:
256,192,52918,1,0,0:0:0:0:
256,192,52974,1,0,0:0:0:0:
256,192,53029,1,0,0:0:0:0:
256,192,53085,1,0,0:0:0:0:
256,192,53140,1,8,0:0:0:0:
256,192,53474,1,0,0:0:0:0:
256,192,53557,1,8,0:0:0:0:
256,192,53640,1,8,0:0:0:0:
256,192,53724,1,0,0:0:0:0:
256,192,53807,1,8,0:0:0:0:
256,192,53890,1,0,0:0:0:0:
256,192,53974,1,8,0:0:0:0:
256,192,54057,1,0,0:0:0:0:
256,192,54140,1,8,0:0:0:0:
256,192,54224,1,8,0:0:0:0:
256,192,54307,1,0,0:0:0:0:
256,192,54390,1,0,0:0:0:0:
256,192,54474,1,8,0:0:0:0:
256,192,54557,1,0,0:0:0:0:
256,192,54640,1,8,0:0:0:0:
256,192,54724,1,0,0:0:0:0:
256,192,54807,1,8,0:0:0:0:
256,192,54890,1,0,0:0:0:0:
256,192,54974,1,8,0:0:0:0:
256,192,55057,1,8,0:0:0:0:
256,192,55140,1,8,0:0:0:0:
256,192,55224,1,8,0:0:0:0:
256,192,55307,1,0,0:0:0:0:
256,192,55390,1,0,0:0:0:0:
256,192,55474,1,8,0:0:0:0:
256,192,55557,1,8,0:0:0:0:
256,192,55640,1,0,0:0:0:0:
256,192,55724,1,8,0:0:0:0:
256,192,55807,1,8,0:0:0:0:
256,192,55890,1,0,0:0:0:0:
256,192,55974,1,8,0:0:0:0:
256,192,56057,1,0,0:0:0:0:
256,192,56140,1,8,0:0:0:0:
256,192,56224,1,8,0:0:0:0:
256,192,56307,1,0,0:0:0:0:
256,192,56390,1,8,0:0:0:0:
256,192,56474,1,8,0:0:0:0:
256,192,56557,1,0,0:0:0:0:
256,192,56640,1,8,0:0:0:0:
256,192,56724,1,0,0:0:0:0:
256,192,56807,1,8,0:0:0:0:
256,192,56890,1,8,0:0:0:0:
256,192,56974,1,0,0:0:0:0:
256,192,57057,1,0,0:0:0:0:
256,192,57140,1,8,0:0:0:0:
256,192,57224,1,8,0:0:0:0:
256,192,57307,1,0,0:0:0:0:
256,192,57390,1,8,0:0:0:0:
256,192,57474,1,4,0:0:0:0:
256,192,58140,1,0,0:0:0:0:
256,192,58224,1,0,0:0:0:0:
256,192,58307,1,0,0:0:0:0:
256,192,58474,1,8,0:0:0:0:
256,192,58557,1,8,0:0:0:0:
256,192,58640,1,8,0:0:0:0:
256,192,58724,1,8,0:0:0:0:
256,192,58807,1,4,0:0:0:0:
256,192,58974,1,0,0:0:0:0:
256,192,59057,1,8,0:0:0:0:
256,192,59140,1,8,0:0:0:0:
256,192,59224,1,0,0:0:0:0:
256,192,59307,1,8,0:0:0:0:
256,192,59390,1,0,0:0:0:0:
256,192,59474,1,8,0:0:0:0:
256,192,59640,1,0,0:0:0:0:
256,192,59807,1,8,0:0:0:0:
256,192,59890,1,8,0:0:0:0:
256,192,59974,1,0,0:0:0:0:
256,192,60140,1,0,0:0:0:0:
256,192,60224,1,8,0:0:0:0:
256,192,60307,1,0,0:0:0:0:
256,192,60474,1,8,0:0:0:0:
256,192,60557,1,0,0:0:0:0:
256,192,60640,1,8,0:0:0:0:
256,192,60807,1,0,0:0:0:0:
256,192,60890,1,8,0:0:0:0:
256,192,60974,1,0,0:0:0:0:
256,192,61140,1,8,0:0:0:0:
256,192,61224,1,0,0:0:0:0:
256,192,61307,1,8,0:0:0:0:
256,192,61474,1,0,0:0:0:0:
256,192,61640,1,8,0:0:0:0:
256,192,61724,1,0,0:0:0:0:
256,192,61807,1,0,0:0:0:0:
256,192,61974,1,8,0:0:0:0:
256,192,62140,1,8,0:0:0:0:
256,192,62307,1,0,0:0:0:0:
256,192,62474,1,8,0:0:0:0:
256,192,62557,1,8,0:0:0:0:
256,192,62640,1,0,0:0:0:0:
256,192,62807,1,8,0:0:0:0:
256,192,62974,1,8,0:0:0:0:
256,192,63057,1,0,0:0:0:0:
256,192,63140,1,8,0:0:0:0:
256,192,63224,1,8,0:0:0:0:
256,192,63307,1,0,0:0:0:0:
256,192,63390,1,0,0:0:0:0:
256,192,63474,1,8,0:0:0:0:
256,192,63557,1,0,0:0:0:0:
256,192,63640,1,8,0:0:0:0:
256,192,63724,1,0,0:0:0:0:
256,192,63807,1,8,0:0:0:0:
256,192,63863,1,8,0:0:0:0:
256,192,63918,1,8,0:0:0:0:
256,192,63974,1,0,0:0:0:0:
256,192,64057,1,0,0:0:0:0:
256,192,64140,1,8,0:0:0:0:
256,192,64307,1,8,0:0:0:0:
256,192,64474,1,0,0:0:0:0:
256,192,64640,1,8,0:0:0:0:
256,192,64807,1,8,0:0:0:0:
256,192,64974,1,8,0:0:0:0:
256,192,65140,1,0,0:0:0:0:
256,192,65307,1,8,0:0:0:0:
256,192,65474,1,8,0:0:0:0:
256,192,65640,1,8,0:0:0:0:
256,192,65807,1,0,0:0:0:0:
256,192,65974,1,8,0:0:0:0:
256,192,66140,1,8,0:0:0:0:
256,192,66307,1,8,0:0:0:0:
256,192,66474,1,0,0:0:0:0:
256,192,66640,1,8,0:0:0:0:
256,192,66807,1,8,0:0:0:0:
256,192,66974,1,8,0:0:0:0:
256,192,67057,1,0,0:0:0:0:
256,192,67140,1,8,0:0:0:0:
256,192,67224,1,8,0:0:0:0:
256,192,67307,1,0,0:0:0:0:
256,192,67474,1,0,0:0:0:0:
256,192,67640,1,8,0:0:0:0:
256,192,67807,1,0,0:0:0:0:
256,192,67974,1,8,0:0:0:0:
256,192,68140,1,8,0:0:0:0:
256,192,68307,1,8,0:0:0:0:
256,192,68390,1,8,0:0:0:0:
256,192,68474,1,0,0:0:0:0:
256,192,68640,1,0,0:0:0:0:
256,192,68807,1,8,0:0:0:0:
256,192,68890,1,0,0:0:0:0:
256,192,68974,1,8,0:0:0:0:
256,192,69057,1,0,0:0:0:0:
256,192,69140,1,12,0:0:0:0:
256,192,69474,1,0,0:0:0:0:
256,192,69640,1,8,0:0:0:0:
256,192,69724,1,0,0:0:0:0:
256,192,69807,1,8,0:0:0:0:
256,192,69890,1,8,0:0:0:0:
256,192,69974,1,0,0:0:0:0:
256,192,70057,1,0,0:0:0:0:
256,192,70140,1,8,0:0:0:0:
256,192,70224,1,0,0:0:0:0:
256,192,70307,1,8,0:0:0:0:
256,192,70474,1,8,0:0:0:0:
256,192,70557,1,8,0:0:0:0:
256,192,70640,1,0,0:0:0:0:
256,192,70724,1,0,0:0:0:0:
256,192,70807,1,8,0:0:0:0:
256,192,70890,1,0,0:0:0:0:
256,192,70974,1,8,0:0:0:0:
256,192,71140,1,0,0:0:0:0:
256,192,71224,1,8,0:0:0:0:
256,192,71307,1,0,0:0:0:0:
256,192,71474,1,8,0:0:0:0:
256,192,71557,1,0,0:0:0:0:
256,192,71640,1,8,0:0:0:0:
256,192,71807,1,0,0:0:0:0:
256,192,71890,1,8,0:0:0:0:
256,192,71974,1,0,0:0:0:0:
256,192,72140,1,0,0:0:0:0:
256,192,72307,1,8,0:0:0:0:
256,192,72390,1,8,0:0:0:0:
256,192,72474,1,0,0:0:0:0:
256,192,72640,1,8,0:0:0:0:
256,192,72807,1,0,0:0:0:0:
256,192,72974,1,8,0:0:0:0:
256,192,73140,1,0,0:0:0:0:
256,192,73224,1,8,0:0:0:0:
256,192,73307,1,0,0:0:0:0:
256,192,73474,1,0,0:0:0:0:
256,192,73640,1,0,0:0:0:0:
256,192,73724,1,8,0:0:0:0:
256,192,73807,1,0,0:0:0:0:
256,192,73890,1,8,0:0:0:0:
256,192,73974,1,8,0:0:0:0:
256,192,74057,1,0,0:0:0:0:
256,192,74140,1,8,0:0:0:0:
256,192,74224,1,0,0:0:0:0:
256,192,74307,1,8,0:0:0:0:
256,192,74390,1,0,0:0:0:0:
256,192,74474,1,8,0:0:0:0:
256,192,74529,1,8,0:0:0:0:
256,192,74585,1,8,0:0:0:0:
256,192,74640,1,0,0:0:0:0:
256,192,74724,1,0,0:0:0:0:
256,192,74807,1,8,0:0:0:0:
256,192,74974,1,8,0:0:0:0:
256,192,75140,1,0,0:0:0:0:
256,192,75307,1,8,0:0:0:0:
256,192,75474,1,8,0:0:0:0:
256,192,75640,1,8,0:0:0:0:
256,192,75807,1,0,0:0:0:0:
256,192,75974,1,8,0:0:0:0:
256,192,76140,1,8,0:0:0:0:
256,192,76307,1,8,0:0:0:0:
256,192,76474,1,0,0:0:0:0:
256,192,76640,1,8,0:0:0:0:
256,192,76807,1,8,0:0:0:0:
256,192,76974,1,8,0:0:0:0:
256,192,77140,1,0,0:0:0:0:
256,192,77307,1,8,0:0:0:0:
256,192,77474,1,8,0:0:0:0:
256,192,77640,1,0,0:0:0:0:
256,192,77724,1,8,0:0:0:0:
256,192,77807,1,0,0:0:0:0:
256,192,77890,1,0,0:0:0:0:
256,192,77974,1,8,0:0:0:0:
256,192,78140,1,8,0:0:0:0:
256,192,78307,1,0,0:0:0:0:
256,192,78474,1,8,0:0:0:0:
256,192,78640,1,8,0:0:0:0:
256,192,78807,1,0,0:0:0:0:
256,192,78974,1,8,0:0:0:0:
256,192,79057,1,8,0:0:0:0:
256,192,79140,1,0,0:0:0:0:
256,192,79307,1,8,0:0:0:0:
256,192,79474,1,0,0:0:0:0:
256,192,79557,1,8,0:0:0:0:
256,192,79640,1,8,0:0:0:0:
256,192,79724,1,0,0:0:0:0:
256,192,79807,1,12,0:0:0:0:
256,192,80140,1,0,0:0:0:0:
256,192,80224,1,8,0:0:0:0:
256,192,80307,1,0,0:0:0:0:
256,192,80390,1,8,0:0:0:0:
256,192,80474,1,8,0:0:0:0:
256,192,80557,1,0,0:0:0:0:
256,192,80640,1,8,0:0:0:0:
256,192,80724,1,8,0:0:0:0:
256,192,80807,1,0,0:0:0:0:
256,192,80890,1,8,0:0:0:0:
256,192,80974,1,0,0:0:0:0:
256,192,81057,1,0,0:0:0:0:
256,192,81140,1,8,0:0:0:0:
256,192,81224,1,0,0:0:0:0:
256,192,81307,1,8,0:0:0:0:
256,192,81390,1,0,0:0:0:0:
256,192,81474,1,8,0:0:0:0:
256,192,81557,1,8,0:0:0:0:
256,192,81640,1,0,0:0:0:0:
256,192,81724,1,8,0:0:0:0:
256,192,81807,1,8,0:0:0:0:
256,192,81890,1,0,0:0:0:0:
256,192,81974,1,8,0:0:0:0:
256,192,82057,1,0,0:0:0:0:
256,192,82140,1,0,0:0:0:0:
256,192,82224,1,8,0:0:0:0:
256,192,82307,1,0,0:0:0:0:
256,192,82390,1,8,0:0:0:0:
256,192,82474,1,8,0:0:0:0:
256,192,82557,1,0,0:0:0:0:
256,192,82640,1,8,0:0:0:0:
256,192,82724,1,0,0:0:0:0:
256,192,82807,1,8,0:0:0:0:
256,192,82890,1,0,0:0:0:0:
256,192,82974,1,8,0:0:0:0:
256,192,83057,1,8,0:0:0:0:
256,192,83140,1,0,0:0:0:0:
256,192,83224,1,8,0:0:0:0:
256,192,83307,1,8,0:0:0:0:
256,192,83390,1,0,0:0:0:0:
256,192,83474,1,0,0:0:0:0:
256,192,83557,1,8,0:0:0:0:
256,192,83640,1,0,0:0:0:0:
256,192,83724,1,8,0:0:0:0:
256,192,83807,1,8,0:0:0:0:
256,192,83890,1,0,0:0:0:0:
256,192,83974,1,8,0:0:0:0:
256,192,84057,1,0,0:0:0:0:
256,192,84140,1,8,0:0:0:0:
256,192,84224,1,8,0:0:0:0:
256,192,84307,1,0,0:0:0:0:
256,192,84390,1,0,0:0:0:0:
256,192,84474,1,8,0:0:0:0:
256,192,84557,1,0,0:0:0:0:
256,192,84640,1,8,0:0:0:0:
256,192,84724,1,0,0:0:0:0:
256,192,84807,1,8,0:0:0:0:
256,192,84890,1,8,0:0:0:0:
256,192,84974,1,0,0:0:0:0:
256,192,85057,1,0,0:0:0:0:
256,192,85140,1,8,0:0:0:0:
256,192,85224,1,8,0:0:0:0:
256,192,85307,1,8,0:0:0:0:
256,192,85390,1,8,0:0:0:0:
256,192,85474,1,0,0:0:0:0:
256,192,85557,1,8,0:0:0:0:
256,192,85640,1,0,0:0:0:0:
256,192,85724,1,8,0:0:0:0:
256,192,85807,1,8,0:0:0:0:
256,192,85890,1,0,0:0:0:0:
256,192,85974,1,8,0:0:0:0:
256,192,86057,1,8,0:0:0:0:
256,192,86140,1,0,0:0:0:0:
256,192,86224,1,8,0:0:0:0:
256,192,86307,1,0,0:0:0:0:
256,192,86390,1,0,0:0:0:0:
256,192,86474,1,8,0:0:0:0:
256,192,86557,1,8,0:0:0:0:
256,192,86640,1,8,0:0:0:0:
256,192,86724,1,8,0:0:0:0:
256,192,86807,1,0,0:0:0:0:
256,192,86890,1,8,0:0:0:0:
256,192,86974,1,8,0:0:0:0:
256,192,87057,1,0,0:0:0:0:
256,192,87140,1,8,0:0:0:0:
256,192,87224,1,0,0:0:0:0:
256,192,87307,1,8,0:0:0:0:
256,192,87390,1,8,0:0:0:0:
256,192,87474,1,0,0:0:0:0:
256,192,87557,1,8,0:0:0:0:
256,192,87640,1,0,0:0:0:0:
256,192,87724,1,8,0:0:0:0:
256,192,87807,1,8,0:0:0:0:
256,192,87890,1,0,0:0:0:0:
256,192,87974,1,8,0:0:0:0:
256,192,88057,1,8,0:0:0:0:
256,192,88140,1,0,0:0:0:0:
256,192,88224,1,8,0:0:0:0:
256,192,88307,1,0,0:0:0:0:
256,192,88390,1,0,0:0:0:0:
256,192,88474,1,8,0:0:0:0:
256,192,88557,1,0,0:0:0:0:
256,192,88640,1,8,0:0:0:0:
256,192,88724,1,0,0:0:0:0:
256,192,88807,1,8,0:0:0:0:
256,192,88890,1,8,0:0:0:0:
256,192,88974,1,0,0:0:0:0:
256,192,89057,1,0,0:0:0:0:
256,192,89140,1,8,0:0:0:0:
256,192,89224,1,0,0:0:0:0:
256,192,89307,1,8,0:0:0:0:
256,192,89474,1,8,0:0:0:0:
256,192,89557,1,8,0:0:0:0:
256,192,89640,1,8,0:0:0:0:
256,192,89724,1,0,0:0:0:0:
256,192,89807,1,8,0:0:0:0:
256,192,89890,1,8,0:0:0:0:
256,192,89974,1,8,0:0:0:0:
256,192,90057,1,8,0:0:0:0:
256,192,90140,1,0,0:0:0:0:
256,192,90196,1,0,0:0:0:0:
256,192,90252,1,0,0:0:0:0:
256,192,90307,1,0,0:0:0:0:
256,192,90363,1,0,0:0:0:0:
256,192,90418,1,0,0:0:0:0:
256,192,90474,1,8,0:0:0:0:
256,192,90807,1,0,0:0:0:0:
256,192,90890,1,8,0:0:0:0:
256,192,90974,1,8,0:0:0:0:
256,192,91057,1,0,0:0:0:0:
256,192,91140,1,8,0:0:0:0:
256,192,91224,1,0,0:0:0:0:
256,192,91307,1,8,0:0:0:0:
256,192,91390,1,0,0:0:0:0:
256,192,91474,1,0,0:0:0:0:
256,192,91557,1,8,0:0:0:0:
256,192,91640,1,8,0:0:0:0:
256,192,91724,1,0,0:0:0:0:
256,192,91807,1,8,0:0:0:0:
256,192,91890,1,8,0:0:0:0:
256,192,91974,1,0,0:0:0:0:
256,192,92057,1,0,0:0:0:0:
256,192,92140,1,8,0:0:0:0:
256,192,92224,1,0,0:0:0:0:
256,192,92307,1,8,0:0:0:0:
256,192,92390,1,0,0:0:0:0:
256,192,92474,1,8,0:0:0:0:
256,192,92557,1,8,0:0:0:0:
256,192,92640,1,0,0:0:0:0:
256,192,92724,1,8,0:0:0:0:
256,192,92807,1,0,0:0:0:0:
256,192,92890,1,8,0:0:0:0:
256,192,92974,1,8,0:0:0:0:
256,192,93057,1,0,0:0:0:0:
256,192,93140,1,8,0:0:0:0:
256,192,93224,1,8,0:0:0:0:
256,192,93307,1,0,0:0:0:0:
256,192,93390,1,0,0:0:0:0:
256,192,93474,1,8,0:0:0:0:
256,192,93557,1,8,0:0:0:0:
256,192,93640,1,0,0:0:0:0:
256,192,93724,1,0,0:0:0:0:
256,192,93807,1,8,0:0:0:0:
256,192,93890,1,0,0:0:0:0:
256,192,93974,1,8,0:0:0:0:
256,192,94057,1,0,0:0:0:0:
256,192,94140,1,8,0:0:0:0:
256,192,94224,1,8,0:0:0:0:
256,192,94307,1,0,0:0:0:0:
256,192,94390,1,8,0:0:0:0:
256,192,94474,1,8,0:0:0:0:
256,192,94557,1,0,0:0:0:0:
256,192,94640,1,8,0:0:0:0:
256,192,94724,1,0,0:0:0:0:
256,192,94807,1,8,0:0:0:0:
256,192,94890,1,8,0:0:0:0:
256,192,94974,1,0,0:0:0:0:
256,192,95057,1,0,0:0:0:0:
256,192,95140,1,8,0:0:0:0:
256,192,95224,1,0,0:0:0:0:
256,192,95307,1,8,0:0:0:0:
256,192,95390,1,8,0:0:0:0:
256,192,95474,1,8,0:0:0:0:
256,192,95557,1,8,0:0:0:0:
256,192,95640,1,0,0:0:0:0:
256,192,95724,1,0,0:0:0:0:
256,192,95807,1,8,0:0:0:0:
256,192,95890,1,0,0:0:0:0:
256,192,95974,1,8,0:0:0:0:
256,192,96057,1,0,0:0:0:0:
256,192,96140,1,8,0:0:0:0:
256,192,96224,1,8,0:0:0:0:
256,192,96307,1,0,0:0:0:0:
256,192,96390,1,0,0:0:0:0:
256,192,96474,1,8,0:0:0:0:
256,192,96557,1,0,0:0:0:0:
256,192,96640,1,8,0:0:0:0:
256,192,96724,1,0,0:0:0:0:
256,192,96807,1,8,0:0:0:0:
256,192,96890,1,8,0:0:0:0:
256,192,96974,1,0,0:0:0:0:
256,192,97057,1,0,0:0:0:0:
256,192,97140,1,8,0:0:0:0:
256,192,97224,1,0,0:0:0:0:
256,192,97307,1,8,0:0:0:0:
256,192,97390,1,0,0:0:0:0:
256,192,97474,1,8,0:0:0:0:
256,192,97557,1,8,0:0:0:0:
256,192,97640,1,0,0:0:0:0:
256,192,97724,1,8,0:0:0:0:
256,192,97807,1,8,0:0:0:0:
256,192,97890,1,0,0:0:0:0:
256,192,97974,1,8,0:0:0:0:
256,192,98057,1,0,0:0:0:0:
256,192,98140,1,8,0:0:0:0:
256,192,98224,1,8,0:0:0:0:
256,192,98307,1,0,0:0:0:0:
256,192,98390,1,0,0:0:0:0:
256,192,98474,1,8,0:0:0:0:
256,192,98557,1,0,0:0:0:0:
256,192,98640,1,8,0:0:0:0:
256,192,98807,1,8,0:0:0:0:
256,192,98890,1,8,0:0:0:0:
256,192,98974,1,0,0:0:0:0:
256,192,99057,1,8,0:0:0:0:
256,192,99140,1,8,0:0:0:0:
256,192,99224,1,0,0:0:0:0:
256,192,99307,1,8,0:0:0:0:
256,192,99474,1,0,0:0:0:0:
256,192,99557,1,8,0:0:0:0:
256,192,99640,1,8,0:0:0:0:
256,192,99724,1,0,0:0:0:0:
256,192,99807,1,8,0:0:0:0:
256,192,99890,1,0,0:0:0:0:
256,192,99974,1,8,0:0:0:0:
256,192,100140,1,8,0:0:0:0:
256,192,100224,1,8,0:0:0:0:
256,192,100307,1,0,0:0:0:0:
256,192,100390,1,0,0:0:0:0:
256,192,100474,1,8,0:0:0:0:
256,192,100557,1,0,0:0:0:0:
256,192,100640,1,8,0:0:0:0:
256,192,100724,1,0,0:0:0:0:
256,192,100807,1,8,0:0:0:0:
256,192,100890,1,8,0:0:0:0:
256,192,100974,1,8,0:0:0:0:
256,192,101057,1,8,0:0:0:0:
256,192,101140,1,0,0:0:0:0:
256,192,101224,1,8,0:0:0:0:
256,192,101307,1,0,0:0:0:0:
256,192,101474,1,4,0:0:0:0:
