osu file format v14

[General]
AudioFilename: audio.mp3
AudioLeadIn: 0
PreviewTime: 10806
Countdown: 0
SampleSet: Soft
StackLeniency: 0.7
Mode: 0
LetterboxInBreaks: 0
WidescreenStoryboard: 0

[Editor]
Bookmarks: 807,5140,10807,11474,15807,21474,32140,42807,53474,59474,63807,70140,74474,90807,101474
DistanceSpacing: 1
BeatDivisor: 4
GridSize: 8
TimelineZoom: 2.549999

[Metadata]
Title:Doki-Doki
TitleUnicode:Doki-Doki
Artist:Thaehan
ArtistUnicode:Thaehan
Creator:Mr HeliX
Version:Complexious
Source:osu!
Tags:power up melodic death metal mujousekai mechanizen rockstarrzz
BeatmapID:1151644
BeatmapSetID:519054

[Difficulty]
HPDrainRate:5
CircleSize:4
OverallDifficulty:7
ApproachRate:9
SliderMultiplier:2.1
SliderTickRate:2

[Events]
//Background and Video events
0,0,"anime_series_girl_beautiful_cute_Vocaloid_piano_Hatsune_Miku_1366x768.jpg",0,0
//Break Periods
//Storyboard Layer 0 (Background)
//Storyboard Layer 1 (Fail)
//Storyboard Layer 2 (Pass)
//Storyboard Layer 3 (Foreground)
//Storyboard Sound Samples

[TimingPoints]
140,333.333333333333,4,2,1,70,1,0
10806,-100,4,2,1,100,0,0
16139,-100,4,2,3,100,0,0
21473,-100,4,2,2,80,0,0
32139,-100,4,2,1,90,0,0
42806,-100,4,2,1,100,0,0
48139,-100,4,2,3,100,0,0
53473,-100,4,2,1,100,0,0
56139,-100,4,2,3,100,0,0
57473,-149.925037481259,4,2,3,100,0,0
58806,-100,4,2,1,100,0,1
64139,-100,4,2,3,100,0,1
69473,-100,4,2,1,100,0,0
72139,-100,4,2,1,100,0,1
74806,-100,4,2,3,100,0,1
80139,-100,4,2,1,100,0,0
90139,-149.925037481259,4,2,1,100,0,0
90806,-100,4,2,2,100,0,0

[Colours]
Combo1 : 150,245,243
Combo2 : 221,255,219
Combo3 : 220,240,247
Combo4 : 94,157,200

[HitObjects]
336,304,140,5,2,0:0:0:0:
336,304,306,1,0,0:0:0:0:
256,296,473,2,0,P|197:290|158:298,4,52.5
288,216,973,1,0,0:0:0:0:
360,184,1139,2,0,P|418:181|456:169,2,52.5
336,96,1473,6,0,L|352:40,2,52.5,2|0|0,0:0|0:0|0:0,0:0:0:0:
280,160,1806,2,0,L|200:192,2,52.5
360,184,2139,2,0,L|400:240,2,52.5
400,112,2473,2,0,P|336:88|288:88,1,105
168,144,2806,5,2,0:0:0:0:
120,208,2973,2,0,L|72:232,2,52.5
152,288,3306,1,0,0:0:0:0:
256,224,3473,2,0,L|336:296,1,105
416,312,3806,2,0,P|472:328|496:320,2,52.5
344,184,4139,5,2,0:0:0:0:
272,136,4306,2,0,L|216:96,1,52.5
192,96,4473,2,0,P|144:88|96:96,3,52.5
104,112,4806,2,0,P|56:136|32:136,4,52.5
328,80,5473,6,0,L|256:168,1,105,2|0,0:0|0:0,0:0:0:0:
232,240,5806,1,8,0:0:0:0:
232,240,5973,1,0,0:0:0:0:
312,240,6139,2,0,L|384:152,1,105
456,120,6473,1,8,0:0:0:0:
456,120,6639,1,0,0:0:0:0:
448,256,6806,5,2,0:0:0:0:
448,256,6973,1,0,0:0:0:0:
448,256,7139,2,0,P|376:288|320:280,1,105,8|0,0:0|0:0,0:0:0:0:
304,216,7473,1,0,0:0:0:0:
304,216,7639,1,0,0:0:0:0:
304,216,7806,2,0,P|240:200|176:216,1,105,8|0,0:0|0:0,0:0:0:0:
88,120,8139,5,2,0:0:0:0:
144,56,8306,2,0,L|200:0,2,52.5,0|0|8,0:0|0:0|0:0,0:0:0:0:
224,88,8639,1,0,0:0:0:0:
312,144,8806,5,0,0:0:0:0:
312,144,8973,1,0,0:0:0:0:
232,208,9139,1,8,0:0:0:0:
232,208,9306,1,0,0:0:0:0:
360,240,9473,5,2,0:0:0:0:
432,272,9639,2,0,P|464:296|488:328,2,52.5,0|0|8,0:0|0:0|0:0,0:0:0:0:
448,192,9973,1,0,0:0:0:0:
368,160,10139,2,0,L|256:200,1,105
216,256,10473,1,8,0:0:0:0:
88,64,10806,5,2,0:0:0:0:
184,120,10973,1,0,0:0:0:0:
216,136,11056,1,0,0:0:0:0:
248,152,11139,2,0,P|272:160|312:168,4,52.5,8|0|0|0|0,0:0|0:0|0:0|0:0|0:0,0:0:0:0:
312,248,11639,1,0,0:0:0:0:
208,216,11806,1,8,0:0:0:0:
208,216,11889,1,0,0:0:0:0:
208,216,11973,1,0,0:0:0:0:
400,112,12139,6,0,L|464:104,2,52.5,2|0|0,0:0|0:0|0:0,0:0:0:0:
296,168,12473,2,0,L|216:160,2,52.5,8|0|0,0:0|0:0|0:0,0:0:0:0:
384,240,12806,2,0,L|456:224,2,52.5
296,312,13139,2,0,B|232:312|232:312|200:288,1,105,8|0,0:0|0:0,0:0:0:0:
96,152,13473,5,2,0:0:0:0:
208,184,13639,1,0,0:0:0:0:
208,184,13723,1,0,0:0:0:0:
208,184,13806,2,0,P|264:200|328:184,1,105,8|0,0:0|0:0,0:0:0:0:
400,120,14139,1,0,0:0:0:0:
336,24,14306,1,0,0:0:0:0:
232,80,14473,2,0,L|152:104,2,52.5,8|0|0,0:0|0:0|0:0,0:0:0:0:
400,120,14806,5,2,0:0:0:0:
368,240,14973,1,0,0:0:0:0:
368,240,15056,1,0,0:0:0:0:
368,240,15139,2,0,L|328:280,3,52.5,8|0|0|0,0:0|0:0|0:0|0:0,0:0:0:0:
288,320,15473,2,0,L|224:336,4,52.5,0|0|0|0|8,0:0|0:0|0:0|0:0|0:0,0:0:0:0:
384,48,16139,6,0,L|256:72,1,105,2|0,0:0|0:0,0:0:0:0:
184,128,16473,1,8,0:0:0:0:
88,64,16639,1,0,0:0:0:0:
112,208,16806,2,0,L|224:224,1,105
328,264,17139,1,8,0:0:0:0:
424,200,17306,1,0,0:0:0:0:
400,328,17473,6,0,B|352:360|352:360|296:360,1,105,2|0,0:0|0:0,0:0:0:0:
208,296,17806,1,8,0:0:0:0:
208,296,17973,1,0,0:0:0:0:
120,256,18139,2,0,B|160:216|160:216|224:216,1,105
320,192,18473,1,8,0:0:0:0:
320,192,18639,1,0,0:0:0:0:
160,96,18806,6,0,P|208:72|264:72,1,105,2|0,0:0|0:0,0:0:0:0:
258,70,19056,1,0,0:0:0:0:
258,70,19139,1,8,0:0:0:0:
360,128,19306,1,0,0:0:0:0:
264,184,19473,2,0,P|200:216|136:216,1,105
64,264,19806,2,0,P|128:296|176:296,1,105,8|0,0:0|0:0,0:0:0:0:
304,320,20139,5,2,0:0:0:0:
408,272,20306,2,0,L|456:240,2,52.5,0|0|8,0:0|0:0|0:0,0:0:0:0:
312,208,20639,1,0,0:0:0:0:
200,200,20806,2,0,P|224:256|264:288,1,105
352,344,21139,1,8,0:0:0:0:
352,88,21473,5,2,0:0:0:0:
320,96,21556,1,0,0:0:0:0:
288,104,21639,1,0,0:0:0:0:
256,112,21723,1,0,0:0:0:0:
224,120,21806,2,0,L|160:136,3,52.5,8|0|0|0,0:0|0:0|0:0|0:0,0:0:0:0:
128,192,22139,2,0,L|88:240,3,52.5
40,288,22473,2,0,P|64:336|128:352,1,105,8|0,0:0|0:0,0:0:0:0:
208,312,22806,5,2,0:0:0:0:
240,296,22889,1,0,0:0:0:0:
272,280,22973,1,0,0:0:0:0:
304,264,23056,1,0,0:0:0:0:
328,248,23139,2,0,L|392:208,3,52.5,8|0|0|0,0:0|0:0|0:0|0:0,0:0:0:0:
328,152,23473,2,0,L|272:192,3,52.5
216,136,23806,2,0,L|304:72,1,105,8|0,0:0|0:0,0:0:0:0:
400,72,24139,5,2,0:0:0:0:
432,88,24223,1,0,0:0:0:0:
456,112,24306,1,0,0:0:0:0:
472,136,24389,1,0,0:0:0:0:
480,168,24473,2,0,P|496:224|496:248,3,52.5,8|0|0|0,0:0|0:0|0:0|0:0,0:0:0:0:
440,264,24806,2,0,L|392:304,3,52.5
368,360,25139,2,0,L|248:336,1,105,8|0,0:0|0:0,0:0:0:0:
160,304,25473,5,2,0:0:0:0:
136,280,25556,1,0,0:0:0:0:
120,248,25639,1,0,0:0:0:0:
112,216,25723,1,0,0:0:0:0:
112,184,25806,2,0,L|128:120,3,52.5,8|0|0|0,0:0|0:0|0:0|0:0,0:0:0:0:
208,128,26139,2,0,L|288:104,3,52.5
264,32,26473,2,0,L|160:64,1,105,8|0,0:0|0:0,0:0:0:0:
56,104,26806,5,2,0:0:0:0:
48,136,26889,1,0,0:0:0:0:
48,168,26973,1,0,0:0:0:0:
50,199,27056,1,0,0:0:0:0:
64,232,27139,2,0,P|72:256|104:296,3,52.5,8|0|0|0,0:0|0:0|0:0|0:0,0:0:0:0:
112,304,27473,1,0,0:0:0:0:
136,320,27556,1,0,0:0:0:0:
168,328,27639,1,0,0:0:0:0:
200,328,27723,1,0,0:0:0:0:
232,312,27806,2,0,P|288:272|304:224,1,105,8|0,0:0|0:0,0:0:0:0:
216,168,28139,5,2,0:0:0:0:
232,144,28223,1,0,0:0:0:0:
256,128,28306,1,0,0:0:0:0:
288,120,28389,1,0,0:0:0:0:
320,128,28473,2,0,L|368:160,3,52.5,8|0|0|0,0:0|0:0|0:0|0:0,0:0:0:0:
376,256,28806,2,0,L|280:192,1,105
128,184,29139,2,0,L|224:256,1,105,8|0,0:0|0:0,0:0:0:0:
184,320,29473,5,2,0:0:0:0:
216,328,29556,1,0,0:0:0:0:
248,328,29639,1,0,0:0:0:0:
280,312,29723,1,0,0:0:0:0:
304,288,29806,1,8,0:0:0:0:
312,256,29889,1,0,0:0:0:0:
312,224,29973,1,0,0:0:0:0:
296,192,30056,1,0,0:0:0:0:
280,160,30139,2,0,L|240:104,3,52.5
208,120,30473,2,0,L|144:152,3,52.5,8|0|0|0,0:0|0:0|0:0|0:0,0:0:0:0:
112,152,30806,6,0,B|55:158|8:141|-16:82|23:31|71:8,1,210,2|0,0:0|0:0,0:0:0:0:
144,64,31306,1,0,0:0:0:0:
208,120,31473,2,0,B|257:79|257:79|274:31,2,105,0|0|0,3:0|0:0|3:0,0:0:0:0:
416,184,32139,6,0,L|376:224,1,52.5,2|0,0:0|0:0,0:0:0:0:
304,208,32306,2,0,L|256:248,1,52.5
184,232,32473,2,0,L|136:272,3,52.5,8|0|0|0,0:0|0:0|0:0|0:0,0:0:0:0:
88,208,32806,2,0,L|144:168,3,52.5
104,112,33139,2,0,B|152:80|152:80|192:112,1,105,8|0,0:0|0:0,0:0:0:0:
152,208,33473,5,2,0:0:0:0:
232,272,33639,1,0,0:0:0:0:
336,280,33806,1,8,0:0:0:0:
432,248,33973,1,0,0:0:0:0:
440,144,34139,2,0,P|384:176|312:184,1,105
344,80,34473,2,0,P|280:64|216:80,1,105,8|0,0:0|0:0,0:0:0:0:
136,112,34806,6,0,L|168:160,1,52.5,2|0,0:0|0:0,0:0:0:0:
240,144,34973,2,0,L|280:200,1,52.5
344,168,35139,2,0,L|384:216,3,52.5,8|0|0|0,0:0|0:0|0:0|0:0,0:0:0:0:
344,288,35473,2,0,L|296:232,3,52.5
240,280,35806,2,0,B|200:320|200:320|160:280,1,105,8|0,0:0|0:0,0:0:0:0:
112,192,36139,5,2,0:0:0:0:
168,104,36306,1,0,0:0:0:0:
240,176,36473,1,8,0:0:0:0:
304,96,36639,1,0,0:0:0:0:
408,128,36806,2,0,P|432:184|432:256,1,105
352,288,37139,2,0,P|320:216|328:152,1,105,8|0,0:0|0:0,0:0:0:0:
264,56,37473,6,0,L|200:64,1,52.5,2|0,0:0|0:0,0:0:0:0:
128,128,37639,2,0,L|192:136,1,52.5
272,192,37806,2,0,L|208:216,3,52.5,8|0|0|0,0:0|0:0|0:0|0:0,0:0:0:0:
152,256,38139,2,0,P|208:296|256:296,1,105
344,328,38473,1,8,0:0:0:0:
312,224,38639,1,0,0:0:0:0:
224,128,38806,6,0,L|216:200,1,52.5,2|0,0:0|0:0,0:0:0:0:
152,256,38973,2,0,L|136:192,1,52.5
88,120,39139,2,0,L|64:176,3,52.5,8|0|0|0,0:0|0:0|0:0|0:0,0:0:0:0:
0,88,39473,2,0,P|48:45|109:41,1,105
184,80,39806,1,8,0:0:0:0:
280,128,39973,1,0,0:0:0:0:
376,192,40139,6,0,L|328:240,1,52.5,2|0,0:0|0:0,0:0:0:0:
376,336,40306,2,0,L|328:288,1,52.5
232,336,40473,2,0,L|280:288,1,52.5,8|0,0:0|0:0,0:0:0:0:
232,192,40639,2,0,L|280:240,1,52.5
376,192,40806,2,0,L|328:240,3,52.5,2|0|0|0,0:0|0:0|0:0|0:0,0:0:0:0:
304,152,41139,2,0,L|360:88,3,52.5,8|0|0|0,0:0|0:0|0:0|0:0,0:0:0:0:
256,56,41473,6,0,B|184:136|184:136|96:48,1,210
24,120,41973,1,0,0:0:0:0:
16,224,42139,2,0,P|72:256|128:248,1,105
192,184,42473,1,0,0:0:0:0:
416,336,42806,6,0,B|368:296|368:296|400:264|424:200,1,157.5,2|0,0:0|0:0,0:0:0:0:
424,160,43139,1,8,0:0:0:0:
360,80,43306,1,0,0:0:0:0:
320,216,43473,2,0,P|280:264|224:280,1,105
120,240,43806,2,0,P|152:216|168:176,3,52.5,8|0|0|0,0:0|0:0|0:0|0:0,0:0:0:0:
168,184,44139,6,0,P|200:136|248:120,1,105,2|0,0:0|0:0,0:0:0:0:
232,16,44473,2,0,P|296:24|336:56,1,105,8|0,0:0|0:0,0:0:0:0:
368,192,44806,1,0,0:0:0:0:
280,280,44973,1,0,0:0:0:0:
280,280,45056,1,0,0:0:0:0:
280,280,45139,1,8,0:0:0:0:
272,160,45306,1,0,0:0:0:0:
96,272,45473,6,0,L|120:224,1,52.5,2|0,0:0|0:0,0:0:0:0:
200,232,45639,2,0,L|176:176,1,52.5
104,136,45806,2,0,P|128:80|176:48,1,105,8|0,0:0|0:0,0:0:0:0:
312,96,46139,1,0,0:0:0:0:
392,168,46306,1,0,0:0:0:0:
312,240,46473,1,8,0:0:0:0:
232,168,46639,1,0,0:0:0:0:
248,320,46806,6,0,P|176:272|168:232,1,105,2|0,0:0|0:0,0:0:0:0:
72,280,47139,2,0,P|80:208|112:184,1,105,8|0,0:0|0:0,0:0:0:0:
144,88,47473,1,0,0:0:0:0:
144,88,47556,1,0,0:0:0:0:
144,88,47639,1,0,0:0:0:0:
144,88,47723,1,0,0:0:0:0:
144,88,47806,2,0,P|184:136|240:144,1,105,8|0,0:0|0:0,0:0:0:0:
120,240,48139,6,0,B|176:280|176:280|208:248|264:224,1,157.5,2|0,0:0|0:0,0:0:0:0:
304,216,48473,1,8,0:0:0:0:
232,136,48639,1,0,0:0:0:0:
360,120,48806,2,0,P|400:176|408:224,1,105
304,216,49139,1,8,0:0:0:0:
407,210,49306,1,0,0:0:0:0:
456,304,49473,6,0,P|400:344|352:344,1,105,2|0,0:0|0:0,0:0:0:0:
365,346,49723,1,0,0:0:0:0:
365,346,49806,2,0,P|288:328|216:336,1,105,8|0,0:0|0:0,0:0:0:0:
168,192,50139,1,0,0:0:0:0:
288,224,50306,2,0,P|320:208|368:200,2,52.5,0|0|8,0:0|0:0|0:0,0:0:0:0:
184,304,50639,1,0,0:0:0:0:
96,128,50806,5,2,0:0:0:0:
96,128,50889,1,0,0:0:0:0:
96,128,50973,2,0,L|200:88,2,105,0|8|0,0:0|0:0|0:0,0:0:0:0:
184,184,51473,2,0,L|304:224,1,105
264,320,51806,2,0,L|152:280,1,105,8|0,0:0|0:0,0:0:0:0:
96,208,52139,5,2,0:0:0:0:
56,112,52306,1,0,0:0:0:0:
128,32,52473,1,0,0:0:0:0:
216,88,52639,1,0,0:0:0:0:
216,192,52806,2,0,P|250:245|240:156,1,210
88,320,53473,5,2,0:0:0:0:
120,312,53556,1,0,0:0:0:0:
152,304,53639,1,0,0:0:0:0:
184,296,53723,1,0,0:0:0:0:
216,288,53806,2,0,L|304:264,2,52.5,8|0|0,0:0|0:0|0:0,0:0:0:0:
392,192,54139,5,0,0:0:0:0:
360,176,54223,1,0,0:0:0:0:
328,160,54306,1,0,0:0:0:0:
296,144,54389,1,0,0:0:0:0:
264,128,54473,2,0,L|176:80,2,52.5,8|0|0,0:0|0:0|0:0,0:0:0:0:
64,168,54806,5,2,0:0:0:0:
64,168,54889,1,0,0:0:0:0:
64,168,54973,1,0,0:0:0:0:
168,208,55139,2,0,L|184:264,2,52.5,8|0|0,0:0|0:0|0:0,0:0:0:0:
256,128,55473,1,0,0:0:0:0:
256,128,55556,1,0,0:0:0:0:
256,128,55639,1,0,0:0:0:0:
360,168,55806,2,0,L|424:192,2,52.5,8|0|0,0:0|0:0|0:0,0:0:0:0:
256,344,56139,6,0,L|216:280,1,52.5,2|0,0:0|0:0,0:0:0:0:
136,272,56306,2,0,L|184:232,1,52.5
264,208,56473,2,0,L|200:152,3,52.5,8|0|0|0,0:0|0:0|0:0|0:0,0:0:0:0:
336,168,56806,2,0,L|384:112,1,52.5
456,112,56973,2,0,L|416:64,1,52.5
344,40,57139,2,0,L|272:64,3,52.5,8|0|0|0,0:0|0:0|0:0|0:0,0:0:0:0:
256,56,57473,6,0,B|227:28|189:14|156:19|136:40|125:63|131:88|144:113|175:125|215:122|250:102,1,280.140007309561,0|4,0:0|0:0,0:0:0:0:
96,312,58806,6,0,B|168:304|184:232,1,105,2|0,0:0|0:0,0:0:0:0:
72,168,59139,1,8,0:0:0:0:
72,168,59223,1,0,0:0:0:0:
72,168,59306,2,0,P|96:112|96:88,2,52.5
200,208,59639,1,0,0:0:0:0:
320,272,59806,2,0,P|329:332|342:352,2,52.5,8|0|0,0:0|0:0|0:0,0:0:0:0:
328,96,60139,5,2,0:0:0:0:
328,96,60223,1,0,0:0:0:0:
328,96,60306,1,0,0:0:0:0:
208,152,60473,2,0,L|256:192,2,52.5,8|0|0,0:0|0:0|0:0,0:0:0:0:
176,288,60806,1,0,0:0:0:0:
176,288,60889,1,0,0:0:0:0:
176,288,60973,1,0,0:0:0:0:
336,368,61139,2,0,B|272:360|272:360|216:312,1,105,8|0,0:0|0:0,0:0:0:0:
384,144,61473,5,2,0:0:0:0:
312,264,61639,2,0,L|288:312,2,52.5,0|0|8,0:0|0:0|0:0,0:0:0:0:
448,272,61973,1,0,0:0:0:0:
336,120,62139,2,0,P|264:88|200:96,1,105
360,24,62473,2,0,P|408:64|416:80,2,52.5,8|0|0,0:0|0:0|0:0,0:0:0:0:
264,176,62806,5,2,0:0:0:0:
136,120,62973,1,0,0:0:0:0:
112,136,63056,1,0,0:0:0:0:
88,152,63139,2,0,L|40:184,3,52.5,8|0|0|0,0:0|0:0|0:0|0:0,0:0:0:0:
80,248,63473,2,0,L|128:216,1,52.5
168,296,63639,2,0,L|240:296,1,52.5
296,256,63806,1,8,0:0:0:0:
392,64,64139,6,0,L|264:72,1,105,2|0,0:0|0:0,0:0:0:0:
152,88,64473,1,8,0:0:0:0:
272,152,64639,1,0,0:0:0:0:
72,184,64806,2,0,L|200:208,1,105,2|0,0:0|0:0,0:0:0:0:
312,224,65139,1,8,0:0:0:0:
184,280,65306,1,0,0:0:0:0:
272,128,65473,6,0,P|328:80|400:72,1,105,2|0,0:0|0:0,0:0:0:0:
192,232,65806,2,0,P|135:279|64:288,1,105,8|0,0:0|0:0,0:0:0:0:
176,136,66139,2,0,P|128:79|119:8,1,105,2|0,0:0|0:0,0:0:0:0:
288,224,66473,2,0,P|336:280|344:352,1,105,8|0,0:0|0:0,0:0:0:0:
136,312,66806,5,2,0:0:0:0:
64,200,66973,1,0,0:0:0:0:
64,200,67056,1,0,0:0:0:0:
64,200,67139,1,8,0:0:0:0:
192,152,67306,1,0,0:0:0:0:
392,128,67473,2,0,P|320:144|280:176,1,105
176,232,67806,2,0,P|248:248|288:280,1,105,8|0,0:0|0:0,0:0:0:0:
408,344,68139,6,0,P|337:364|286:356,1,105,2|0,0:0|0:0,0:0:0:0:
307,362,68389,1,0,0:0:0:0:
307,362,68473,1,8,0:0:0:0:
320,224,68639,1,0,0:0:0:0:
200,312,68806,1,0,0:0:0:0:
104,248,68973,1,0,0:0:0:0:
32,336,69139,1,8,0:0:0:0:
264,88,69473,5,2,0:0:0:0:
184,184,69639,2,0,P|152:232|152:264,1,52.5
136,256,69806,2,0,P|112:304|104:312,3,52.5
64,336,70139,1,0,0:0:0:0:
240,328,70306,1,0,0:0:0:0:
232,192,70473,1,0,0:0:0:0:
232,192,70556,1,0,0:0:0:0:
232,192,70639,1,0,0:0:0:0:
224,56,70806,6,0,L|224:0,2,52.5,2|0|0,0:0|0:0|0:0,0:0:0:0:
320,152,71139,1,8,0:0:0:0:
320,152,71223,1,0,0:0:0:0:
320,152,71306,1,0,0:0:0:0:
416,248,71473,2,0,P|416:279|416:320,2,52.5
304,240,71806,2,0,P|248:208|224:160,1,105,8|0,0:0|0:0,0:0:0:0:
280,72,72139,5,2,0:0:0:0:
228,174,72306,1,0,0:0:0:0:
228,174,72389,1,0,0:0:0:0:
228,174,72473,1,8,0:0:0:0:
280,72,72639,1,0,0:0:0:0:
232,184,72806,2,0,L|336:216,1,105
232,272,73139,2,0,P|280:312|304:320,2,52.5,8|0|0,0:0|0:0|0:0,0:0:0:0:
360,136,73473,5,2,0:0:0:0:
232,184,73639,2,0,P|200:192|160:216,1,52.5
128,216,73806,2,0,P|72:248|48:248,3,52.5,8|0|0|0,0:0|0:0|0:0|0:0,0:0:0:0:
80,304,74139,2,0,P|32:344|16:352,4,52.5,0|0|0|0|8,0:0|0:0|0:0|0:0|0:0,0:0:0:0:
320,64,74806,5,2,0:0:0:0:
320,64,74973,1,0,0:0:0:0:
192,96,75139,1,8,0:0:0:0:
192,96,75306,1,0,0:0:0:0:
312,160,75473,1,2,0:0:0:0:
312,160,75639,1,0,0:0:0:0:
216,256,75806,1,8,0:0:0:0:
216,256,75973,1,0,0:0:0:0:
104,128,76139,6,0,L|208:176,1,105,2|0,0:0|0:0,0:0:0:0:
88,256,76473,2,0,L|200:280,1,105,8|0,0:0|0:0,0:0:0:0:
368,128,76806,2,0,L|264:176,1,105,2|0,0:0|0:0,0:0:0:0:
384,256,77139,2,0,L|264:280,1,105,8|0,0:0|0:0,0:0:0:0:
128,136,77473,5,2,0:0:0:0:
248,72,77639,1,0,0:0:0:0:
248,72,77723,1,0,0:0:0:0:
248,72,77806,1,8,0:0:0:0:
384,96,77973,1,0,0:0:0:0:
232,200,78139,1,0,0:0:0:0:
232,200,78306,1,0,0:0:0:0:
104,160,78473,1,8,0:0:0:0:
104,160,78639,1,0,0:0:0:0:
288,120,78806,5,2,0:0:0:0:
416,176,78973,1,0,0:0:0:0:
416,176,79056,1,0,0:0:0:0:
416,176,79139,1,8,0:0:0:0:
288,224,79306,1,0,0:0:0:0:
392,272,79473,1,0,0:0:0:0:
312,304,79639,1,0,0:0:0:0:
368,360,79806,1,4,0:0:0:0:
64,168,80139,5,2,0:0:0:0:
88,184,80223,1,0,0:0:0:0:
120,192,80306,1,0,0:0:0:0:
152,192,80389,1,0,0:0:0:0:
184,176,80473,2,0,L|248:144,3,52.5,8|0|0|0,0:0|0:0|0:0|0:0,0:0:0:0:
272,224,80806,2,0,L|240:280,3,52.5
168,312,81139,2,0,B|120:288|120:288|144:240,1,105,8|0,0:0|0:0,0:0:0:0:
184,176,81473,6,0,L|240:152,1,52.5,2|0,0:0|0:0,0:0:0:0:
272,224,81639,2,0,L|328:248,1,52.5
304,136,81806,2,0,L|360:112,3,52.5,8|0|0|0,0:0|0:0|0:0|0:0,0:0:0:0:
424,56,82139,2,0,L|472:176,1,105
400,288,82473,2,0,L|352:168,1,105,8|0,0:0|0:0,0:0:0:0:
248,80,82806,6,0,L|208:128,1,52.5,2|0,0:0|0:0,0:0:0:0:
120,120,82973,2,0,L|160:168,1,52.5
232,200,83139,2,0,L|184:248,3,52.5,8|0|0|0,0:0|0:0|0:0|0:0,0:0:0:0:
280,264,83473,2,0,L|272:320,3,52.5
360,328,83806,2,0,L|376:208,1,105,8|0,0:0|0:0,0:0:0:0:
400,128,84139,5,2,0:0:0:0:
392,96,84223,1,0,0:0:0:0:
376,72,84306,1,0,0:0:0:0:
352,48,84389,1,0,0:0:0:0:
320,32,84473,1,8,0:0:0:0:
288,32,84556,1,0,0:0:0:0:
256,40,84639,1,0,0:0:0:0:
224,56,84723,1,0,0:0:0:0:
200,72,84806,2,0,L|128:120,3,52.5
80,152,85139,2,0,P|125:187|182:183,1,105,8|0,0:0|0:0,0:0:0:0:
304,160,85473,5,2,0:0:0:0:
336,144,85556,1,0,0:0:0:0:
368,144,85639,1,0,0:0:0:0:
400,152,85723,1,0,0:0:0:0:
424,168,85806,2,0,L|488:216,3,52.5,8|0|0|0,0:0|0:0|0:0|0:0,0:0:0:0:
408,256,86139,2,0,L|440:312,3,52.5
360,328,86473,2,0,B|325:347|325:347|284:320|233:297,1,105,8|0,0:0|0:0,0:0:0:0:
160,264,86806,6,0,L|176:200,1,52.5,2|0,0:0|0:0,0:0:0:0:
256,192,86973,2,0,L|232:128,1,52.5
168,104,87139,2,0,L|192:40,3,52.5,8|0|0|0,0:0|0:0|0:0|0:0,0:0:0:0:
264,32,87473,2,0,L|296:104,3,52.5
368,96,87806,1,8,0:0:0:0:
432,176,87973,1,0,0:0:0:0:
424,288,88139,5,2,0:0:0:0:
400,312,88223,1,0,0:0:0:0:
376,328,88306,1,0,0:0:0:0:
344,336,88389,1,0,0:0:0:0:
312,336,88473,2,0,L|240:320,3,52.5,8|0|0|0,0:0|0:0|0:0|0:0,0:0:0:0:
272,248,88806,2,0,L|224:216,3,52.5
208,136,89139,2,0,P|152:104|80:112,1,105,8|0,0:0|0:0,0:0:0:0:
24,176,89473,5,2,0:0:0:0:
8,208,89556,1,0,0:0:0:0:
8,240,89639,1,0,0:0:0:0:
16,272,89723,1,0,0:0:0:0:
32,296,89806,2,0,L|80:336,3,52.5
104,344,90139,6,0,P|181:284|116:282,1,210.105005482171
152,136,90806,6,0,L|128:72,1,52.5,2|0,0:0|0:0,0:0:0:0:
216,32,90973,2,0,L|216:104,1,52.5
280,136,91139,2,0,L|304:72,3,52.5,8|0|0|0,0:0|0:0|0:0|0:0,0:0:0:0:
360,32,91473,2,0,L|392:96,3,52.5
464,72,91806,2,0,P|480:144|464:216,1,105,8|0,0:0|0:0,0:0:0:0:
432,272,92139,5,2,0:0:0:0:
408,296,92223,1,0,0:0:0:0:
384,312,92306,1,0,0:0:0:0:
352,320,92389,1,0,0:0:0:0:
320,312,92473,2,0,L|264:296,3,52.5,8|0|0|0,0:0|0:0|0:0|0:0,0:0:0:0:
296,216,92806,2,0,P|256:168|200:144,1,105
144,232,93139,2,0,P|184:280|240:304,1,105,8|0,0:0|0:0,0:0:0:0:
320,248,93473,6,0,L|368:200,1,52.5,2|0,0:0|0:0,0:0:0:0:
304,144,93639,2,0,L|360:128,1,52.5
344,48,93806,2,0,L|416:64,3,52.5,8|0|0|0,0:0|0:0|0:0|0:0,0:0:0:0:
432,112,94139,2,0,L|504:128,3,52.5
488,200,94473,2,0,P|432:224|384:224,1,105,8|0,0:0|0:0,0:0:0:0:
288,176,94806,5,2,0:0:0:0:
256,160,94889,1,0,0:0:0:0:
224,152,94973,1,0,0:0:0:0:
192,152,95056,1,0,0:0:0:0:
160,160,95139,2,0,L|104:184,3,52.5,8|0|0|0,0:0|0:0|0:0|0:0,0:0:0:0:
64,120,95473,2,0,L|144:88,3,52.5
192,72,95806,2,0,B|240:48|240:48|288:72,1,105,8|0,0:0|0:0,0:0:0:0:
256,168,96139,6,0,L|312:200,1,52.5,2|0,0:0|0:0,0:0:0:0:
280,272,96306,2,0,L|224:240,1,52.5
160,288,96473,2,0,L|224:328,3,52.5,8|0|0|0,0:0|0:0|0:0|0:0,0:0:0:0:
328,352,96806,2,0,L|400:256,1,105
312,168,97139,2,0,L|232:272,1,105,8|0,0:0|0:0,0:0:0:0:
80,176,97473,6,0,L|128:216,1,52.5,2|0,0:0|0:0,0:0:0:0:
192,168,97639,2,0,L|144:128,1,52.5
168,48,97806,2,0,L|216:88,3,52.5,8|0|0|0,0:0|0:0|0:0|0:0,0:0:0:0:
328,96,98139,2,0,L|256:200,1,105
360,272,98473,2,0,L|432:168,1,105,8|0,0:0|0:0,0:0:0:0:
240,144,98806,5,2,0:0:0:0:
208,144,98889,1,0,0:0:0:0:
176,152,98973,1,0,0:0:0:0:
152,168,99056,1,0,0:0:0:0:
136,192,99139,2,0,L|104:240,3,52.5,8|0|0|0,0:0|0:0|0:0|0:0,0:0:0:0:
216,248,99473,2,0,L|264:216,3,52.5
216,72,99806,2,0,P|280:80|320:120,1,105,8|0,0:0|0:0,0:0:0:0:
408,128,100139,5,2,0:0:0:0:
424,152,100223,1,0,0:0:0:0:
432,184,100306,1,0,0:0:0:0:
432,216,100389,1,0,0:0:0:0:
424,240,100473,1,0,0:0:0:0:
416,256,100556,1,0,0:0:0:0:
400,272,100639,1,0,0:0:0:0:
384,280,100723,1,0,0:0:0:0:
360,288,100806,2,0,L|288:304,3,52.5,2|0|0|0,0:0|0:0|0:0|0:0,0:0:0:0:
296,224,101139,2,0,L|352:192,3,52.5
384,136,101473,5,4,0:0:0:0:
