osu file format v14

[General]
AudioFilename: audio.mp3
AudioLeadIn: 0
PreviewTime: 0
Countdown: 1
SampleSet: Soft
StackLeniency: 0.7
Mode: 0
LetterboxInBreaks: 0
WidescreenStoryboard: 1

[Editor]
Bookmarks: 101466
DistanceSpacing: 0.7
BeatDivisor: 4
GridSize: 4
TimelineZoom: 2.2

[Metadata]
Title:Doki-Doki
TitleUnicode:Doki-Doki
Artist:Thaehan
ArtistUnicode:Thaehan
Creator:Lufu
Version:uwu
Source:
Tags:loki power up electronic chiptune
BeatmapID:1270364
BeatmapSetID:601320

[Difficulty]
HPDrainRate:6
CircleSize:5
OverallDifficulty:8
ApproachRate:9
SliderMultiplier:1.8
SliderTickRate:1

[Events]
//Background and Video events
0,0,"bg.jpg",0,0
//Break Periods
//Storyboard Layer 0 (Background)
//Storyboard Layer 1 (Fail)
//Storyboard Layer 2 (Pass)
//Storyboard Layer 3 (Foreground)
//Storyboard Sound Samples

[TimingPoints]
133,333.333333333333,4,2,0,60,1,0
10799,-100,4,2,0,60,0,1
16132,-66.6666666666667,4,2,0,60,0,1
18132,-100,4,2,0,60,0,1
21466,-100,4,2,0,60,0,0
34466,-66.6666666666667,4,2,0,60,0,0
34632,-100,4,2,0,60,0,0
37132,-66.6666666666667,4,2,0,60,0,0
37299,-100,4,2,0,60,0,0
39799,-66.6666666666667,4,2,0,60,0,0
39966,-100,4,2,0,60,0,0
52799,-71.4285714285714,4,2,0,60,0,0
53796,-100,4,2,0,60,0,0
54382,-90.9090909090909,4,2,0,60,0,0
55132,-83.3333333333333,4,2,0,60,0,0
55799,-76.9230769230769,4,2,0,60,0,0
56466,-71.4285714285714,4,2,0,60,0,0
57132,-66.6666666666667,4,2,0,60,0,0
57466,-71.4285714285714,4,2,0,60,0,0
58799,-66.6666666666667,4,2,0,60,0,1
79799,-55.5555555555556,4,2,0,60,0,1
80132,-100,4,2,0,60,0,0
90132,-55.5555555555556,4,2,0,60,0,0
90632,-100,4,2,0,60,0,0

[HitObjects]
104,32,133,5,0,0:0:0:0:
112,144,299,1,0,0:0:0:0:
116,180,382,1,0,0:0:0:0:
119,218,465,1,0,0:0:0:0:
144,244,549,1,0,0:0:0:0:
148,276,632,1,0,0:0:0:0:
152,311,715,1,0,0:0:0:0:
156,348,799,6,0,L|96:360,2,45
264,152,1132,2,0,L|329:138,2,45
388,348,1466,5,0,0:0:0:0:
344,348,1549,1,0,0:0:0:0:
300,348,1632,1,0,0:0:0:0:
248,228,1799,5,0,0:0:0:0:
280,228,1882,1,0,0:0:0:0:
312,228,1965,1,0,0:0:0:0:
372,108,2132,5,0,0:0:0:0:
352,108,2216,1,0,0:0:0:0:
336,108,2299,1,0,0:0:0:0:
232,240,2466,5,0,0:0:0:0:
296,48,2632,1,0,0:0:0:0:
400,212,2799,1,0,0:0:0:0:
208,128,2966,5,0,0:0:0:0:
208,128,3049,1,0,0:0:0:0:
208,128,3132,1,0,0:0:0:0:
240,344,3299,1,0,0:0:0:0:
328,216,3466,1,0,0:0:0:0:
114,252,3632,1,0,0:0:0:0:
328,304,3799,1,0,0:0:0:0:
328,304,3882,1,0,0:0:0:0:
328,304,3966,1,0,0:0:0:0:
484,156,4132,5,0,0:0:0:0:
300,44,4299,1,0,0:0:0:0:
266,39,4382,1,0,0:0:0:0:
234,48,4465,1,0,0:0:0:0:
207,68,4548,1,0,0:0:0:0:
189,96,4632,1,0,0:0:0:0:
184,129,4715,1,0,0:0:0:0:
190,162,4799,1,0,0:0:0:0:
200,176,4882,1,0,0:0:0:0:
209,191,4965,1,0,0:0:0:0:
219,205,5048,1,0,0:0:0:0:
228,219,5132,1,0,0:0:0:0:
316,336,5466,5,0,0:0:0:0:
400,228,5799,1,0,0:0:0:0:
400,228,5966,1,0,0:0:0:0:
320,176,6132,1,0,0:0:0:0:
320,176,6466,1,0,0:0:0:0:
228,219,6632,1,0,0:0:0:0:
140,184,6799,1,0,0:0:0:0:
140,184,7132,5,0,0:0:0:0:
72,248,7299,1,0,0:0:0:0:
204,124,7466,1,0,0:0:0:0:
204,124,7799,1,0,0:0:0:0:
272,56,7966,1,0,0:0:0:0:
296,260,8132,5,0,0:0:0:0:
440,148,8299,1,0,0:0:0:0:
404,152,8382,1,0,0:0:0:0:
368,156,8466,1,0,0:0:0:0:
432,56,8632,1,0,0:0:0:0:
446,239,8799,1,0,0:0:0:0:
327,99,8966,1,0,0:0:0:0:
506,143,9132,1,0,0:0:0:0:
336,213,9299,1,0,0:0:0:0:
500,76,9466,5,0,0:0:0:0:
388,272,9632,1,0,0:0:0:0:
388,272,9716,1,0,0:0:0:0:
388,272,9799,1,0,0:0:0:0:
244,100,9966,1,0,0:0:0:0:
88,260,10132,1,0,0:0:0:0:
124,260,10216,1,0,0:0:0:0:
160,260,10299,1,0,0:0:0:0:
196,260,10382,1,0,0:0:0:0:
232,260,10466,1,0,0:0:0:0:
288,44,10799,5,0,0:0:0:0:
360,144,10966,1,0,0:0:0:0:
374,178,11049,1,0,0:0:0:0:
377,215,11132,1,0,0:0:0:0:
369,252,11216,1,0,0:0:0:0:
365,289,11299,1,0,0:0:0:0:
375,325,11382,1,0,0:0:0:0:
395,357,11466,1,0,0:0:0:0:
448,168,11632,1,0,0:0:0:0:
288,284,11799,1,0,0:0:0:0:
288,284,11882,1,0,0:0:0:0:
288,284,11966,1,0,0:0:0:0:
148,152,12132,5,0,0:0:0:0:
196,152,12216,1,0,0:0:0:0:
244,152,12299,1,0,0:0:0:0:
124,244,12466,5,0,0:0:0:0:
88,244,12549,1,0,0:0:0:0:
52,244,12632,1,0,0:0:0:0:
148,336,12799,5,0,0:0:0:0:
172,336,12882,1,0,0:0:0:0:
196,336,12966,1,0,0:0:0:0:
296,180,13132,5,0,0:0:0:0:
388,336,13299,1,0,0:0:0:0:
480,180,13466,1,0,0:0:0:0:
296,296,13632,1,0,0:0:0:0:
296,296,13716,1,0,0:0:0:0:
296,296,13799,1,0,0:0:0:0:
296,80,13966,1,0,0:0:0:0:
188,188,14132,1,0,0:0:0:0:
402,188,14299,1,0,0:0:0:0:
196,292,14466,1,0,0:0:0:0:
196,292,14549,1,0,0:0:0:0:
196,292,14632,1,0,0:0:0:0:
48,184,14799,5,0,0:0:0:0:
187,61,14966,1,0,0:0:0:0:
216,39,15049,1,0,0:0:0:0:
250,31,15132,1,0,0:0:0:0:
285,39,15216,1,0,0:0:0:0:
313,61,15299,1,0,0:0:0:0:
331,93,15382,1,0,0:0:0:0:
344,126,15465,1,0,0:0:0:0:
371,149,15548,1,0,0:0:0:0:
405,158,15632,1,0,0:0:0:0:
440,151,15715,1,0,0:0:0:0:
468,130,15798,1,0,0:0:0:0:
288,308,16132,5,0,0:0:0:0:
288,308,16299,1,0,0:0:0:0:
288,308,16466,2,0,L|136:308,1,135.000005149842
296,184,16799,5,0,0:0:0:0:
296,184,16966,1,0,0:0:0:0:
296,184,17133,2,0,L|436:184,1,135.000005149842
288,60,17466,5,0,0:0:0:0:
288,60,17632,1,0,0:0:0:0:
288,60,17799,2,0,L|148:60,1,135.000005149842
386,184,18132,5,0,0:0:0:0:
436,56,18299,1,0,0:0:0:0:
352,212,18466,1,0,0:0:0:0:
368,12,18632,1,0,0:0:0:0:
236,164,18799,1,0,0:0:0:0:
475,268,18966,5,0,0:0:0:0:
475,268,19049,1,0,0:0:0:0:
475,268,19132,1,0,0:0:0:0:
249,263,19299,1,0,0:0:0:0:
442,175,19466,1,0,0:0:0:0:
394,324,19632,1,0,0:0:0:0:
315,126,19799,1,0,0:0:0:0:
480,44,19966,1,0,0:0:0:0:
352,216,20132,5,0,0:0:0:0:
184,88,20299,1,0,0:0:0:0:
144,92,20382,1,0,0:0:0:0:
112,96,20466,1,0,0:0:0:0:
52,204,20632,1,0,0:0:0:0:
176,308,20799,1,0,0:0:0:0:
212,308,20882,1,0,0:0:0:0:
244,296,20966,1,0,0:0:0:0:
276,296,21049,1,0,0:0:0:0:
304,296,21132,1,0,0:0:0:0:
432,76,21466,5,0,0:0:0:0:
406,50,21549,1,0,0:0:0:0:
373,38,21632,1,0,0:0:0:0:
337,42,21715,1,0,0:0:0:0:
307,60,21799,1,0,0:0:0:0:
287,90,21882,1,0,0:0:0:0:
282,125,21965,1,0,0:0:0:0:
292,159,22049,1,0,0:0:0:0:
316,185,22132,5,0,0:0:0:0:
334,217,22215,1,0,0:0:0:0:
336,252,22298,1,0,0:0:0:0:
324,286,22381,1,0,0:0:0:0:
298,311,22465,1,0,0:0:0:0:
265,323,22548,1,0,0:0:0:0:
229,319,22631,1,0,0:0:0:0:
198,301,22715,1,0,0:0:0:0:
178,272,22799,6,0,L|224:240,3,45
96,216,23132,2,0,L|48:244,3,45
128,120,23466,5,0,0:0:0:0:
172,118,23549,1,0,0:0:0:0:
217,116,23632,1,0,0:0:0:0:
262,114,23715,1,0,0:0:0:0:
307,112,23799,1,0,0:0:0:0:
336,136,23882,1,0,0:0:0:0:
367,134,23965,1,0,0:0:0:0:
398,133,24048,1,0,0:0:0:0:
430,132,24132,6,0,L|480:128,3,45
400,224,24466,2,0,L|355:227,3,45
496,272,24799,5,0,0:0:0:0:
482,305,24882,1,0,0:0:0:0:
459,332,24965,1,0,0:0:0:0:
428,350,25048,1,0,0:0:0:0:
393,358,25132,1,0,0:0:0:0:
358,353,25215,1,0,0:0:0:0:
326,337,25298,1,0,0:0:0:0:
301,311,25382,1,0,0:0:0:0:
285,279,25466,6,0,L|216:288,3,45
176,228,25799,2,0,L|220:222,3,45
116,152,26132,5,0,0:0:0:0:
145,135,26215,1,0,0:0:0:0:
177,128,26298,1,0,0:0:0:0:
211,131,26381,1,0,0:0:0:0:
242,145,26466,1,0,0:0:0:0:
270,162,26549,1,0,0:0:0:0:
303,168,26632,1,0,0:0:0:0:
336,160,26715,1,0,0:0:0:0:
363,140,26799,6,0,L|408:143,3,45
312,80,27132,2,0,L|267:77,3,45
208,32,27466,5,0,0:0:0:0:
172,28,27549,1,0,0:0:0:0:
138,39,27632,1,0,0:0:0:0:
112,63,27715,1,0,0:0:0:0:
98,96,27799,1,0,0:0:0:0:
99,132,27882,1,0,0:0:0:0:
115,164,27965,1,0,0:0:0:0:
142,186,28049,1,0,0:0:0:0:
177,196,28132,5,0,0:0:0:0:
210,209,28215,1,0,0:0:0:0:
233,236,28298,1,0,0:0:0:0:
242,271,28381,1,0,0:0:0:0:
235,306,28465,1,0,0:0:0:0:
212,333,28548,1,0,0:0:0:0:
180,348,28631,1,0,0:0:0:0:
144,347,28715,1,0,0:0:0:0:
113,330,28799,6,0,L|36:352,3,45
148,240,29132,2,0,L|191:228,3,45
52,208,29466,5,0,0:0:0:0:
35,176,29549,1,0,0:0:0:0:
32,140,29632,1,0,0:0:0:0:
42,106,29715,1,0,0:0:0:0:
65,78,29799,1,0,0:0:0:0:
96,62,29882,1,0,0:0:0:0:
132,58,29965,1,0,0:0:0:0:
166,68,30049,1,0,0:0:0:0:
194,91,30132,5,0,0:0:0:0:
210,123,30215,1,0,0:0:0:0:
236,148,30298,1,0,0:0:0:0:
269,161,30381,1,0,0:0:0:0:
305,163,30465,1,0,0:0:0:0:
339,153,30548,1,0,0:0:0:0:
367,131,30631,1,0,0:0:0:0:
386,100,30715,1,0,0:0:0:0:
394,65,30799,1,0,0:0:0:0:
416,276,31132,5,0,0:0:0:0:
376,284,31216,1,0,0:0:0:0:
336,292,31299,1,0,0:0:0:0:
472,196,31466,1,0,0:0:0:0:
256,232,31632,1,0,0:0:0:0:
394,65,31799,1,0,0:0:0:0:
90,87,32132,5,0,0:0:0:0:
55,107,32215,1,0,0:0:0:0:
37,143,32298,1,0,0:0:0:0:
39,182,32381,1,0,0:0:0:0:
60,216,32465,1,0,0:0:0:0:
96,234,32548,1,0,0:0:0:0:
135,231,32631,1,0,0:0:0:0:
170,207,32716,1,0,0:0:0:0:
203,185,32799,5,0,0:0:0:0:
243,179,32882,1,0,0:0:0:0:
282,193,32966,1,0,0:0:0:0:
310,221,33049,1,0,0:0:0:0:
324,259,33132,1,0,0:0:0:0:
321,298,33216,1,0,0:0:0:0:
300,334,33299,1,0,0:0:0:0:
266,355,33382,1,0,0:0:0:0:
226,361,33466,6,0,L|144:366,3,45
238,271,33799,2,0,L|288:267,3,45
357,153,34132,5,0,0:0:0:0:
330,104,34215,1,0,0:0:0:0:
279,84,34298,1,0,0:0:0:0:
226,102,34382,1,0,0:0:0:0:
198,149,34466,2,0,P|165:173|181:113,1,135.000005149842
328,34,34799,5,0,0:0:0:0:
365,25,34882,1,0,0:0:0:0:
405,35,34965,1,0,0:0:0:0:
433,61,35049,1,0,0:0:0:0:
448,98,35132,1,0,0:0:0:0:
443,137,35215,1,0,0:0:0:0:
422,170,35299,1,0,0:0:0:0:
390,189,35382,1,0,0:0:0:0:
354,206,35465,5,0,0:0:0:0:
331,238,35548,1,0,0:0:0:0:
325,277,35632,1,0,0:0:0:0:
337,316,35716,1,0,0:0:0:0:
367,342,35798,1,0,0:0:0:0:
406,352,35882,1,0,0:0:0:0:
444,343,35965,1,0,0:0:0:0:
474,317,36048,1,0,0:0:0:0:
497,283,36132,6,0,L|434:274,3,45
422,170,36466,2,0,L|484:178,3,45
316,108,36799,6,0,L|316:56,1,45
240,192,36966,2,0,L|240:248,1,45
156,104,37132,2,0,P|116:92|132:156,1,135.000005149842
364,224,37466,5,0,0:0:0:0:
384,258,37549,1,0,0:0:0:0:
382,298,37632,1,0,0:0:0:0:
358,330,37716,1,0,0:0:0:0:
321,345,37799,1,0,0:0:0:0:
282,336,37882,1,0,0:0:0:0:
254,308,37966,1,0,0:0:0:0:
221,331,38049,1,0,0:0:0:0:
181,340,38132,5,0,0:0:0:0:
142,332,38216,1,0,0:0:0:0:
109,309,38299,1,0,0:0:0:0:
87,275,38382,1,0,0:0:0:0:
81,235,38466,1,0,0:0:0:0:
91,196,38549,1,0,0:0:0:0:
116,164,38632,1,0,0:0:0:0:
151,144,38716,1,0,0:0:0:0:
191,140,38799,6,0,L|264:152,3,45
288,244,39132,2,0,L|215:232,3,45
412,156,39466,5,0,0:0:0:0:
443,111,39549,1,0,0:0:0:0:
425,60,39632,1,0,0:0:0:0:
373,46,39716,1,0,0:0:0:0:
331,81,39799,2,0,P|288:84|320:28,1,135.000005149842
457,252,40132,5,0,0:0:0:0:
447,293,40215,1,0,0:0:0:0:
419,324,40298,1,0,0:0:0:0:
378,336,40382,1,0,0:0:0:0:
337,325,40465,1,0,0:0:0:0:
308,295,40548,1,0,0:0:0:0:
298,254,40632,1,0,0:0:0:0:
321,218,40715,1,0,0:0:0:0:
321,176,40798,5,0,0:0:0:0:
297,141,40882,1,0,0:0:0:0:
258,125,40965,1,0,0:0:0:0:
218,133,41048,1,0,0:0:0:0:
187,162,41132,1,0,0:0:0:0:
162,196,41215,1,0,0:0:0:0:
124,210,41298,1,0,0:0:0:0:
83,200,41382,1,0,0:0:0:0:
55,168,41465,1,0,0:0:0:0:
224,44,41799,5,0,0:0:0:0:
268,45,41882,1,0,0:0:0:0:
313,46,41965,1,0,0:0:0:0:
480,132,42132,1,0,0:0:0:0:
408,304,42299,1,0,0:0:0:0:
228,316,42466,1,0,0:0:0:0:
143,143,42799,5,0,0:0:0:0:
256,88,42966,1,0,0:0:0:0:
256,88,43049,1,0,0:0:0:0:
256,88,43132,1,0,0:0:0:0:
370,141,43299,1,0,0:0:0:0:
266,209,43466,1,0,0:0:0:0:
337,76,43632,1,0,0:0:0:0:
187,112,43799,1,0,0:0:0:0:
186,111,43882,1,0,0:0:0:0:
186,111,43966,1,0,0:0:0:0:
186,111,44049,1,0,0:0:0:0:
186,111,44132,5,0,0:0:0:0:
347,152,44299,1,0,0:0:0:0:
347,152,44382,1,0,0:0:0:0:
347,152,44466,1,0,0:0:0:0:
190,241,44632,1,0,0:0:0:0:
256,88,44799,1,0,0:0:0:0:
323,245,44966,1,0,0:0:0:0:
323,245,45049,1,0,0:0:0:0:
323,245,45132,1,0,0:0:0:0:
441,216,45299,1,0,0:0:0:0:
419,109,45466,5,0,0:0:0:0:
419,109,45549,1,0,0:0:0:0:
419,109,45632,1,0,0:0:0:0:
419,109,45716,1,0,0:0:0:0:
419,109,45799,1,0,0:0:0:0:
251,173,45966,1,0,0:0:0:0:
165,141,46132,1,0,0:0:0:0:
337,141,46299,1,0,0:0:0:0:
269,266,46466,1,0,0:0:0:0:
355,126,46632,1,0,0:0:0:0:
198,220,46799,5,0,0:0:0:0:
316,54,46966,1,0,0:0:0:0:
316,198,47132,1,0,0:0:0:0:
438,125,47299,1,0,0:0:0:0:
241,141,47466,1,0,0:0:0:0:
241,141,47549,1,0,0:0:0:0:
241,141,47632,1,0,0:0:0:0:
241,141,47716,1,0,0:0:0:0:
241,141,47799,1,0,0:0:0:0:
355,126,47966,1,0,0:0:0:0:
456,304,48132,6,0,L|332:316,1,90
336,316,48382,1,0,0:0:0:0:
304,320,48466,1,0,0:0:0:0:
176,284,48632,1,0,0:0:0:0:
264,208,48799,1,0,0:0:0:0:
384,212,48966,1,0,0:0:0:0:
164,192,49132,1,0,0:0:0:0:
164,192,49216,1,0,0:0:0:0:
164,192,49299,1,0,0:0:0:0:
164,192,49382,1,0,0:0:0:0:
164,192,49466,5,0,0:0:0:0:
328,256,49632,1,0,0:0:0:0:
328,256,49716,1,0,0:0:0:0:
328,256,49799,1,0,0:0:0:0:
264,108,49966,1,0,0:0:0:0:
220,264,50132,1,0,0:0:0:0:
360,152,50299,1,0,0:0:0:0:
392,152,50382,1,0,0:0:0:0:
424,152,50466,1,0,0:0:0:0:
256,192,50632,1,0,0:0:0:0:
354,78,50799,5,0,0:0:0:0:
354,78,50882,1,0,0:0:0:0:
354,78,50966,1,0,0:0:0:0:
354,78,51049,1,0,0:0:0:0:
354,78,51132,1,0,0:0:0:0:
180,116,51299,1,0,0:0:0:0:
354,154,51466,1,0,0:0:0:0:
180,192,51632,1,0,0:0:0:0:
354,78,51799,1,0,0:0:0:0:
180,40,51966,1,0,0:0:0:0:
278,199,52132,5,0,0:0:0:0:
436,112,52299,1,0,0:0:0:0:
356,275,52466,1,0,0:0:0:0:
280,112,52632,1,0,0:0:0:0:
432,216,52799,2,0,P|436:328|284:340,1,251.999992309571
148,240,53466,5,0,0:0:0:0:
148,240,53549,1,0,0:0:0:0:
148,240,53632,1,0,0:0:0:0:
148,240,53716,1,0,0:0:0:0:
148,240,53799,2,0,L|208:248,3,45
248,96,54132,5,0,0:0:0:0:
248,96,54215,1,0,0:0:0:0:
248,96,54298,1,0,0:0:0:0:
248,96,54382,1,0,0:0:0:0:
248,96,54466,2,0,L|152:108,3,49.5000015106202
400,196,54799,5,0,0:0:0:0:
400,196,54882,1,0,0:0:0:0:
400,196,54966,1,0,0:0:0:0:
400,196,55049,1,0,0:0:0:0:
400,196,55132,2,0,L|460:204,3,53.9999983520508
300,332,55466,5,0,0:0:0:0:
300,332,55549,1,0,0:0:0:0:
300,332,55632,1,0,0:0:0:0:
300,332,55716,1,0,0:0:0:0:
300,332,55800,2,0,L|212:344,3,58.4999973220826
228,184,56132,5,0,0:0:0:0:
228,184,56215,1,0,0:0:0:0:
228,184,56298,1,0,0:0:0:0:
228,184,56382,1,0,0:0:0:0:
228,184,56466,2,0,L|316:196,3,62.9999980773926
300,36,56799,5,0,0:0:0:0:
300,36,56882,1,0,0:0:0:0:
300,36,56965,1,0,0:0:0:0:
300,36,57049,1,0,0:0:0:0:
300,36,57133,2,0,L|208:48,3,67.5000025749208
384,92,57466,2,0,B|452:144|452:240|376:292|376:292|312:244|236:244|168:320,1,440.999986541748
164,320,58132,5,0,0:0:0:0:
117,327,58215,1,0,0:0:0:0:
75,331,58298,1,0,0:0:0:0:
224,192,58466,1,0,0:0:0:0:
274,187,58549,1,0,0:0:0:0:
324,182,58632,1,0,0:0:0:0:
436,40,58799,5,0,0:0:0:0:
480,216,58966,1,0,0:0:0:0:
467,260,59049,1,0,0:0:0:0:
428,284,59132,1,0,0:0:0:0:
383,277,59216,1,0,0:0:0:0:
342,257,59299,1,0,0:0:0:0:
297,266,59382,1,0,0:0:0:0:
267,301,59466,1,0,0:0:0:0:
468,348,59632,1,0,0:0:0:0:
331,189,59799,1,0,0:0:0:0:
331,189,59882,1,0,0:0:0:0:
331,189,59966,1,0,0:0:0:0:
176,280,60132,5,0,0:0:0:0:
120,292,60215,1,0,0:0:0:0:
64,280,60298,1,0,0:0:0:0:
180,108,60466,5,0,0:0:0:0:
224,96,60549,1,0,0:0:0:0:
268,108,60632,1,0,0:0:0:0:
480,208,60799,5,0,0:0:0:0:
444,216,60882,1,0,0:0:0:0:
409,208,60965,1,0,0:0:0:0:
292,336,61132,5,0,0:0:0:0:
408,108,61299,1,0,0:0:0:0:
185,196,61466,1,0,0:0:0:0:
417,297,61632,1,0,0:0:0:0:
417,297,61716,1,0,0:0:0:0:
417,297,61799,1,0,0:0:0:0:
184,304,61966,1,0,0:0:0:0:
480,208,62132,1,0,0:0:0:0:
276,80,62299,1,0,0:0:0:0:
300,344,62466,1,0,0:0:0:0:
300,344,62549,1,0,0:0:0:0:
300,344,62632,1,0,0:0:0:0:
408,108,62799,5,0,0:0:0:0:
152,224,62966,1,0,0:0:0:0:
106,223,63049,1,0,0:0:0:0:
73,191,63132,1,0,0:0:0:0:
71,145,63216,1,0,0:0:0:0:
100,110,63299,1,0,0:0:0:0:
145,105,63382,1,0,0:0:0:0:
182,132,63466,1,0,0:0:0:0:
216,164,63549,1,0,0:0:0:0:
261,175,63632,1,0,0:0:0:0:
306,165,63716,1,0,0:0:0:0:
341,135,63799,1,0,0:0:0:0:
344,317,64132,5,0,0:0:0:0:
259,88,64299,1,0,0:0:0:0:
473,188,64466,2,0,L|336:204,1,135.000005149842
116,81,64800,5,0,0:0:0:0:
341,135,64966,1,0,0:0:0:0:
123,232,65132,2,0,P|145:162|219:133,1,135.000005149842
384,66,65466,5,0,0:0:0:0:
211,221,65632,1,0,0:0:0:0:
440,309,65799,2,0,B|372:328|372:328|300:306,1,135.000005149842
123,232,66132,5,0,0:0:0:0:
278,62,66299,1,0,0:0:0:0:
202,305,66466,1,0,0:0:0:0:
419,184,66632,1,0,0:0:0:0:
149,112,66799,5,0,0:0:0:0:
400,81,66966,1,0,0:0:0:0:
400,81,67049,1,0,0:0:0:0:
400,81,67132,1,0,0:0:0:0:
324,317,67299,1,0,0:0:0:0:
210,70,67466,1,0,0:0:0:0:
109,311,67632,1,0,0:0:0:0:
332,176,67799,1,0,0:0:0:0:
72,153,67966,1,0,0:0:0:0:
377,252,68132,5,0,0:0:0:0:
115,78,68299,1,0,0:0:0:0:
115,78,68382,1,0,0:0:0:0:
115,78,68466,1,0,0:0:0:0:
332,176,68632,1,0,0:0:0:0:
161,336,68799,1,0,0:0:0:0:
130,347,68882,1,0,0:0:0:0:
99,351,68965,1,0,0:0:0:0:
67,347,69048,1,0,0:0:0:0:
37,337,69132,1,0,0:0:0:0:
220,128,69466,5,0,0:0:0:0:
416,208,70132,1,0,0:0:0:0:
400,236,70216,1,0,0:0:0:0:
384,264,70299,1,0,0:0:0:0:
192,300,70466,1,0,0:0:0:0:
208,328,70550,1,0,0:0:0:0:
224,356,70633,1,0,0:0:0:0:
368,144,70799,5,0,0:0:0:0:
421,127,70882,1,0,0:0:0:0:
474,147,70965,1,0,0:0:0:0:
244,208,71132,5,0,0:0:0:0:
201,223,71215,1,0,0:0:0:0:
159,211,71298,1,0,0:0:0:0:
284,36,71466,5,0,0:0:0:0:
318,24,71549,1,0,0:0:0:0:
351,33,71632,1,0,0:0:0:0:
348,252,71799,5,0,0:0:0:0:
192,108,71966,1,0,0:0:0:0:
460,60,72132,1,0,0:0:0:0:
250,215,72299,1,0,0:0:0:0:
250,215,72382,1,0,0:0:0:0:
250,215,72466,1,0,0:0:0:0:
88,68,72632,1,0,0:0:0:0:
32,272,72799,1,0,0:0:0:0:
192,108,72966,1,0,0:0:0:0:
308,320,73132,1,0,0:0:0:0:
308,320,73216,1,0,0:0:0:0:
308,320,73299,1,0,0:0:0:0:
228,48,73466,5,0,0:0:0:0:
458,218,73632,1,0,0:0:0:0:
486,254,73715,1,0,0:0:0:0:
484,300,73798,1,0,0:0:0:0:
452,333,73881,1,0,0:0:0:0:
406,336,73965,1,0,0:0:0:0:
369,309,74049,1,0,0:0:0:0:
345,269,74132,1,0,0:0:0:0:
301,257,74215,1,0,0:0:0:0:
260,279,74298,1,0,0:0:0:0:
245,323,74382,1,0,0:0:0:0:
265,364,74466,1,0,0:0:0:0:
400,78,74799,5,0,0:0:0:0:
187,192,74966,1,0,0:0:0:0:
392,222,75132,1,0,0:0:0:0:
225,59,75299,1,0,0:0:0:0:
85,245,75466,5,0,0:0:0:0:
290,138,75632,1,0,0:0:0:0:
240,290,75799,1,0,0:0:0:0:
134,93,75966,1,0,0:0:0:0:
369,51,76132,5,0,0:0:0:0:
218,222,76299,1,0,0:0:0:0:
233,21,76466,1,0,0:0:0:0:
407,150,76632,1,0,0:0:0:0:
240,290,76799,5,0,0:0:0:0:
324,85,76966,1,0,0:0:0:0:
423,275,77132,1,0,0:0:0:0:
161,336,77299,1,0,0:0:0:0:
256,104,77466,5,0,0:0:0:0:
20,169,77632,1,0,0:0:0:0:
20,169,77716,1,0,0:0:0:0:
20,169,77799,1,0,0:0:0:0:
218,32,77966,1,0,0:0:0:0:
119,245,78132,1,0,0:0:0:0:
324,116,78299,1,0,0:0:0:0:
358,351,78466,1,0,0:0:0:0:
187,184,78632,1,0,0:0:0:0:
426,233,78799,5,0,0:0:0:0:
221,93,78966,1,0,0:0:0:0:
221,93,79049,1,0,0:0:0:0:
221,93,79132,1,0,0:0:0:0:
96,226,79299,1,0,0:0:0:0:
248,328,79466,1,0,0:0:0:0:
275,342,79549,1,0,0:0:0:0:
308,346,79632,1,0,0:0:0:0:
338,340,79715,1,0,0:0:0:0:
366,323,79799,2,0,B|408:272|384:208|384:208|344:256,1,161.999995056153
368,112,80132,5,0,0:0:0:0:
350,76,80215,1,0,0:0:0:0:
317,52,80298,1,0,0:0:0:0:
278,45,80381,1,0,0:0:0:0:
239,58,80465,1,0,0:0:0:0:
211,86,80548,1,0,0:0:0:0:
199,124,80631,1,0,0:0:0:0:
205,164,80715,1,0,0:0:0:0:
229,196,80799,6,0,L|300:192,3,45
168,292,81132,2,0,L|97:296,3,45
260,336,81466,5,0,0:0:0:0:
297,347,81549,1,0,0:0:0:0:
334,332,81632,1,0,0:0:0:0:
351,296,81715,1,0,0:0:0:0:
341,258,81799,1,0,0:0:0:0:
327,221,81882,1,0,0:0:0:0:
341,184,81965,1,0,0:0:0:0:
377,166,82048,1,0,0:0:0:0:
415,176,82132,6,0,L|480:180,3,45
368,84,82466,2,0,L|303:80,3,45
240,32,82799,5,0,0:0:0:0:
200,34,82882,1,0,0:0:0:0:
173,62,82965,1,0,0:0:0:0:
172,102,83048,1,0,0:0:0:0:
199,131,83132,1,0,0:0:0:0:
218,166,83215,1,0,0:0:0:0:
207,204,83298,1,0,0:0:0:0:
173,225,83381,1,0,0:0:0:0:
135,217,83466,6,0,L|88:216,3,45
176,320,83799,2,0,L|223:321,3,45
260,252,84132,5,0,0:0:0:0:
264,256,84215,1,0,0:0:0:0:
264,256,84298,1,0,0:0:0:0:
270,261,84381,1,0,0:0:0:0:
270,261,84466,1,0,0:0:0:0:
289,233,84549,1,0,0:0:0:0:
282,201,84632,1,0,0:0:0:0:
254,184,84715,1,0,0:0:0:0:
224,192,84799,5,0,0:0:0:0:
187,223,84882,1,0,0:0:0:0:
138,227,84965,1,0,0:0:0:0:
97,201,85048,1,0,0:0:0:0:
80,156,85132,1,0,0:0:0:0:
92,109,85215,1,0,0:0:0:0:
131,79,85298,1,0,0:0:0:0:
179,77,85382,1,0,0:0:0:0:
219,105,85466,6,0,L|283:101,3,45
352,32,85799,2,0,L|288:36,3,45
420,120,86132,5,0,0:0:0:0:
423,153,86215,1,0,0:0:0:0:
426,187,86298,1,0,0:0:0:0:
429,220,86381,1,0,0:0:0:0:
432,254,86465,1,0,0:0:0:0:
460,284,86549,1,0,0:0:0:0:
454,323,86632,1,0,0:0:0:0:
423,347,86715,1,0,0:0:0:0:
384,342,86799,6,0,L|304:344,3,45
240,288,87132,2,0,L|320:286,3,45
360,208,87466,5,0,0:0:0:0:
326,184,87549,1,0,0:0:0:0:
289,170,87632,1,0,0:0:0:0:
249,172,87715,1,0,0:0:0:0:
212,189,87799,1,0,0:0:0:0:
176,208,87882,1,0,0:0:0:0:
137,217,87965,1,0,0:0:0:0:
98,208,88049,1,0,0:0:0:0:
63,188,88132,6,0,L|16:188,3,45
112,96,88466,2,0,L|159:95,3,45
200,20,88799,5,0,0:0:0:0:
232,44,88882,1,0,0:0:0:0:
271,52,88965,1,0,0:0:0:0:
310,44,89048,1,0,0:0:0:0:
342,20,89132,1,0,0:0:0:0:
332,58,89215,1,0,0:0:0:0:
342,97,89298,1,0,0:0:0:0:
370,127,89381,1,0,0:0:0:0:
408,139,89466,5,0,0:0:0:0:
427,184,89549,1,0,0:0:0:0:
408,230,89632,1,0,0:0:0:0:
362,249,89715,1,0,0:0:0:0:
316,229,89799,1,0,0:0:0:0:
273,202,89882,1,0,0:0:0:0:
223,210,89965,1,0,0:0:0:0:
191,249,90048,1,0,0:0:0:0:
194,299,90132,6,0,P|104:343|172:255,1,242.999992584229
52,183,90466,2,0,L|260:131,1,161.999995056153
412,108,90799,5,0,0:0:0:0:
437,144,90882,1,0,0:0:0:0:
443,188,90965,1,0,0:0:0:0:
428,229,91048,1,0,0:0:0:0:
394,259,91132,1,0,0:0:0:0:
352,244,91215,1,0,0:0:0:0:
307,246,91298,1,0,0:0:0:0:
267,266,91381,1,0,0:0:0:0:
238,300,91465,5,0,0:0:0:0:
224,342,91549,1,0,0:0:0:0:
181,352,91632,1,0,0:0:0:0:
141,333,91715,1,0,0:0:0:0:
123,293,91798,1,0,0:0:0:0:
134,250,91882,1,0,0:0:0:0:
154,211,91965,1,0,0:0:0:0:
138,171,92048,1,0,0:0:0:0:
97,156,92132,5,0,0:0:0:0:
120,118,92215,1,0,0:0:0:0:
159,97,92298,1,0,0:0:0:0:
203,99,92381,1,0,0:0:0:0:
240,124,92465,1,0,0:0:0:0:
258,165,92549,1,0,0:0:0:0:
292,194,92632,1,0,0:0:0:0:
336,199,92715,1,0,0:0:0:0:
374,177,92799,6,0,L|440:176,3,45
344,80,93132,2,0,L|278:78,3,45
204,40,93466,5,0,0:0:0:0:
160,33,93549,1,0,0:0:0:0:
121,54,93632,1,0,0:0:0:0:
103,94,93715,1,0,0:0:0:0:
113,137,93799,1,0,0:0:0:0:
147,165,93882,1,0,0:0:0:0:
184,140,93965,1,0,0:0:0:0:
228,134,94048,1,0,0:0:0:0:
270,148,94131,5,0,0:0:0:0:
302,179,94215,1,0,0:0:0:0:
318,221,94298,1,0,0:0:0:0:
313,266,94381,1,0,0:0:0:0:
290,303,94465,1,0,0:0:0:0:
252,327,94548,1,0,0:0:0:0:
208,333,94631,1,0,0:0:0:0:
166,318,94715,1,0,0:0:0:0:
140,284,94799,6,0,L|64:288,3,45
200,204,95132,2,0,L|276:200,3,45
284,120,95466,5,0,0:0:0:0:
324,138,95549,1,0,0:0:0:0:
369,143,95632,1,0,0:0:0:0:
412,134,95715,1,0,0:0:0:0:
451,111,95799,1,0,0:0:0:0:
483,156,95882,1,0,0:0:0:0:
483,211,95965,1,0,0:0:0:0:
450,256,96048,1,0,0:0:0:0:
397,272,96132,6,0,L|328:280,3,45
284,352,96466,2,0,L|328:346,3,45
192,296,96799,5,0,0:0:0:0:
159,265,96882,1,0,0:0:0:0:
148,222,96965,1,0,0:0:0:0:
162,180,97048,1,0,0:0:0:0:
197,152,97132,1,0,0:0:0:0:
241,148,97215,1,0,0:0:0:0:
280,168,97299,1,0,0:0:0:0:
325,166,97382,1,0,0:0:0:0:
361,141,97465,5,0,0:0:0:0:
379,100,97548,1,0,0:0:0:0:
373,56,97632,1,0,0:0:0:0:
345,22,97715,1,0,0:0:0:0:
302,9,97798,1,0,0:0:0:0:
259,19,97882,1,0,0:0:0:0:
228,51,97966,1,0,0:0:0:0:
187,69,98049,1,0,0:0:0:0:
143,69,98132,5,0,0:0:0:0:
102,52,98215,1,0,0:0:0:0:
66,79,98299,1,0,0:0:0:0:
48,119,98382,1,0,0:0:0:0:
51,164,98465,1,0,0:0:0:0:
75,201,98549,1,0,0:0:0:0:
113,223,98632,1,0,0:0:0:0:
158,223,98715,1,0,0:0:0:0:
197,202,98799,5,0,0:0:0:0:
234,178,98882,1,0,0:0:0:0:
279,175,98965,1,0,0:0:0:0:
318,196,99048,1,0,0:0:0:0:
341,234,99132,1,0,0:0:0:0:
341,279,99215,1,0,0:0:0:0:
319,317,99298,1,0,0:0:0:0:
280,338,99382,1,0,0:0:0:0:
236,337,99466,6,0,L|172:324,3,45
158,223,99799,2,0,L|202:231,3,45
80,136,100132,5,0,0:0:0:0:
99,86,100215,1,0,0:0:0:0:
140,51,100298,1,0,0:0:0:0:
192,40,100381,1,0,0:0:0:0:
244,54,100465,1,0,0:0:0:0:
283,91,100548,1,0,0:0:0:0:
300,141,100631,1,0,0:0:0:0:
291,194,100716,1,0,0:0:0:0:
280,246,100799,5,0,0:0:0:0:
298,297,100882,1,0,0:0:0:0:
339,330,100965,1,0,0:0:0:0:
392,337,101049,1,0,0:0:0:0:
440,315,101132,1,0,0:0:0:0:
470,271,101215,1,0,0:0:0:0:
473,218,101299,1,0,0:0:0:0:
447,171,101382,1,0,0:0:0:0:
400,145,101465,1,0,0:0:0:0:
