osu file format v14

[General]
AudioFilename: audio.mp3
AudioLeadIn: 0
PreviewTime: 57335
Countdown: 1
SampleSet: Soft
StackLeniency: 0.8
Mode: 0
LetterboxInBreaks: 0
WidescreenStoryboard: 1

[Editor]
Bookmarks: 10668,21335,30668,32001,58668,69335,72001,80001,90001,90668,98668,100001,101418,105335
DistanceSpacing: 0.9
BeatDivisor: 4
GridSize: 4
TimelineZoom: 2.799999

[Metadata]
Title:Doki-Doki
TitleUnicode:Doki-Doki
Artist:Thaehan
ArtistUnicode:Thaehan
Creator:FrenZ396
Version:Shizuku's Expert
Source:osu!
Tags:shizuku- kazato asa loki power up featured artist fa instrumental electronic
BeatmapID:1637465
BeatmapSetID:713926

[Difficulty]
HPDrainRate:5.7
CircleSize:4
OverallDifficulty:8.7
ApproachRate:9.3
SliderMultiplier:1.76
SliderTickRate:1

[Events]
//Background and Video events
0,0,"monika2.png"
//Break Periods
//Storyboard Layer 0 (Background)
//Storyboard Layer 1 (Fail)
//Storyboard Layer 2 (Pass)
//Storyboard Layer 3 (Foreground)
//Storyboard Layer 4 (Overlay)
//Storyboard Sound Samples

[TimingPoints]
2,333.333333333333,4,2,1,60,1,0
10668,-90.9090909090909,4,2,1,80,0,1
21335,-100,4,2,1,60,0,0
30668,-100,4,2,1,45,0,0
31668,-166.666666666667,4,2,1,45,0,0
32001,-100,4,2,1,60,0,0
42585,-100,4,2,1,5,0,0
42668,-125,4,2,1,50,0,0
46585,-125,4,2,1,5,0,0
46668,-125,4,2,1,50,0,0
48335,-100,4,2,1,50,0,0
48501,-100,4,2,1,50,0,0
52001,-100,4,2,1,40,0,0
52668,-100,4,2,1,45,0,0
53001,-66.6666666666667,4,2,1,60,0,0
53251,-66.6666666666667,4,2,1,5,0,0
53335,-100,4,2,1,52,0,0
54668,-100,4,2,1,58,0,0
56001,-100,4,2,1,64,0,0
56668,-100,4,2,1,64,0,0
57335,-100,4,2,1,70,0,0
57918,-133.333333333333,4,2,1,5,0,0
58001,-100,4,2,1,75,0,0
58668,-100,4,2,1,85,0,1
69001,-100,4,2,1,85,0,1
69335,-100,4,2,1,65,0,0
70668,-100,4,2,1,80,0,0
71168,-100,4,2,1,80,0,0
71335,-100,4,2,1,65,0,0
72001,-100,4,2,1,85,0,1
74668,-100,4,2,1,85,0,1
77335,-100,4,2,1,85,0,1
78668,-100,4,2,1,65,0,1
79668,-100,4,2,1,65,0,1
80001,-100,4,2,1,55,0,0
85001,-100,4,2,1,65,0,0
85335,-100,4,2,1,55,0,0
89335,-100,4,2,1,60,0,0
89668,-100,4,2,1,60,0,0
90001,-100,4,2,1,60,0,0
90251,-100,4,2,1,5,0,0
90335,-55.5555555555556,4,2,1,60,0,0
90584,-55.5555555555556,4,2,1,5,0,0
90668,-83.3333333333333,4,2,1,80,0,1
95335,-90.9090909090909,4,2,1,80,0,1
95668,-76.9230769230769,4,2,1,80,0,1
96001,-83.3333333333333,4,2,1,80,0,1
98668,-100,4,2,1,70,0,0
100001,-100,4,2,1,80,0,1
101335,-100,4,2,1,85,0,0
102001,-100,4,2,1,90,0,0
102335,-100,4,2,1,80,0,0
102668,-100,4,2,1,70,0,0
103001,-100,4,2,1,60,0,0
103335,-100,4,2,1,50,0,0
103668,-100,4,2,1,40,0,0
104001,-100,4,2,1,30,0,0
104335,-100,4,2,1,20,0,0
104668,-100,4,2,1,10,0,0
105001,-100,4,2,1,5,0,0

[Colours]
Combo1 : 255,155,255
Combo2 : 158,42,207
Combo3 : 186,116,224
Combo4 : 255,60,255

[HitObjects]
400,124,2,6,0,L|408:80,1,44,2|0,1:2|0:0,0:0:0:0:
460,188,168,1,2,0:0:0:0:
432,208,251,1,2,0:0:0:0:
396,216,335,1,2,0:0:0:0:
360,208,418,1,2,0:0:0:0:
332,184,501,2,0,L|288:191,1,44,2|2,0:0|0:0,0:0:0:0:
148,104,668,5,8,0:0:0:0:
156,68,751,1,8,0:0:0:0:
164,32,835,1,8,0:0:0:0:
24,240,1001,5,0,1:0:0:0:
12,272,1084,1,0,1:0:0:0:
16,308,1168,1,0,1:0:0:0:
32,340,1251,1,0,1:0:0:0:
64,352,1335,6,0,L|107:344,1,44,2|0,1:2|1:0,0:0:0:0:
288,276,1501,1,2,1:2:0:0:
288,276,1668,6,0,L|244:268,1,44,2|0,0:0|1:0,0:0:0:0:
88,172,1834,1,8,0:0:0:0:
88,172,2001,6,0,L|96:216,1,44,2|0,1:2|1:0,0:0:0:0:
204,376,2168,1,2,1:2:0:0:
288,191,2335,5,8,0:0:0:0:
320,199,2418,1,0,1:0:0:0:
352,207,2501,1,0,1:0:0:0:
384,215,2585,1,0,1:0:0:0:
416,223,2668,1,2,1:2:0:0:
451,72,2835,6,0,L|407:80,1,44,2|0,1:2|0:0,0:0:0:0:
320,96,3001,1,8,0:0:0:0:
320,96,3085,1,8,0:0:0:0:
320,96,3168,1,8,0:0:0:0:
244,268,3335,5,2,1:2:0:0:
124,36,3501,6,0,L|113:78,1,44,2|0,1:2|0:0,0:0:0:0:
88,172,3668,1,0,1:0:0:0:
88,172,3751,1,0,1:0:0:0:
88,172,3835,1,0,1:0:0:0:
107,344,4001,5,0,1:0:0:0:
204,204,4168,1,2,0:0:0:0:
224,192,4251,1,2,0:0:0:0:
248,192,4335,5,8,0:0:0:0:
292,204,4418,1,8,0:0:0:0:
320,240,4501,1,8,0:0:0:0:
352,272,4585,1,0,0:0:0:0:
396,280,4668,1,8,0:3:0:0:
436,272,4751,1,8,0:3:0:0:
464,248,4835,1,8,0:3:0:0:
464,204,4918,1,8,0:3:0:0:
436,172,5001,6,0,L|393:181,1,44,0|0,1:0|1:0,0:0:0:0:
468,96,5168,2,0,L|509:105,1,44,0|0,1:0|1:0,0:0:0:0:
412,36,5335,6,0,B|348:52|348:52|316:32|316:32|243:43,1,176,0|8,1:0|0:0,0:0:0:0:
296,116,5835,1,0,1:0:0:0:
168,0,6001,2,0,L|137:173,1,176,0|8,1:0|0:0,0:0:0:0:
136,173,6501,1,8,0:0:0:0:
244,268,6668,6,0,B|182:278|182:278|155:312|155:312|86:327,1,176,0|8,1:0|0:0,0:0:0:0:
20,284,7168,1,0,1:0:0:0:
136,173,7335,2,0,L|48:160,1,88,0|8,1:0|0:0,0:0:0:0:
100,36,7668,6,0,L|104:80,1,44,0|0,1:0|0:0,0:0:0:0:
224,184,7835,2,0,L|220:140,1,44,0|0,1:0|0:0,0:0:0:0:
352,24,8001,1,0,1:0:0:0:
352,24,8168,2,0,L|348:68,1,44,0|0,1:0|1:0,0:0:0:0:
416,132,8335,1,2,1:2:0:0:
444,124,8418,1,2,1:2:0:0:
472,116,8501,1,2,1:2:0:0:
340,208,8668,5,2,0:0:0:0:
500,256,8835,1,8,0:0:0:0:
304,336,9001,1,0,1:0:0:0:
464,384,9168,1,0,1:0:0:0:
304,336,9335,6,0,L|261:347,1,44,0|0,1:0|0:0,0:0:0:0:
168,372,9501,1,0,1:0:0:0:
168,372,9585,1,0,0:0:0:0:
168,372,9668,1,0,1:0:0:0:
88,152,9835,1,0,1:0:0:0:
0,256,10001,5,0,1:0:0:0:
20,284,10085,1,0,1:0:0:0:
52,296,10168,1,0,1:0:0:0:
88,292,10251,1,0,1:0:0:0:
120,276,10335,2,0,L|124:254,6,22,2|2|2|2|0|0|0,0:0|0:0|0:0|0:0|0:0|0:0|0:0,0:0:0:0:
128,232,10668,5,4,1:0:0:0:
219,39,10835,1,2,0:0:0:0:
267,27,10918,1,2,0:0:0:0:
315,39,11001,1,8,0:0:0:0:
351,71,11085,1,2,0:0:0:0:
367,119,11168,1,2,0:0:0:0:
355,167,11251,1,2,0:0:0:0:
319,199,11335,6,0,L|271:191,1,48.4000014770508,0|0,1:0|0:0,0:0:0:0:
120,276,11501,2,0,L|168:284,1,48.4000014770508,2|0,0:0|0:0,0:0:0:0:
304,336,11668,1,8,0:0:0:0:
312,312,11751,1,2,0:0:0:0:
320,288,11835,1,2,0:0:0:0:
367,119,12001,5,0,1:0:0:0:
416,128,12085,1,2,0:0:0:0:
460,100,12168,1,2,0:0:0:0:
204,24,12335,5,8,0:0:0:0:
212,72,12418,1,2,0:0:0:0:
220,120,12501,1,2,0:0:0:0:
64,336,12668,5,0,1:0:0:0:
36,292,12751,1,2,0:0:0:0:
45,243,12835,1,2,0:0:0:0:
45,243,13001,6,0,L|92:253,1,48.4000014770508,8|0,0:0|1:0,0:0:0:0:
220,120,13168,2,0,L|172:109,1,48.4000014770508,0|0,1:0|1:0,0:0:0:0:
192,288,13335,5,0,1:0:0:0:
344,120,13501,1,2,0:0:0:0:
352,164,13585,1,2,0:0:0:0:
360,208,13668,1,8,0:0:0:0:
472,72,13835,1,2,0:0:0:0:
251,34,14001,6,0,L|203:23,1,48.4000014770508,0|0,1:0|0:0,0:0:0:0:
304,174,14168,2,0,L|352:163,1,48.4000014770508,2|0,0:0|0:0,0:0:0:0:
280,316,14335,5,8,0:0:0:0:
232,328,14418,1,2,0:0:0:0:
192,300,14501,1,2,0:0:0:0:
116,112,14668,5,0,1:0:0:0:
28,244,14835,1,2,0:0:0:0:
28,244,14918,1,2,0:0:0:0:
28,244,15001,2,0,L|35:291,1,48.4000014770508,8|2,0:0|0:0,0:0:0:0:
156,232,15168,2,0,L|163:184,1,48.4000014770508,2|2,0:0|0:0,0:0:0:0:
64,44,15335,5,0,1:0:0:0:
100,24,15418,1,2,0:0:0:0:
148,24,15501,1,2,0:0:0:0:
180,48,15585,1,2,0:0:0:0:
208,92,15668,2,0,L|257:82,1,48.4000014770508,8|2,0:0|0:0,0:0:0:0:
352,164,15835,2,0,L|401:174,1,48.4000014770508,0|2,1:0|0:0,0:0:0:0:
408,72,16001,5,0,1:0:0:0:
440,260,16168,1,2,0:0:0:0:
264,184,16335,1,8,0:0:0:0:
488,136,16501,1,2,0:0:0:0:
320,296,16668,5,0,1:0:0:0:
408,72,16835,1,2,0:0:0:0:
440,260,17001,1,8,0:0:0:0:
264,184,17168,1,2,0:0:0:0:
156,352,17335,5,0,1:0:0:0:
364,188,17501,1,2,0:0:0:0:
152,128,17668,1,8,0:0:0:0:
320,296,17835,1,2,0:0:0:0:
76,340,18001,5,0,1:0:0:0:
264,184,18168,1,2,0:0:0:0:
56,144,18335,2,0,L|62:191,1,48.4000014770508,8|0,0:0|0:0,0:0:0:0:
236,368,18501,2,0,L|242:320,1,48.4000014770508,2|0,0:0|0:0,0:0:0:0:
152,128,18668,5,0,1:0:0:0:
152,128,18835,2,0,L|158:175,1,48.4000014770508,2|2,0:0|0:0,0:0:0:0:
320,296,19001,1,8,0:0:0:0:
325,267,19085,1,0,0:0:0:0:
331,238,19168,1,2,0:0:0:0:
288,104,19335,5,0,1:0:0:0:
460,60,19501,1,2,0:0:0:0:
392,172,19668,1,8,0:0:0:0:
352,8,19835,1,2,0:0:0:0:
488,220,20001,6,0,L|470:315,1,96.8000029541017,0|2,1:0|0:0,0:0:0:0:
470,315,20251,1,2,0:0:0:0:
470,315,20335,2,0,L|422:322,1,48.4000014770508,0|0,1:0|0:0,0:0:0:0:
324,266,20501,2,0,L|277:274,1,48.4000014770508,2|0,0:0|0:0,0:0:0:0:
156,364,20668,5,0,1:0:0:0:
120,348,20751,1,0,1:0:0:0:
100,312,20835,1,0,1:0:0:0:
104,272,20918,1,0,1:0:0:0:
132,244,21001,2,0,L|155:237,6,24.2000007385254,2|2|2|2|0|0|0,0:0|0:0|0:0|0:0|0:0|0:0|0:0,0:0:0:0:
248,292,21335,5,4,1:0:0:0:
272,296,21418,1,0,0:0:0:0:
296,288,21501,1,0,0:0:0:0:
324,266,21585,1,0,0:0:0:0:
336,232,21668,1,8,0:0:0:0:
328,192,21751,1,0,0:0:0:0:
296,164,21835,1,0,0:0:0:0:
256,156,21918,1,0,0:0:0:0:
208,168,22001,5,2,1:2:0:0:
168,152,22085,1,0,0:0:0:0:
128,136,22168,2,0,L|137:93,1,44
60,36,22335,5,8,0:0:0:0:
104,224,22501,1,0,0:0:0:0:
236,68,22668,6,0,B|304:60|304:60|340:80|340:80|405:69,1,176,0|8,1:0|0:0,0:0:0:0:
406,69,23085,1,0,0:0:0:0:
406,69,23168,2,0,L|415:25,1,44
472,152,23335,2,0,L|454:240,1,88,2|0,1:2|0:0,0:0:0:0:
444,272,23585,1,0,0:0:0:0:
444,272,23668,1,8,0:0:0:0:
376,168,23835,1,0,1:0:0:0:
340,360,24001,5,0,1:0:0:0:
320,368,24085,1,0,0:0:0:0:
288,372,24168,1,0,0:0:0:0:
256,364,24251,1,0,0:0:0:0:
228,340,24335,1,8,0:0:0:0:
216,304,24418,1,0,0:0:0:0:
192,272,24501,1,0,0:0:0:0:
148,264,24585,1,0,0:0:0:0:
100,280,24668,5,2,1:2:0:0:
92,320,24751,1,0,0:0:0:0:
84,360,24835,1,0,0:0:0:0:
84,360,25001,6,0,L|40:368,1,44,8|0,0:0|0:0,0:0:0:0:
20,216,25168,2,0,L|64:208,1,44
228,60,25335,6,0,B|176:84|176:84|112:84|74:32,1,176,0|8,1:0|0:0,0:0:0:0:
74,32,25751,1,0,0:0:0:0:
74,32,25835,2,0,L|66:76,1,44
148,264,26001,2,0,L|164:176,1,88,2|0,1:2|0:0,0:0:0:0:
168,144,26251,1,0,0:0:0:0:
168,144,26335,1,8,0:0:0:0:
272,240,26501,2,0,L|316:232,1,44,0|0,1:0|0:0,0:0:0:0:
472,288,26668,5,0,1:0:0:0:
488,276,26751,1,0,0:0:0:0:
504,244,26835,1,0,0:0:0:0:
508,208,26918,1,0,0:0:0:0:
492,168,27001,1,8,0:0:0:0:
452,144,27085,1,0,0:0:0:0:
416,120,27168,1,0,0:0:0:0:
400,76,27251,1,0,0:0:0:0:
412,24,27335,5,2,1:2:0:0:
460,12,27418,1,0,0:0:0:0:
508,0,27501,2,0,L|498:43,1,44
308,96,27668,5,8,0:0:0:0:
432,220,27835,1,0,0:0:0:0:
432,220,28001,6,0,B|368:208|368:208|328:228|328:228|263:212,1,176,0|8,1:0|0:0,0:0:0:0:
263,212,28418,1,0,0:0:0:0:
263,212,28501,1,0,0:0:0:0:
116,28,28668,6,0,L|101:114,1,88,2|0,1:2|0:0,0:0:0:0:
101,114,28918,1,0,0:0:0:0:
101,114,29001,2,0,L|145:108,1,44,8|0,0:0|0:0,0:0:0:0:
256,32,29168,2,0,L|212:38,1,44,0|0,1:0|0:0,0:0:0:0:
32,180,29335,5,0,1:0:0:0:
12,212,29418,1,0,0:0:0:0:
4,248,29501,1,0,0:0:0:0:
8,284,29585,1,0,0:0:0:0:
32,312,29668,1,8,0:0:0:0:
60,332,29751,1,0,0:0:0:0:
96,336,29835,1,0,0:0:0:0:
132,328,29918,1,0,0:0:0:0:
168,296,30001,5,2,1:2:0:0:
200,248,30085,1,0,0:0:0:0:
248,228,30168,1,0,0:0:0:0:
300,240,30251,1,0,0:0:0:0:
324,264,30335,6,0,L|313:306,1,44,8|0,0:0|0:0,0:0:0:0:
224,384,30501,2,0,L|234:341,1,44
88,248,30668,5,0,1:0:0:0:
24,160,31001,5,2,0:0:0:0:
20,184,31085,1,2,0:0:0:0:
16,208,31168,1,2,0:0:0:0:
88,248,31335,5,2,0:0:0:0:
168,216,31501,5,2,0:0:0:0:
192,135,31668,6,0,L|184:84,1,52.7999983886719,2|0,0:0|0:0,0:0:0:0:
336,28,32001,5,4,1:0:0:0:
372,12,32085,1,0,0:0:0:0:
412,16,32168,1,0,0:0:0:0:
444,40,32251,1,0,0:0:0:0:
464,76,32335,1,8,0:0:0:0:
460,116,32418,1,0,0:0:0:0:
436,148,32501,1,0,0:0:0:0:
400,160,32585,1,0,0:0:0:0:
360,152,32668,1,2,1:2:0:0:
320,160,32751,1,0,0:0:0:0:
292,188,32835,1,0,0:0:0:0:
292,228,32918,1,0,0:0:0:0:
304,252,33001,2,0,L|352:244,1,44,8|0,0:0|0:0,0:0:0:0:
444,312,33168,2,0,L|400:319,1,44
304,376,33335,5,0,1:0:0:0:
276,384,33418,1,0,0:0:0:0:
240,376,33501,1,0,0:0:0:0:
208,348,33585,1,0,0:0:0:0:
188,308,33668,1,8,0:0:0:0:
156,280,33751,1,0,0:0:0:0:
104,272,33835,1,0,0:0:0:0:
48,292,33918,1,0,0:0:0:0:
25,348,34001,6,0,L|30:369,2,22,2|2|2,1:2|0:0|0:0,0:0:0:0:
104,272,34168,2,0,L|109:293,2,22,2|0|2,1:2|0:0|0:0,0:0:0:0:
68,177,34335,2,0,L|74:156,6,22,10|2|2|0|2|0|0,0:2|0:0|0:0|0:0|1:2|0:0|0:0,0:0:0:0:
0,132,34668,5,0,1:0:0:0:
8,112,34751,1,0,0:0:0:0:
28,92,34835,1,0,0:0:0:0:
72,76,34918,1,0,0:0:0:0:
112,88,35001,5,8,0:0:0:0:
140,124,35085,1,0,0:0:0:0:
188,140,35168,1,0,0:0:0:0:
240,132,35251,1,0,0:0:0:0:
276,112,35335,6,0,L|283:68,1,44,2|0,1:2|0:0,0:0:0:0:
208,8,35501,2,0,L|200:51,1,44
348,152,35668,5,8,0:0:0:0:
362,148,35751,1,0,0:0:0:0:
376,144,35835,1,0,0:0:0:0:
390,140,35918,1,0,0:0:0:0:
404,136,36002,5,0,1:0:0:0:
444,144,36085,1,0,0:0:0:0:
464,180,36168,1,0,0:0:0:0:
468,220,36251,1,0,0:0:0:0:
448,252,36335,1,8,0:0:0:0:
412,268,36418,1,0,0:0:0:0:
372,272,36501,1,0,0:0:0:0:
336,256,36585,1,0,0:0:0:0:
300,272,36668,6,0,L|296:293,2,22,2|2|2,1:2|0:0|0:0,0:0:0:0:
180,180,36835,2,0,L|183:158,2,22,2|2|2,1:2|0:0|0:0,0:0:0:0:
52,232,37001,2,0,L|55:253,6,22,10|2|2|0|0|0|0,0:0|0:0|0:0|0:0|1:0|0:0|0:0,0:0:0:0:
12,132,37335,5,0,1:0:0:0:
4,112,37418,1,0,0:0:0:0:
4,84,37501,1,0,0:0:0:0:
20,48,37585,1,0,0:0:0:0:
52,20,37668,1,8,0:0:0:0:
96,16,37751,1,0,0:0:0:0:
136,28,37835,1,0,0:0:0:0:
172,64,37918,1,0,0:0:0:0:
172,120,38001,5,2,1:2:0:0:
192,160,38085,1,0,0:0:0:0:
228,180,38168,1,0,0:0:0:0:
268,176,38251,1,0,0:0:0:0:
288,168,38335,6,0,L|296:124,1,44,8|0,0:0|0:0,0:0:0:0:
264,12,38501,2,0,L|255:55,1,44
392,168,38668,5,0,1:0:0:0:
424,180,38751,1,0,0:0:0:0:
460,168,38835,1,0,0:0:0:0:
476,140,38918,1,0,0:0:0:0:
456,108,39001,5,8,0:0:0:0:
448,152,39085,1,0,0:0:0:0:
436,200,39168,1,0,0:0:0:0:
428,240,39251,1,0,0:0:0:0:
412,292,39335,6,0,L|407:313,2,22,2|2|2,1:2|0:0|0:0,0:0:0:0:
287,189,39501,2,0,L|291:167,2,22,2|2|2,1:2|0:0|0:0,0:0:0:0:
184,288,39668,2,0,L|180:310,6,22,2|8|2|0|0|0|0,0:0|0:0|0:0|0:0|1:0|0:0|0:0,0:0:0:0:
100,372,40001,5,0,1:0:0:0:
64,376,40085,1,0,0:0:0:0:
32,348,40168,1,0,0:0:0:0:
20,308,40251,1,0,0:0:0:0:
40,264,40335,1,8,0:0:0:0:
80,248,40418,1,0,0:0:0:0:
132,220,40501,1,0,0:0:0:0:
152,168,40585,1,0,0:0:0:0:
140,104,40668,5,2,1:2:0:0:
92,72,40751,1,0,0:0:0:0:
36,80,40835,1,0,0:0:0:0:
0,124,40918,1,0,0:0:0:0:
8,164,41001,1,8,0:0:0:0:
24,180,41085,1,0,0:0:0:0:
56,180,41168,1,0,0:0:0:0:
71,165,41251,1,0,0:0:0:0:
76,152,41335,5,0,1:0:0:0:
216,60,41668,2,0,L|208:16,2,44,2|2|2,0:0|0:0|0:0,0:0:0:0:
228,144,42001,1,2,0:0:0:0:
244,220,42168,1,2,0:0:0:0:
256,296,42335,2,0,B|280:328|320:328|320:328|336:308|372:308,1,132,2|0,0:0|0:0,0:0:0:0:
396,320,42668,5,0,1:0:0:0:
484,208,42835,1,2,0:0:0:0:
484,208,42918,1,2,0:0:0:0:
484,208,43001,2,0,B|464:220|464:220|416:220,1,70.4,0|2,1:0|0:0,0:0:0:0:
356,140,43335,1,0,1:0:0:0:
376,48,43501,2,0,L|378:30,2,17.6,2|2|2,0:0|0:0|0:0,0:0:0:0:
292,76,43668,5,0,1:0:0:0:
266,72,43751,1,0,0:0:0:0:
241,77,43835,1,2,0:0:0:0:
221,89,43918,1,0,0:0:0:0:
204,108,44001,5,0,1:0:0:0:
92,76,44168,1,2,0:0:0:0:
92,76,44251,1,2,0:0:0:0:
92,76,44335,2,0,L|102:6,1,70.4,0|2,1:0|0:0,0:0:0:0:
20,204,44668,2,0,L|9:273,1,70.4,0|2,1:0|0:0,0:0:0:0:
9,273,44918,1,2,0:0:0:0:
9,273,45001,2,0,P|41:259|76:259,1,70.4,0|2,1:0|0:0,0:0:0:0:
228,376,45335,5,0,1:0:0:0:
253,357,45418,1,2,0:0:0:0:
267,329,45501,1,2,0:0:0:0:
269,298,45585,1,2,0:0:0:0:
256,272,45668,2,0,L|186:282,1,70.4,0|2,1:0|0:0,0:0:0:0:
172,192,46001,2,0,L|241:181,1,70.4,0|2,1:0|0:0,0:0:0:0:
384,312,46335,6,0,P|412:269|405:217,1,105.6,0|0,1:0|0:0,0:0:0:0:
395,204,46668,5,0,1:0:0:0:
241,181,46835,1,2,2:0:0:0:
340,68,47001,1,0,1:0:0:0:
328,148,47168,1,2,2:0:0:0:
252,344,47335,5,0,1:0:0:0:
236,320,47418,1,2,0:0:0:0:
208,300,47501,1,2,0:0:0:0:
172,296,47585,1,2,0:0:0:0:
132,320,47668,5,0,1:0:0:0:
124,348,47751,1,2,1:2:0:0:
116,376,47835,1,2,1:2:0:0:
12,168,48001,5,0,1:0:0:0:
120,220,48168,1,2,0:0:0:0:
120,220,48251,1,2,0:0:0:0:
120,220,48335,2,0,B|96:244|96:244|41:244,1,88,8|2,0:0|0:0,0:0:0:0:
104,32,48668,6,0,L|112:76,1,44,0|0,1:0|0:0,0:0:0:0:
184,140,48835,2,0,L|188:162,2,22,2|2|2,0:0|0:0|0:0,0:0:0:0:
252,56,49001,5,8,0:0:0:0:
280,59,49085,1,2,0:0:0:0:
306,63,49168,1,2,0:0:0:0:
333,67,49251,1,2,0:0:0:0:
361,71,49335,1,0,1:0:0:0:
452,172,49501,5,2,0:0:0:0:
452,172,49585,1,2,0:0:0:0:
452,172,49668,2,0,B|468:148|468:148|456:88,1,88,8|2,0:0|0:0,0:0:0:0:
344,192,50001,5,0,1:0:0:0:
508,256,50168,1,2,0:0:0:0:
508,256,50251,1,2,0:0:0:0:
508,256,50335,1,8,0:0:0:0:
376,340,50501,1,2,0:0:0:0:
344,192,50668,5,0,1:0:0:0:
347,164,50752,1,2,0:0:0:0:
351,138,50835,1,2,0:0:0:0:
355,111,50918,1,2,0:0:0:0:
359,83,51001,6,0,B|312:83|312:83|278:107,1,88,8|2,0:0|0:0,0:0:0:0:
104,32,51335,2,0,B|151:32|151:32|185:56,1,88,0|2,1:0|0:0,0:0:0:0:
124,220,51668,2,0,L|112:132,1,88,8|2,0:0|0:0,0:0:0:0:
24,300,52001,5,0,1:0:0:0:
28,312,52168,5,0,0:0:0:0:
32,328,52335,5,0,0:0:0:0:
36,340,52501,5,0,0:0:0:0:
128,380,52668,6,0,L|132:358,6,22
149,280,53001,6,0,B|192:288|209:327|209:327|272:356|316:305,1,198.000007553101,2|0,0:0|0:0,0:0:0:0:
404,216,53335,5,8,1:2:0:0:
405,205,53418,1,0,0:0:0:0:
407,194,53501,1,2,0:0:0:0:
408,183,53585,1,0,0:0:0:0:
410,172,53668,1,8,1:2:0:0:
412,161,53751,1,0,0:0:0:0:
413,150,53835,1,2,0:0:0:0:
415,139,53918,1,0,0:0:0:0:
416,128,54001,5,8,1:2:0:0:
392,136,54085,1,0,0:0:0:0:
360,136,54168,1,2,0:0:0:0:
332,124,54251,1,0,0:0:0:0:
308,96,54335,1,8,1:2:0:0:
280,68,54418,1,0,0:0:0:0:
240,56,54501,1,2,0:0:0:0:
200,60,54585,1,0,0:0:0:0:
164,88,54668,5,8,1:2:0:0:
144,132,54751,1,0,0:0:0:0:
148,184,54835,1,2,0:0:0:0:
176,220,54918,1,0,0:0:0:0:
224,236,55001,1,8,1:2:0:0:
268,220,55085,1,0,0:0:0:0:
320,224,55168,1,2,0:0:0:0:
356,256,55251,1,0,0:0:0:0:
368,308,55335,5,8,1:2:0:0:
404,280,55418,1,0,0:0:0:0:
452,280,55501,1,2,0:0:0:0:
496,300,55585,1,0,0:0:0:0:
512,340,55668,2,0,L|505:383,1,44,8|0,1:2|0:0,0:0:0:0:
440,196,55835,2,0,L|446:152,1,44,0|0,1:2|0:0,0:0:0:0:
280,304,56001,5,8,1:2:0:0:
248,340,56085,1,0,0:0:0:0:
204,360,56168,1,8,1:2:0:0:
156,364,56251,1,0,0:0:0:0:
108,352,56335,1,8,1:2:0:0:
68,324,56418,1,0,0:0:0:0:
48,280,56501,1,8,1:2:0:0:
48,232,56585,1,0,0:0:0:0:
64,188,56668,5,8,1:2:0:0:
104,156,56751,1,0,0:0:0:0:
124,104,56835,1,8,1:2:0:0:
104,56,56918,1,0,0:0:0:0:
56,44,57001,5,8,1:2:0:0:
84,72,57085,1,0,0:0:0:0:
128,88,57168,1,8,1:2:0:0:
180,76,57251,1,0,0:0:0:0:
220,40,57335,6,0,B|240:0|288:4|288:4|332:56|288:96|288:96|236:136|253:203,1,308,2|2,1:0|0:0,0:0:0:0:
336,168,58001,2,0,L|380:176,2,44,8|8|8,0:2|0:2|0:2,0:0:0:0:
496,300,58335,1,8,0:0:0:0:
475,325,58418,1,8,0:0:0:0:
446,340,58501,1,8,0:0:0:0:
413,341,58585,1,8,0:0:0:0:
383,327,58668,5,4,1:0:0:0:
252,202,58835,1,2,0:0:0:0:
208,212,58918,1,2,0:0:0:0:
164,222,59001,1,8,0:0:0:0:
120,232,59085,1,2,0:0:0:0:
76,242,59168,1,2,0:0:0:0:
0,68,59335,5,0,1:0:0:0:
200,116,59501,1,2,0:0:0:0:
76,242,59668,1,8,0:0:0:0:
68,210,59751,1,2,0:0:0:0:
60,178,59835,1,2,0:0:0:0:
252,18,60001,5,0,1:0:0:0:
292,40,60085,1,2,0:0:0:0:
336,28,60168,1,2,0:0:0:0:
468,152,60335,5,8,0:0:0:0:
428,132,60418,1,2,0:0:0:0:
384,144,60501,1,2,0:0:0:0:
252,202,60668,6,0,L|263:244,1,44,0|2,1:0|0:0,0:0:0:0:
420,384,60835,1,2,0:0:0:0:
420,384,61001,1,8,0:0:0:0:
399,345,61084,1,0,1:0:0:0:
363,320,61167,1,0,1:0:0:0:
320,315,61251,1,0,1:0:0:0:
279,330,61334,5,0,1:0:0:0:
168,176,61501,1,2,0:0:0:0:
168,176,61585,1,2,0:0:0:0:
168,176,61668,2,0,L|252:199,1,88,8|2,0:0|0:0,0:0:0:0:
396,52,62001,5,0,1:0:0:0:
232,96,62168,1,2,0:0:0:0:
352,212,62335,1,8,0:0:0:0:
360,180,62418,1,2,0:0:0:0:
368,148,62501,1,2,0:0:0:0:
212,8,62668,5,0,1:0:0:0:
16,136,62835,1,2,0:0:0:0:
0,176,62918,1,2,0:0:0:0:
0,220,63001,1,8,0:0:0:0:
20,260,63085,1,2,0:0:0:0:
56,284,63168,1,2,0:0:0:0:
100,292,63251,1,2,0:0:0:0:
140,276,63335,5,0,1:0:0:0:
184,276,63418,1,2,0:0:0:0:
220,300,63501,1,2,0:0:0:0:
236,340,63585,1,2,0:0:0:0:
224,380,63668,2,0,L|202:383,6,22,8|2|0|2|0|2|0,0:0|0:0|1:0|0:0|1:0|0:0|1:0,0:0:0:0:
324,360,64001,5,0,1:0:0:0:
140,276,64168,1,2,0:0:0:0:
380,184,64335,1,8,0:0:0:0:
196,100,64502,1,2,0:0:0:0:
296,264,64668,5,0,1:0:0:0:
376,56,64835,1,2,0:0:0:0:
84,208,65001,1,8,0:0:0:0:
164,0,65168,1,2,0:0:0:0:
172,272,65335,5,0,1:0:0:0:
112,108,65501,1,2,0:0:0:0:
344,228,65668,1,8,0:0:0:0:
284,64,65834,1,2,0:0:0:0:
264,292,66001,5,0,1:0:0:0:
468,232,66168,1,2,0:0:0:0:
208,128,66335,6,0,L|214:171,1,44,8|0,0:0|0:0,0:0:0:0:
328,384,66501,2,0,L|334:340,1,44,2|0,0:0|0:0,0:0:0:0:
432,144,66668,5,0,1:0:0:0:
468,336,66835,1,2,0:0:0:0:
468,336,66918,1,2,0:0:0:0:
468,336,67001,2,0,L|425:324,1,44,8|0,0:0|0:0,0:0:0:0:
328,384,67168,1,2,0:0:0:0:
214,171,67335,5,0,1:0:0:0:
468,232,67501,1,2,0:0:0:0:
392,24,67668,1,8,0:0:0:0:
340,248,67835,1,2,0:0:0:0:
192,88,68001,5,0,1:0:0:0:
192,88,68168,6,0,L|234:78,1,44,2|2,0:0|0:0,0:0:0:0:
300,152,68335,2,0,L|214:171,1,88,0|2,1:0|0:0,0:0:0:0:
24,288,68668,5,0,1:0:0:0:
41,339,68751,1,0,1:0:0:0:
84,372,68834,1,0,1:0:0:0:
138,374,68917,1,0,1:0:0:0:
184,345,69001,6,0,L|188:324,6,22,2|2|2|2|0|0|0,0:0|0:0|0:0|0:0|0:0|0:0|0:0,0:0:0:0:
192,300,69335,5,4,1:0:0:0:
214,136,69501,1,2,0:0:0:0:
228,138,69584,1,2,0:0:0:0:
242,141,69667,1,2,0:0:0:0:
257,144,69750,1,2,0:0:0:0:
271,147,69834,1,2,0:0:0:0:
286,149,69917,1,2,0:0:0:0:
300,152,70000,5,8,0:0:0:0:
316,116,70085,1,8,0:0:0:0:
304,76,70168,1,8,0:0:0:0:
372,260,70335,5,8,0:0:0:0:
356,296,70418,1,8,0:0:0:0:
364,336,70501,1,8,0:0:0:0:
396,360,70585,1,0,0:0:0:0:
444,356,70668,6,0,L|451:312,1,44,0|2,1:0|0:0,0:0:0:0:
300,152,70835,1,2,0:0:0:0:
300,152,71001,6,0,L|307:195,1,44,2|2,0:0|0:0,0:0:0:0:
484,124,71168,1,8,0:0:0:0:
484,124,71335,6,0,L|440:116,1,44,0|2,1:0|0:0,0:0:0:0:
348,4,71501,1,2,0:0:0:0:
172,228,71668,5,8,0:0:0:0:
193,191,71751,1,0,1:0:0:0:
230,169,71834,1,0,1:0:0:0:
274,170,71917,1,0,1:0:0:0:
310,194,72001,5,0,1:0:0:0:
204,324,72168,1,2,0:0:0:0:
204,324,72251,1,2,0:0:0:0:
204,324,72335,2,0,P|160:317|117:310,1,88,8|2,0:0|0:0,0:0:0:0:
40,200,72668,5,0,1:0:0:0:
252,248,72835,1,2,0:0:0:0:
192,60,73001,1,8,0:0:0:0:
184,92,73084,1,2,0:0:0:0:
176,124,73168,1,2,0:0:0:0:
252,248,73335,5,0,1:0:0:0:
296,32,73501,1,2,0:0:0:0:
336,12,73585,1,2,0:0:0:0:
380,8,73668,1,8,0:0:0:0:
420,28,73751,1,2,0:0:0:0:
444,64,73835,1,2,0:0:0:0:
452,108,73918,1,2,0:0:0:0:
436,148,74001,5,0,1:0:0:0:
392,156,74085,1,2,0:0:0:0:
348,164,74168,1,2,0:0:0:0:
304,172,74251,1,2,0:0:0:0:
260,180,74335,2,0,L|238:184,6,22,8|2|0|2|0|2|0,0:0|0:0|1:0|0:0|1:0|0:0|1:0,0:0:0:0:
176,124,74668,5,0,1:0:0:0:
212,340,74835,1,2,0:0:0:0:
36,148,75001,1,8,0:0:0:0:
72,364,75168,1,2,0:0:0:0:
296,248,75335,5,0,1:0:0:0:
116,192,75501,1,2,0:0:0:0:
252,76,75668,1,8,0:0:0:0:
196,256,75834,1,2,0:0:0:0:
368,196,76001,5,0,1:0:0:0:
172,120,76168,1,2,0:0:0:0:
304,360,76335,1,8,0:0:0:0:
108,284,76502,1,2,0:0:0:0:
260,172,76668,5,0,1:0:0:0:
200,368,76835,1,2,0:0:0:0:
36,148,77001,6,0,L|78:138,1,44,8|0,0:0|0:0,0:0:0:0:
196,256,77168,2,0,L|238:265,1,44,2|0,0:0|0:0,0:0:0:0:
328,120,77335,5,0,1:0:0:0:
512,252,77501,1,2,0:0:0:0:
512,252,77585,1,2,0:0:0:0:
512,252,77668,2,0,L|468:244,1,44,8|0,0:0|0:0,0:0:0:0:
384,292,77835,2,0,L|340:300,1,44,2|0,0:0|0:0,0:0:0:0:
240,180,78001,5,0,1:0:0:0:
472,124,78168,1,2,0:0:0:0:
328,0,78335,1,8,0:0:0:0:
384,292,78501,1,2,0:0:0:0:
168,84,78668,5,0,1:0:0:0:
168,84,78835,6,0,L|124:76,1,44,2|2,0:0|0:0,0:0:0:0:
84,152,79001,2,0,L|170:166,1,88,0|2,1:0|0:0,0:0:0:0:
316,332,79335,5,0,1:0:0:0:
297,359,79418,1,0,1:0:0:0:
269,376,79501,1,0,1:0:0:0:
237,380,79584,1,0,1:0:0:0:
206,370,79668,2,0,L|209:348,6,22,2|2|2|2|0|0|0,0:0|0:0|0:0|0:0|0:0|0:0|0:0,0:0:0:0:
152,292,80001,5,4,1:0:0:0:
131,296,80085,1,0,0:0:0:0:
111,300,80168,1,2,0:0:0:0:
64,168,80335,2,0,L|20:160,2,44,0|0|2,1:0|0:0|0:0,0:0:0:0:
160,43,80668,5,0,1:0:0:0:
164,64,80752,1,0,0:0:0:0:
168,84,80835,1,2,0:0:0:0:
252,221,81001,5,0,1:0:0:0:
256,200,81085,1,0,0:0:0:0:
260,180,81168,1,2,0:0:0:0:
357,324,81335,5,0,1:0:0:0:
336,328,81419,1,0,0:0:0:0:
316,332,81502,1,2,0:0:0:0:
468,244,81668,2,0,L|511:251,2,44,0|0|2,1:0|0:0|0:0,0:0:0:0:
301,172,82001,5,0,1:0:0:0:
280,176,82085,1,0,0:0:0:0:
260,180,82168,1,2,0:0:0:0:
408,64,82335,2,0,L|451:71,1,44,0|0,1:0|0:0,0:0:0:0:
488,160,82501,2,0,L|444:152,1,44,0|0,1:2|0:0,0:0:0:0:
308,24,82668,5,0,1:0:0:0:
304,45,82752,1,0,0:0:0:0:
300,65,82835,1,2,0:0:0:0:
152,124,83001,5,0,1:0:0:0:
156,145,83085,1,0,0:0:0:0:
160,165,83168,1,2,0:0:0:0:
332,248,83335,5,0,1:0:0:0:
328,269,83419,1,0,0:0:0:0:
324,289,83502,1,2,0:0:0:0:
224,376,83668,5,0,1:0:0:0:
220,356,83751,1,0,0:0:0:0:
216,335,83835,1,2,0:0:0:0:
0,316,84001,6,0,P|38:296|81:296,1,88,0|2,1:0|0:0,0:0:0:0:
82,296,84251,1,0,0:0:0:0:
82,296,84335,2,0,L|90:252,2,44,0|0|2,1:0|0:0|0:0,0:0:0:0:
8,168,84668,2,0,L|16:124,2,44,0|0|2,1:0|0:0|0:0,0:0:0:0:
108,28,85001,5,0,1:0:0:0:
148,12,85085,1,0,1:0:0:0:
192,20,85168,1,0,1:0:0:0:
224,48,85251,1,0,0:0:0:0:
228,92,85335,5,0,1:0:0:0:
224,113,85419,1,0,0:0:0:0:
220,133,85502,1,2,0:0:0:0:
82,209,85668,2,0,L|90:253,2,44,0|0|2,1:0|0:0|0:0,0:0:0:0:
224,376,86001,5,0,1:0:0:0:
228,355,86085,1,0,0:0:0:0:
232,335,86168,1,2,0:0:0:0:
82,209,86335,5,0,1:0:0:0:
86,229,86418,1,0,0:0:0:0:
90,250,86502,1,2,0:0:0:0:
191,343,86668,5,0,1:0:0:0:
212,339,86752,1,0,0:0:0:0:
232,335,86835,1,2,0:0:0:0:
288,240,87001,2,0,L|332:248,2,44,0|0|2,1:0|0:0|0:0,0:0:0:0:
220,133,87335,5,0,1:0:0:0:
199,129,87419,1,0,0:0:0:0:
179,125,87502,1,2,0:0:0:0:
123,30,87668,2,0,L|79:38,1,44,0|0,1:0|0:0,0:0:0:0:
38,201,87835,2,0,L|82:209,1,44,0|0,1:0|0:0,0:0:0:0:
220,133,88001,6,0,L|228:89,2,44,0|0|2,1:0|0:0|0:0,0:0:0:0:
288,240,88335,1,0,1:0:0:0:
284,261,88419,1,0,0:0:0:0:
280,281,88502,1,2,0:0:0:0:
412,144,88668,6,0,L|420:100,2,44,0|0|2,1:0|0:0|0:0,0:0:0:0:
480,251,89002,1,0,1:0:0:0:
476,272,89086,1,0,0:0:0:0:
472,292,89169,1,2,0:0:0:0:
468,313,89251,1,0,0:0:0:0:
464,333,89334,5,2,0:0:0:0:
436,312,89418,1,2,0:0:0:0:
400,308,89501,1,2,0:0:0:0:
368,320,89585,1,2,0:0:0:0:
344,344,89668,1,2,0:0:0:0:
320,368,89751,1,2,0:0:0:0:
288,380,89835,1,2,0:0:0:0:
252,376,89918,1,2,0:0:0:0:
224,355,90001,6,0,B|175:355|175:355|156:372|156:372|98:372,1,132,0|0,1:0|0:0,0:0:0:0:
64,360,90335,6,0,B|148:360|148:360|188:276|188:276|152:227,1,237.599992749024,8|0,0:0|0:0,0:0:0:0:
72,272,90668,5,6,1:0:0:0:
56,224,90751,1,2,0:2:0:0:
64,172,90835,1,2,0:2:0:0:
100,132,90918,1,2,0:2:0:0:
148,112,91001,1,10,0:2:0:0:
200,124,91085,1,2,0:2:0:0:
236,164,91168,1,2,0:2:0:0:
284,180,91251,1,2,0:2:0:0:
336,172,91335,5,2,1:2:0:0:
376,136,91418,1,2,0:2:0:0:
388,84,91501,1,2,0:2:0:0:
368,36,91585,1,2,0:2:0:0:
324,4,91668,1,10,0:2:0:0:
272,0,91751,1,2,0:2:0:0:
224,24,91835,1,2,0:2:0:0:
200,72,91918,1,2,0:2:0:0:
200,124,92001,5,2,1:2:0:0:
236,164,92085,1,2,0:2:0:0:
248,216,92168,1,2,0:2:0:0:
240,268,92251,1,2,0:2:0:0:
200,304,92335,1,10,0:2:0:0:
152,324,92418,1,2,0:2:0:0:
100,324,92501,1,2,0:2:0:0:
52,300,92585,1,2,0:2:0:0:
32,252,92668,2,0,L|44:200,3,52.7999983886719,2|2|2|2,1:2|0:2|0:2|0:2,0:0:0:0:
0,124,93001,6,0,L|52:112,1,52.7999983886719,10|2,0:2|0:2,0:0:0:0:
124,244,93168,2,0,L|176:256,1,52.7999983886719,2|2,1:2|0:2,0:0:0:0:
288,180,93335,5,2,1:2:0:0:
336,156,93418,1,2,0:2:0:0:
388,152,93501,1,2,0:2:0:0:
436,176,93585,1,2,0:2:0:0:
468,220,93668,1,10,0:2:0:0:
472,272,93751,1,2,0:2:0:0:
456,324,93835,1,2,0:2:0:0:
416,360,93918,1,2,0:2:0:0:
364,376,94001,5,2,1:2:0:0:
348,368,94085,1,2,0:2:0:0:
336,364,94168,2,0,L|326:312,1,52.7999983886719,2|2,0:2|0:2,0:0:0:0:
250,243,94335,5,10,0:2:0:0:
266,235,94419,1,2,0:2:0:0:
278,231,94502,2,0,L|288:179,1,52.7999983886719,2|2,0:2|0:2,0:0:0:0:
319,44,94668,5,2,1:2:0:0:
289,51,94751,1,2,0:2:0:0:
259,58,94835,1,2,0:2:0:0:
230,65,94918,1,2,0:2:0:0:
200,72,95001,2,0,L|210:20,1,52.7999983886719,10|2,0:2|0:2,0:0:0:0:
51,112,95168,2,0,L|61:164,1,52.7999983886719,2|2,0:2|0:2,0:0:0:0:
24,304,95335,5,2,1:2:0:0:
24,304,95418,1,2,0:2:0:0:
24,304,95501,2,0,L|71:313,1,48.4000014770508,2|2,0:2|0:2,0:0:0:0:
220,348,95668,5,10,1:2:0:0:
232,303,95751,1,2,1:2:0:0:
268,274,95835,1,2,1:2:0:0:
312,271,95918,1,2,1:2:0:0:
348,292,96001,5,6,1:0:0:0:
312,328,96085,1,2,0:2:0:0:
256,332,96168,1,2,0:2:0:0:
204,304,96251,1,2,0:2:0:0:
176,256,96335,1,10,0:2:0:0:
180,204,96418,1,2,0:2:0:0:
208,160,96501,1,2,0:2:0:0:
252,132,96585,1,2,0:2:0:0:
304,132,96668,5,2,1:2:0:0:
316,144,96751,1,2,0:2:0:0:
328,156,96835,2,0,L|380:140,1,52.7999983886719,2|2,0:2|0:2,0:0:0:0:
496,216,97001,5,10,0:2:0:0:
484,228,97084,1,2,0:2:0:0:
472,240,97168,2,0,L|420:224,1,52.7999983886719,2|2,0:2|0:2,0:0:0:0:
304,132,97335,5,2,1:2:0:0:
256,108,97418,1,2,0:2:0:0:
204,112,97501,1,2,0:2:0:0:
160,140,97585,1,2,0:2:0:0:
144,188,97668,1,10,0:2:0:0:
156,240,97751,1,2,0:2:0:0:
144,292,97835,1,2,0:2:0:0:
104,328,97918,1,2,0:2:0:0:
52,340,98001,5,2,1:2:0:0:
44,332,98085,1,2,0:2:0:0:
36,324,98168,2,0,L|46:272,1,52.7999983886719,2|2,0:2|0:2,0:0:0:0:
16,108,98335,5,10,0:2:0:0:
8,116,98419,1,2,0:2:0:0:
0,124,98502,2,0,L|10:175,1,52.7999983886719,2|2,1:2|0:2,0:0:0:0:
156,240,98668,6,0,L|199:231,7,44,2|2|2|2|10|2|2|2,1:2|0:2|0:2|0:2|0:2|0:2|0:2|0:2,0:0:0:0:
304,132,99335,2,0,L|347:140,7,44,2|2|2|2|10|2|2|2,1:2|0:2|0:2|0:2|0:2|0:2|0:2|0:2,0:0:0:0:
460,216,100001,5,2,1:2:0:0:
476,260,100085,1,2,0:2:0:0:
472,308,100168,1,2,0:2:0:0:
448,348,100251,1,2,0:2:0:0:
404,368,100335,1,2,1:2:0:0:
356,376,100418,1,2,0:2:0:0:
308,364,100501,1,2,0:2:0:0:
268,332,100585,1,2,0:2:0:0:
256,284,100668,1,2,1:2:0:0:
224,248,100751,1,2,0:2:0:0:
176,232,100835,1,2,0:2:0:0:
124,236,100918,1,2,0:2:0:0:
92,268,101001,5,10,1:2:0:0:
97,292,101085,1,2,1:2:0:0:
102,316,101168,1,2,1:2:0:0:
107,340,101252,1,2,1:2:0:0:
112,364,101335,5,2,1:0:0:0:
256,192,101418,12,0,105335,0:0:0:0:
