osu file format v14

[General]
AudioFilename: audio.mp3
AudioLeadIn: 0
PreviewTime: 57335
Countdown: 1
SampleSet: Soft
StackLeniency: 0.4
Mode: 0
LetterboxInBreaks: 0
WidescreenStoryboard: 1

[Editor]
Bookmarks: 10668,21335,30668,32001,42668,58668,69335,72001,80001,90001,90668,98668,100001,101418,105335
DistanceSpacing: 0.9
BeatDivisor: 4
GridSize: 32
TimelineZoom: 1.3

[Metadata]
Title:Doki-Doki
TitleUnicode:Doki-Doki
Artist:Thaehan
ArtistUnicode:Thaehan
Creator:FrenZ396
Version:Rhythmic Pulse
Source:osu!
Tags:shizuku- kazato asa loki power up featured artist fa instrumental electronic
BeatmapID:2467744
BeatmapSetID:713926

[Difficulty]
HPDrainRate:6
CircleSize:4
OverallDifficulty:9.2
ApproachRate:9.6
SliderMultiplier:2
SliderTickRate:1

[Events]
//Background and Video events
0,0,"monika2.png",0,0
//Break Periods
//Storyboard Layer 0 (Background)
//Storyboard Layer 1 (Fail)
//Storyboard Layer 2 (Pass)
//Storyboard Layer 3 (Foreground)
//Storyboard Layer 4 (Overlay)
//Storyboard Sound Samples

[TimingPoints]
2,333.333333333333,4,2,1,60,1,0
2,-100,4,2,1,60,0,0
10335,-50,4,2,1,60,0,0
10668,-83.3333333333333,4,2,1,80,0,1
21001,-60.6060606060606,4,2,1,80,0,1
21335,-100,4,2,1,60,0,0
30668,-100,4,2,1,45,0,0
32001,-125,4,2,1,60,0,0
34001,-83.3333333333333,4,2,1,60,0,0
34668,-125,4,2,1,60,0,0
36668,-83.3333333333333,4,2,1,60,0,0
37335,-125,4,2,1,60,0,0
39335,-83.3333333333333,4,2,1,60,0,0
40001,-125,4,2,1,60,0,0
42668,-100,4,2,1,50,0,0
52001,-100,4,2,1,40,0,0
52668,-100,4,2,1,45,0,0
53001,-66.6666666666667,4,2,1,60,0,0
53251,-66.6666666666667,4,2,1,5,0,0
53335,-100,4,2,1,52,0,0
54668,-100,4,2,1,58,0,0
56001,-100,4,2,1,64,0,0
57335,-50,4,2,1,70,0,0
57918,-50,4,2,1,5,0,0
58001,-83.3333333333333,4,2,1,75,0,0
58668,-71.4285714285714,4,2,1,85,0,1
69335,-71.4285714285714,4,2,1,65,0,0
70668,-71.4285714285714,4,2,1,80,0,0
71335,-71.4285714285714,4,2,1,65,0,0
72001,-71.4285714285714,4,2,1,85,0,1
78668,-71.4285714285714,4,2,1,65,0,1
80001,-100,4,2,1,55,0,0
85001,-100,4,2,1,65,0,0
85335,-100,4,2,1,55,0,0
89335,-100,4,2,1,60,0,0
90001,-100,4,2,1,60,0,0
90251,-100,4,2,1,5,0,0
90335,-71.4285714285714,4,2,1,60,0,0
90584,-71.4285714285714,4,2,1,5,0,0
90668,-71.4285714285714,4,2,1,80,0,1
95335,-71.4285714285714,4,2,1,80,0,1
95668,-71.4285714285714,4,2,1,80,0,1
96001,-71.4285714285714,4,2,1,80,0,1
98668,-100,4,2,1,70,0,0
100001,-80,4,2,1,80,0,1
101335,-80,4,2,1,85,0,0
102001,-80,4,2,1,90,0,0
102335,-80,4,2,1,80,0,0
102668,-80,4,2,1,70,0,0
103001,-80,4,2,1,60,0,0
103335,-80,4,2,1,50,0,0
103668,-80,4,2,1,40,0,0
104001,-80,4,2,1,30,0,0
104335,-80,4,2,1,20,0,0
104668,-80,4,2,1,10,0,0
105001,-80,4,2,1,5,0,0

[Colours]
Combo1 : 255,155,255
Combo2 : 152,48,207
Combo3 : 186,116,224
Combo4 : 255,60,255

[HitObjects]
51,347,2,5,2,1:2:0:0:
18,174,168,1,2,0:0:0:0:
65,161,251,1,2,0:0:0:0:
114,172,334,1,2,0:0:0:0:
152,204,417,1,2,0:0:0:0:
171,249,501,2,0,P|175:283|169:318,1,50,2|2,0:0|0:0,0:0:0:0:
304,371,668,5,8,0:0:0:0:
366,366,751,1,8,0:0:0:0:
428,362,834,1,8,0:0:0:0:
490,159,1001,1,0,1:0:0:0:
452,155,1084,1,0,1:0:0:0:
415,152,1168,2,0,L|361:147,1,50,0|0,1:0|1:0,0:0:0:0:
186,0,1335,6,0,L|195:74,1,50,2|0,1:2|1:0,0:0:0:0:
152,204,1501,1,2,1:2:0:0:
152,204,1668,6,0,L|161:130,1,50,2|0,0:0|1:0,0:0:0:0:
276,93,1834,1,8,0:0:0:0:
276,93,2001,6,0,L|285:167,1,50,2|0,1:2|1:0,0:0:0:0:
212,266,2167,1,2,1:2:0:0:
65,161,2335,5,8,0:0:0:0:
65,161,2418,1,0,1:0:0:0:
65,161,2501,1,0,1:0:0:0:
34,337,2668,5,2,1:2:0:0:
212,266,2835,2,0,P|208:295|212:321,1,50,2|0,1:2|0:0,0:0:0:0:
309,383,3001,1,8,0:0:0:0:
359,378,3084,1,8,0:0:0:0:
409,374,3167,1,8,0:0:0:0:
508,213,3335,1,2,1:2:0:0:
305,94,3501,1,2,1:2:0:0:
396,52,3668,1,0,1:0:0:0:
396,52,3751,1,0,1:0:0:0:
396,52,3835,1,0,1:0:0:0:
411,245,4001,5,0,1:0:0:0:
264,176,4168,2,0,P|239:157|225:124,1,50,2|2,0:0|0:0,0:0:0:0:
175,43,4335,1,8,0:0:0:0:
125,46,4418,1,8,0:0:0:0:
75,49,4501,2,0,L|23:53,1,50,8|0,0:0|0:0,0:0:0:0:
0,155,4668,5,8,0:3:0:0:
26,179,4751,1,8,0:3:0:0:
44,212,4834,1,8,0:3:0:0:
54,248,4917,1,8,0:3:0:0:
54,285,5001,6,0,P|77:267|118:255,1,50,0|0,1:0|1:0,0:0:0:0:
200,277,5168,2,0,P|217:300|229:341,1,50,0|0,1:0|1:0,0:0:0:0:
130,359,5334,5,0,1:0:0:0:
317,250,5501,1,0,0:0:0:0:
150,142,5668,2,0,P|150:168|163:204,1,50,8|0,0:0|0:0,0:0:0:0:
200,278,5835,1,0,1:0:0:0:
305,94,6001,1,0,1:0:0:0:
427,275,6168,1,0,0:0:0:0:
224,40,6335,2,0,P|241:22|263:10,1,50,8|0,0:0|0:0,0:0:0:0:
389,61,6501,2,0,P|395:85|395:110,1,50,8|0,0:0|0:0,0:0:0:0:
317,250,6668,5,0,1:0:0:0:
150,142,6835,1,0,0:0:0:0:
306,362,7001,2,0,P|336:358|361:343,1,50,8|0,0:0|0:0,0:0:0:0:
427,275,7168,1,0,1:0:0:0:
305,94,7335,1,0,1:0:0:0:
512,92,7501,2,0,P|512:67|505:42,1,50,8|0,0:0|0:0,0:0:0:0:
336,5,7668,1,0,1:0:0:0:
494,209,7835,1,0,1:0:0:0:
269,195,8001,5,0,1:0:0:0:
445,384,8168,1,0,1:0:0:0:
482,367,8251,1,0,1:0:0:0:
504,331,8335,2,0,L|500:273,2,50,2|2|2,1:2|1:2|1:2,0:0:0:0:
399,187,8668,1,2,0:0:0:0:
236,309,8835,2,0,P|214:298|195:258,1,50,8|0,0:0|0:0,0:0:0:0:
165,76,9001,1,0,1:0:0:0:
335,256,9168,1,0,1:0:0:0:
172,58,9335,5,0,1:0:0:0:
3,195,9501,1,0,1:0:0:0:
3,195,9585,1,0,0:0:0:0:
3,195,9668,2,0,L|11:133,1,50,0|0,1:0|0:0,0:0:0:0:
3,0,9835,2,0,L|52:37,1,50,0|0,1:0|0:0,0:0:0:0:
198,173,10001,1,0,1:0:0:0:
257,168,10084,1,0,1:0:0:0:
317,164,10167,1,0,1:0:0:0:
377,160,10251,1,0,1:0:0:0:
437,156,10335,2,0,P|350:110|336:256,1,300,2|0,0:0|0:0,0:0:0:0:
442,277,10668,5,4,1:0:0:0:
207,368,10835,1,2,0:0:0:0:
157,360,10918,1,2,0:0:0:0:
115,335,11001,1,8,0:0:0:0:
86,294,11085,1,2,0:0:0:0:
75,246,11168,1,2,0:0:0:0:
84,197,11251,1,2,0:0:0:0:
112,156,11335,5,0,1:0:0:0:
334,256,11501,1,2,0:0:0:0:
115,335,11668,1,8,0:0:0:0:
86,294,11752,1,2,0:0:0:0:
75,246,11835,1,2,0:0:0:0:
136,36,12001,5,0,1:0:0:0:
76,41,12084,1,2,0:0:0:0:
16,47,12167,1,2,0:0:0:0:
246,68,12335,5,8,0:0:0:0:
220,97,12418,1,2,0:0:0:0:
194,128,12501,1,2,0:0:0:0:
354,67,12668,5,0,1:0:0:0:
355,86,12751,1,2,0:0:0:0:
356,106,12834,1,2,0:0:0:0:
439,18,13001,6,0,L|484:60,1,59.9999981689454,8|0,0:0|1:0,0:0:0:0:
469,150,13168,2,0,L|486:209,1,59.9999981689454,0|0,1:0|1:0,0:0:0:0:
399,248,13335,6,0,L|386:383,1,119.999996337891,0|2,1:0|0:0,0:0:0:0:
360,353,13585,1,2,0:0:0:0:
336,339,13668,1,8,0:0:0:0:
230,213,13835,1,2,0:0:0:0:
138,379,14001,5,0,1:0:0:0:
84,180,14168,1,2,0:0:0:0:
237,287,14335,1,8,0:0:0:0:
194,294,14418,1,2,0:0:0:0:
158,299,14501,1,2,0:0:0:0:
0,384,14668,5,0,1:0:0:0:
4,182,14835,1,2,0:0:0:0:
10,142,14918,1,2,0:0:0:0:
35,112,15001,1,8,0:0:0:0:
71,97,15085,1,2,0:0:0:0:
111,102,15168,1,2,0:0:0:0:
142,126,15251,1,2,0:0:0:0:
159,163,15335,5,0,1:0:0:0:
184,146,15418,1,2,0:0:0:0:
213,141,15501,1,2,0:0:0:0:
242,146,15584,1,2,0:0:0:0:
268,159,15668,6,0,L|274:221,1,59.9999981689454,8|2,0:0|0:0,0:0:0:0:
377,281,15835,2,0,L|371:221,1,59.9999981689454,0|2,1:0|0:0,0:0:0:0:
347,98,16001,5,0,1:0:0:0:
460,307,16168,1,2,0:0:0:0:
433,100,16335,5,8,0:0:0:0:
386,358,16502,1,2,0:0:0:0:
505,154,16668,5,0,1:0:0:0:
294,351,16835,1,2,0:0:0:0:
512,235,17001,5,8,0:0:0:0:
242,284,17168,1,2,0:0:0:0:
347,98,17335,5,0,1:0:0:0:
294,351,17501,1,2,0:0:0:0:
267,44,17668,5,8,0:0:0:0:
352,283,17834,1,2,0:0:0:0:
181,27,18001,5,0,1:0:0:0:
365,194,18168,1,2,0:0:0:0:
18,182,18335,5,8,0:0:0:0:
347,98,18501,1,2,0:0:0:0:
12,12,18668,5,0,1:0:0:0:
176,137,18835,1,2,0:0:0:0:
187,195,18918,1,2,0:0:0:0:
177,254,19001,2,0,P|159:284|128:309,1,59.9999981689454,8|0,0:0|0:0,0:0:0:0:
24,358,19168,2,0,P|7:327|1:287,1,59.9999981689454,2|0,0:0|0:0,0:0:0:0:
18,182,19335,5,0,1:0:0:0:
294,351,19501,1,2,0:0:0:0:
14,96,19668,5,8,0:0:0:0:
259,152,19835,1,2,0:0:0:0:
12,12,20001,5,0,1:0:0:0:
174,52,20168,1,2,0:0:0:0:
203,49,20251,1,2,0:0:0:0:
233,46,20334,1,0,1:0:0:0:
377,30,20501,1,2,0:0:0:0:
361,190,20668,2,0,L|355:253,1,59.9999981689454,0|0,1:0|1:0,0:0:0:0:
267,321,20835,2,0,L|261:261,1,59.9999981689454,0|0,1:0|1:0,0:0:0:0:
424,123,21001,2,0,B|451:166|451:166|441:282,1,165.000001573563,2|0,0:0|0:0,0:0:0:0:
184,367,21335,5,4,1:0:0:0:
152,346,21418,1,0,0:0:0:0:
135,314,21501,1,0,0:0:0:0:
135,276,21584,1,0,0:0:0:0:
153,244,21668,1,8,0:0:0:0:
184,224,21751,1,0,0:0:0:0:
202,190,21835,1,0,0:0:0:0:
202,153,21918,1,0,0:0:0:0:
181,118,22001,5,2,1:2:0:0:
128,139,22084,1,0,0:0:0:0:
95,185,22167,1,0,0:0:0:0:
91,242,22250,1,0,0:0:0:0:
118,291,22334,1,8,0:0:0:0:
167,320,22417,1,0,0:0:0:0:
224,317,22500,1,0,0:0:0:0:
271,285,22584,1,0,0:0:0:0:
293,233,22668,6,0,L|286:111,1,100,0|0,1:0|0:0,0:0:0:0:
183,22,23001,1,8,0:0:0:0:
183,22,23085,1,0,0:0:0:0:
183,22,23168,1,0,0:0:0:0:
6,170,23335,1,2,1:2:0:0:
28,15,23501,1,0,0:0:0:0:
43,34,23584,1,0,0:0:0:0:
59,53,23667,1,8,0:0:0:0:
128,139,23835,1,0,1:0:0:0:
0,252,24001,5,0,1:0:0:0:
37,255,24084,1,0,0:0:0:0:
74,258,24167,1,0,0:0:0:0:
112,262,24250,1,0,0:0:0:0:
149,265,24334,1,8,0:0:0:0:
186,269,24417,1,0,0:0:0:0:
224,272,24500,1,0,0:0:0:0:
261,275,24584,1,0,0:0:0:0:
298,279,24668,5,2,1:2:0:0:
274,228,24751,1,0,0:0:0:0:
277,171,24834,1,0,0:0:0:0:
306,122,24917,1,0,0:0:0:0:
355,93,25001,1,8,0:0:0:0:
412,91,25084,1,0,0:0:0:0:
463,116,25167,1,0,0:0:0:0:
496,162,25251,1,0,0:0:0:0:
503,219,25335,6,0,P|490:283|463:326,1,100,0|0,1:0|0:0,0:0:0:0:
325,381,25668,1,8,0:0:0:0:
325,381,25751,1,0,0:0:0:0:
325,381,25835,1,0,0:0:0:0:
390,224,26001,1,2,1:2:0:0:
230,84,26168,1,0,0:0:0:0:
205,87,26251,1,0,0:0:0:0:
180,91,26335,2,0,L|115:98,1,50,8|0,0:0|0:0,0:0:0:0:
77,24,26501,2,0,L|12:31,1,50,0|0,1:0|0:0,0:0:0:0:
8,160,26668,5,0,1:0:0:0:
0,195,26751,1,0,0:0:0:0:
5,231,26834,1,0,0:0:0:0:
27,261,26917,1,0,0:0:0:0:
58,282,27001,1,8,0:0:0:0:
94,290,27084,1,0,0:0:0:0:
131,285,27167,1,0,0:0:0:0:
164,267,27251,1,0,0:0:0:0:
188,239,27334,5,2,1:2:0:0:
143,205,27418,1,0,0:0:0:0:
86,203,27501,1,0,0:0:0:0:
40,235,27584,1,0,0:0:0:0:
22,289,27668,1,8,0:0:0:0:
38,343,27751,1,0,0:0:0:0:
83,377,27834,1,0,0:0:0:0:
140,377,27918,1,0,0:0:0:0:
186,344,28001,6,0,P|242:329|301:342,1,100,0|0,1:0|0:0,0:0:0:0:
448,372,28335,1,8,0:0:0:0:
448,372,28418,1,0,0:0:0:0:
448,372,28501,1,0,0:0:0:0:
497,192,28668,2,0,L|509:261,1,50,2|0,1:2|0:0,0:0:0:0:
417,275,28835,2,0,L|409:226,1,50
236,142,29001,2,0,L|224:211,1,50,8|0,0:0|0:0,0:0:0:0:
315,225,29168,2,0,L|324:176,1,50,0|0,1:0|0:0,0:0:0:0:
478,85,29335,5,0,1:0:0:0:
449,43,29418,1,0,0:0:0:0:
407,16,29501,1,0,0:0:0:0:
359,8,29584,1,0,0:0:0:0:
310,21,29668,1,8,0:0:0:0:
272,51,29751,1,0,0:0:0:0:
222,63,29835,1,0,0:0:0:0:
174,55,29918,1,0,0:0:0:0:
133,28,30001,5,2,1:2:0:0:
189,0,30084,1,0,0:0:0:0:
250,19,30167,1,0,0:0:0:0:
275,78,30250,1,0,0:0:0:0:
247,137,30334,1,8,0:0:0:0:
186,156,30417,1,0,0:0:0:0:
157,214,30501,1,0,0:0:0:0:
179,274,30584,1,0,0:0:0:0:
238,301,30667,5,0,1:0:0:0:
21,39,31001,1,2,0:0:0:0:
21,39,31085,1,2,0:0:0:0:
21,39,31168,1,2,0:0:0:0:
92,104,31335,1,2,0:0:0:0:
0,170,31501,1,2,0:0:0:0:
82,283,31668,2,0,P|90:225|74:176,1,100,2|0,0:0|0:0,0:0:0:0:
4,354,32001,5,4,1:0:0:0:
17,355,32084,1,0,0:0:0:0:
32,358,32167,1,0,0:0:0:0:
47,359,32250,1,0,0:0:0:0:
62,362,32334,1,8,0:0:0:0:
77,364,32417,1,0,0:0:0:0:
91,366,32500,1,0,0:0:0:0:
106,369,32584,1,0,0:0:0:0:
121,371,32668,5,2,1:2:0:0:
106,344,32751,1,0,0:0:0:0:
104,315,32834,1,0,0:0:0:0:
115,287,32918,1,0,0:0:0:0:
136,266,33001,1,8,0:0:0:0:
164,256,33084,1,0,0:0:0:0:
194,259,33168,1,0,0:0:0:0:
220,274,33251,1,0,0:0:0:0:
237,298,33335,6,0,P|266:327|313:341,1,80,0|0,1:0|0:0,0:0:0:0:
370,235,33668,1,8,0:0:0:0:
370,235,33751,1,0,0:0:0:0:
370,235,33835,1,0,0:0:0:0:
505,341,34001,6,0,L|513:385,2,29.9999990844727,2|2|2,1:2|0:0|0:0,0:0:0:0:
413,343,34168,2,0,L|405:387,2,29.9999990844727,2|0|2,1:2|0:0|0:0,0:0:0:0:
457,250,34335,2,0,L|457:218,6,29.9999990844727,10|2|2|0|2|0|0,0:2|0:0|0:0|0:0|1:2|0:0|0:0,0:0:0:0:
506,156,34668,5,0,1:0:0:0:
500,142,34751,1,0,0:0:0:0:
491,129,34834,1,0,0:0:0:0:
481,118,34918,1,0,0:0:0:0:
469,110,35001,1,8,0:0:0:0:
455,103,35084,1,0,0:0:0:0:
441,99,35168,1,0,0:0:0:0:
426,98,35251,1,0,0:0:0:0:
411,100,35335,5,2,1:2:0:0:
413,70,35418,1,0,0:0:0:0:
404,41,35501,1,0,0:0:0:0:
385,18,35585,1,0,0:0:0:0:
359,4,35668,1,8,0:0:0:0:
329,1,35751,1,0,0:0:0:0:
301,9,35835,1,0,0:0:0:0:
278,28,35918,1,0,0:0:0:0:
263,54,36001,6,0,L|274:139,1,80,0|0,1:0|0:0,0:0:0:0:
370,235,36335,1,8,0:0:0:0:
370,235,36418,1,0,0:0:0:0:
370,235,36501,1,0,0:0:0:0:
323,346,36668,6,0,L|279:354,2,29.9999990844727,2|2|2,1:2|0:0|0:0,0:0:0:0:
224,294,36835,2,0,L|180:286,2,29.9999990844727,2|2|2,1:2|0:0|0:0,0:0:0:0:
142,360,37001,2,0,L|112:365,6,29.9999990844727,10|2|2|0|0|0|0,0:0|0:0|0:0|0:0|1:0|0:0|0:0,0:0:0:0:
24,376,37335,5,0,1:0:0:0:
26,361,37418,1,0,0:0:0:0:
28,346,37501,1,0,0:0:0:0:
30,331,37585,1,0,0:0:0:0:
32,316,37668,1,8,0:0:0:0:
34,301,37751,1,0,0:0:0:0:
36,286,37835,1,0,0:0:0:0:
38,272,37918,1,0,0:0:0:0:
59,256,38001,5,2,1:2:0:0:
56,226,38084,1,0,0:0:0:0:
53,196,38167,1,0,0:0:0:0:
50,166,38251,1,0,0:0:0:0:
47,136,38334,1,8,0:0:0:0:
44,106,38417,1,0,0:0:0:0:
41,76,38501,1,0,0:0:0:0:
38,46,38584,1,0,0:0:0:0:
35,16,38668,6,0,P|76:9|118:22,1,80,0|0,1:0|0:0,0:0:0:0:
188,130,39001,1,8,0:0:0:0:
188,130,39085,1,0,0:0:0:0:
188,130,39168,1,0,0:0:0:0:
286,17,39335,6,0,P|293:42|295:69,2,29.9999990844727,2|2|2,1:2|0:0|0:0,0:0:0:0:
365,132,39501,2,0,P|367:112|373:93,2,29.9999990844727,2|2|2,1:2|0:0|0:0,0:0:0:0:
426,33,39668,2,0,L|462:29,6,29.9999990844727,2|8|2|0|0|0|0,0:0|0:0|0:0|0:0|1:0|0:0|0:0,0:0:0:0:
504,108,40001,5,0,1:0:0:0:
512,136,40084,1,0,0:0:0:0:
512,166,40167,1,0,0:0:0:0:
501,194,40251,1,0,0:0:0:0:
482,217,40334,1,8,0:0:0:0:
456,232,40417,1,0,0:0:0:0:
427,238,40501,1,0,0:0:0:0:
398,234,40584,1,0,0:0:0:0:
371,221,40668,5,2,1:2:0:0:
376,266,40751,1,0,0:0:0:0:
381,312,40835,2,0,L|388:374,1,40
269,261,41001,5,8,0:0:0:0:
271,283,41084,1,0,0:0:0:0:
274,306,41168,2,0,L|277:349,1,40
114,373,41335,5,0,1:0:0:0:
337,140,41668,1,2,0:0:0:0:
337,140,41751,1,2,0:0:0:0:
337,140,41835,1,2,0:0:0:0:
217,86,42001,1,2,0:0:0:0:
167,155,42168,1,2,0:0:0:0:
120,122,42335,1,2,0:0:0:0:
104,142,42501,1,0,0:0:0:0:
7,44,42668,6,0,P|63:31|85:158,1,200,0|0,1:0|1:0,0:0:0:0:
18,243,43168,1,2,0:0:0:0:
95,342,43335,2,0,L|203:328,1,100,0|2,1:0|0:0,0:0:0:0:
265,235,43668,1,0,1:0:0:0:
289,238,43751,1,0,0:0:0:0:
314,241,43834,1,2,0:0:0:0:
339,244,43918,1,0,0:0:0:0:
364,247,44001,5,0,1:0:0:0:
496,379,44168,1,2,0:0:0:0:
496,379,44251,1,2,0:0:0:0:
496,379,44335,1,0,1:0:0:0:
360,363,44501,1,2,0:0:0:0:
492,255,44668,2,0,P|499:206|487:148,1,100,0|2,1:0|0:0,0:0:0:0:
477,133,44918,1,2,0:0:0:0:
453,115,45001,1,0,1:0:0:0:
309,172,45168,1,2,0:0:0:0:
251,48,45335,5,0,1:0:0:0:
289,39,45418,1,2,0:0:0:0:
327,49,45501,1,2,0:0:0:0:
356,76,45585,1,2,0:0:0:0:
369,113,45668,1,0,1:0:0:0:
227,194,45835,1,2,0:0:0:0:
82,38,46001,5,0,1:0:0:0:
143,213,46168,1,2,0:0:0:0:
162,63,46335,1,0,1:0:0:0:
58,234,46501,1,2,0:0:0:0:
214,326,46668,6,0,P|259:305|299:245,1,100,0|2,1:0|2:0,0:0:0:0:
369,113,47001,2,0,P|364:162|396:227,1,100,0|2,1:0|2:0,0:0:0:0:
484,283,47335,1,0,1:0:0:0:
484,283,47418,1,2,0:0:0:0:
484,283,47501,2,0,L|479:341,1,50,2|2,0:0|0:0,0:0:0:0:
395,383,47668,1,0,1:0:0:0:
355,379,47751,1,2,1:2:0:0:
315,375,47834,1,2,1:2:0:0:
71,262,48001,6,0,B|26:235|26:235|42:357,1,150,0|2,1:0|0:0,0:0:0:0:
42,362,48335,1,8,0:0:0:0:
186,242,48501,1,2,0:0:0:0:
95,89,48668,2,0,P|48:110|16:146,1,100,0|2,1:0|0:0,0:0:0:0:
220,122,49001,1,8,0:0:0:0:
225,97,49084,1,2,0:0:0:0:
225,72,49167,1,2,0:0:0:0:
220,48,49251,1,2,0:0:0:0:
210,25,49334,5,0,1:0:0:0:
334,137,49501,1,2,0:0:0:0:
334,137,49585,1,2,0:0:0:0:
334,137,49668,1,8,0:0:0:0:
490,92,49835,1,2,0:0:0:0:
346,7,50001,2,0,P|325:63|327:112,1,100,0|2,1:0|0:0,0:0:0:0:
334,137,50251,1,2,0:0:0:0:
354,166,50335,1,8,0:0:0:0:
456,267,50501,1,2,0:0:0:0:
354,381,50668,5,0,1:0:0:0:
314,377,50751,1,2,0:0:0:0:
274,373,50834,1,2,0:0:0:0:
234,369,50918,1,2,0:0:0:0:
194,365,51001,1,8,0:0:0:0:
109,225,51168,1,2,0:0:0:0:
222,142,51335,5,0,1:0:0:0:
89,312,51501,1,2,0:0:0:0:
137,150,51668,1,8,0:0:0:0:
205,242,51835,1,2,0:0:0:0:
13,97,52001,5,0,1:0:0:0:
0,20,52168,1,0,0:0:0:0:
77,7,52335,1,0,0:0:0:0:
90,84,52501,1,0,0:0:0:0:
15,223,52668,6,0,L|10:265,6,25
40,331,53001,2,0,P|147:351|210:264,1,225.000008583069,2|0,0:0|0:0,0:0:0:0:
276,183,53335,5,8,1:2:0:0:
303,163,53418,1,0,0:0:0:0:
337,163,53501,1,2,0:0:0:0:
366,180,53585,1,0,0:0:0:0:
381,211,53668,1,8,1:2:0:0:
377,245,53751,1,0,0:0:0:0:
355,271,53835,1,2,0:0:0:0:
323,281,53918,1,0,0:0:0:0:
289,280,54001,5,8,1:2:0:0:
318,248,54084,1,0,0:0:0:0:
357,230,54167,1,2,0:0:0:0:
397,246,54251,1,0,0:0:0:0:
439,232,54334,1,8,1:2:0:0:
463,196,54417,1,0,0:0:0:0:
459,152,54501,1,2,0:0:0:0:
448,111,54584,1,0,0:0:0:0:
435,68,54668,5,8,1:2:0:0:
400,113,54751,1,0,0:0:0:0:
352,143,54834,1,2,0:0:0:0:
295,150,54918,1,0,0:0:0:0:
241,132,55001,1,8,1:2:0:0:
184,137,55084,1,0,0:0:0:0:
135,165,55167,1,2,0:0:0:0:
101,211,55251,1,0,0:0:0:0:
96,268,55335,5,8,1:2:0:0:
158,278,55418,1,0,0:0:0:0:
216,255,55501,1,2,0:0:0:0:
254,203,55585,1,0,0:0:0:0:
260,140,55668,1,8,1:2:0:0:
230,84,55751,1,0,0:0:0:0:
177,50,55835,1,0,1:2:0:0:
114,50,55918,1,0,0:0:0:0:
63,87,56001,5,8,1:2:0:0:
97,151,56084,1,0,0:0:0:0:
161,185,56167,1,8,1:2:0:0:
232,177,56251,1,0,0:0:0:0:
288,130,56334,1,8,1:2:0:0:
360,116,56418,1,0,0:0:0:0:
429,138,56501,1,8,1:2:0:0:
478,191,56585,1,0,0:0:0:0:
492,262,56668,5,8,1:2:0:0:
430,217,56751,1,0,0:0:0:0:
354,207,56834,1,8,1:2:0:0:
283,237,56918,1,0,0:0:0:0:
236,298,57001,1,8,1:2:0:0:
166,328,57084,1,0,0:0:0:0:
90,318,57167,1,8,1:2:0:0:
29,272,57251,1,0,0:0:0:0:
0,201,57335,6,0,L|7:146,12,50,2|2|2|2|2|2|2|2|2|2|2|2|2,1:0|0:0|0:0|0:0|0:0|0:0|0:0|0:0|0:0|0:0|0:0|0:0|0:0,0:0:0:0:
62,80,58001,5,8,0:2:0:0:
98,74,58085,1,8,0:2:0:0:
134,69,58168,1,8,0:2:0:0:
256,201,58335,5,8,0:0:0:0:
315,208,58418,1,8,0:0:0:0:
374,216,58501,1,8,0:0:0:0:
434,224,58585,1,8,0:0:0:0:
493,232,58668,5,4,1:0:0:0:
322,41,58835,1,2,0:0:0:0:
257,16,58918,1,2,0:0:0:0:
188,27,59001,1,8,0:0:0:0:
134,69,59085,1,2,0:0:0:0:
107,133,59168,1,2,0:0:0:0:
115,202,59251,1,2,0:0:0:0:
156,258,59335,5,0,1:0:0:0:
416,57,59501,1,2,0:0:0:0:
482,338,59668,1,8,0:0:0:0:
413,329,59751,1,2,0:0:0:0:
344,321,59834,1,2,0:0:0:0:
9,57,60001,5,0,1:0:0:0:
79,48,60084,1,2,0:0:0:0:
149,40,60167,1,2,0:0:0:0:
315,208,60335,5,8,0:0:0:0:
261,201,60418,1,2,0:0:0:0:
209,195,60501,1,2,0:0:0:0:
17,354,60668,5,0,1:0:0:0:
44,350,60751,1,2,0:0:0:0:
70,347,60834,1,2,0:0:0:0:
248,281,61001,6,0,L|335:292,1,69.9999978637696,8|0,0:0|1:0,0:0:0:0:
498,384,61168,2,0,L|464:303,1,69.9999978637696,0|0,1:0|1:0,0:0:0:0:
415,142,61335,5,0,1:0:0:0:
209,195,61501,1,2,0:0:0:0:
209,195,61585,1,2,0:0:0:0:
209,195,61668,1,8,0:0:0:0:
249,17,61835,1,2,0:0:0:0:
315,208,62001,5,0,1:0:0:0:
104,44,62168,1,2,0:0:0:0:
357,20,62335,1,8,0:0:0:0:
391,16,62418,1,2,0:0:0:0:
426,13,62501,1,2,0:0:0:0:
209,195,62668,5,0,1:0:0:0:
19,37,62835,1,2,0:0:0:0:
84,19,62918,1,2,0:0:0:0:
135,63,63001,1,8,0:0:0:0:
127,130,63085,1,2,0:0:0:0:
68,162,63168,1,2,0:0:0:0:
47,227,63251,1,2,0:0:0:0:
78,287,63335,5,0,1:0:0:0:
130,281,63418,1,2,0:0:0:0:
182,275,63501,1,2,0:0:0:0:
234,268,63585,1,2,0:0:0:0:
286,262,63668,6,0,L|294:190,1,69.9999978637696,8|0,0:0|1:0,0:0:0:0:
127,130,63835,2,0,L|135:202,1,69.9999978637696,0|0,1:0|1:0,0:0:0:0:
274,373,64001,5,0,1:0:0:0:
489,144,64168,1,2,0:0:0:0:
370,358,64335,5,8,0:0:0:0:
429,78,64501,1,2,0:0:0:0:
450,305,64668,5,0,1:0:0:0:
343,63,64835,1,2,0:0:0:0:
495,235,65001,5,8,0:0:0:0:
261,91,65168,1,2,0:0:0:0:
164,318,65335,5,0,1:0:0:0:
277,176,65501,1,2,0:0:0:0:
101,136,65668,5,8,0:0:0:0:
231,249,65835,1,2,0:0:0:0:
45,207,66001,5,0,1:0:0:0:
158,65,66167,1,2,0:0:0:0:
0,0,66335,5,8,0:0:0:0:
63,313,66501,1,2,0:0:0:0:
261,91,66668,5,0,1:0:0:0:
363,354,66835,1,2,0:0:0:0:
397,360,66918,1,2,0:0:0:0:
431,353,67001,2,0,P|452:327|461:293,1,69.9999978637696,8|0,0:0|0:0,0:0:0:0:
508,198,67168,2,0,P|495:166|471:142,1,69.9999978637696,2|0,0:0|0:0,0:0:0:0:
330,39,67335,5,0,1:0:0:0:
273,364,67501,1,2,0:0:0:0:
261,91,67668,5,8,0:0:0:0:
382,272,67835,1,2,0:0:0:0:
140,320,68001,5,0,1:0:0:0:
170,137,68168,1,2,0:0:0:0:
170,137,68251,1,2,0:0:0:0:
170,137,68335,2,0,L|87:125,1,69.9999978637696,0|0,1:0|0:0,0:0:0:0:
71,234,68501,2,0,L|-11:245,1,69.9999978637696,2|0,0:0|0:0,0:0:0:0:
0,384,68668,5,0,1:0:0:0:
69,374,68751,1,0,1:0:0:0:
138,364,68834,1,0,1:0:0:0:
207,354,68917,1,0,1:0:0:0:
277,344,69001,6,0,L|320:351,1,34.9999989318848,2|2,0:0|0:0,0:0:0:0:
292,309,69085,2,0,L|336:308,1,34.9999989318848,2|2,0:0|0:0,0:0:0:0:
295,272,69168,2,0,L|338:264,1,34.9999989318848
287,236,69251,2,0,L|328:220,1,34.9999989318848
267,204,69335,5,4,1:0:0:0:
362,20,69501,1,2,0:0:0:0:
408,4,69584,1,2,0:0:0:0:
457,13,69667,1,2,0:0:0:0:
495,45,69750,1,2,0:0:0:0:
512,91,69835,2,0,P|510:129|495:164,1,69.9999978637696,2|2,0:0|0:0,0:0:0:0:
416,236,70001,5,8,0:0:0:0:
425,310,70084,1,8,0:0:0:0:
434,384,70167,1,8,0:0:0:0:
326,119,70335,5,8,0:0:0:0:
268,94,70418,1,8,0:0:0:0:
210,70,70501,1,8,0:0:0:0:
153,45,70584,1,0,0:0:0:0:
95,21,70668,6,0,L|101:93,1,69.9999978637696,0|2,1:0|0:0,0:0:0:0:
127,262,70835,1,2,0:0:0:0:
127,262,71001,6,0,L|186:220,1,69.9999978637696,2|2,0:0|0:0,0:0:0:0:
326,119,71168,1,8,0:0:0:0:
326,119,71334,6,0,L|260:88,1,69.9999978637696,0|2,1:0|0:0,0:0:0:0:
95,21,71501,1,2,0:0:0:0:
31,196,71668,5,8,0:0:0:0:
31,196,71751,1,0,1:0:0:0:
31,196,71835,1,0,1:0:0:0:
286,244,72001,5,0,1:0:0:0:
140,370,72168,1,2,0:0:0:0:
80,362,72251,1,2,0:0:0:0:
21,355,72334,1,8,0:0:0:0:
163,186,72501,1,2,0:0:0:0:
324,360,72668,5,0,1:0:0:0:
508,176,72835,1,2,0:0:0:0:
290,3,73001,1,8,0:0:0:0:
246,41,73084,1,2,0:0:0:0:
236,99,73167,1,2,0:0:0:0:
451,284,73335,5,0,1:0:0:0:
163,186,73501,1,2,0:0:0:0:
105,182,73584,1,2,0:0:0:0:
58,215,73667,1,8,0:0:0:0:
42,269,73750,1,2,0:0:0:0:
64,323,73834,1,2,0:0:0:0:
114,350,73917,1,2,0:0:0:0:
170,341,74001,5,0,1:0:0:0:
161,299,74084,1,2,0:0:0:0:
153,258,74167,1,2,0:0:0:0:
145,216,74250,1,2,0:0:0:0:
163,186,74335,6,0,P|196:175|233:174,1,69.9999978637696,8|0,0:0|1:0,0:0:0:0:
386,102,74501,2,0,P|353:91|316:90,1,69.9999978637696,0|0,1:0|1:0,0:0:0:0:
152,86,74668,5,0,1:0:0:0:
323,361,74835,1,2,0:0:0:0:
483,75,75001,5,8,0:0:0:0:
232,251,75168,1,2,0:0:0:0:
379,18,75335,5,0,1:0:0:0:
325,276,75501,1,2,0:0:0:0:
87,35,75668,5,8,0:0:0:0:
407,221,75835,1,2,0:0:0:0:
114,350,76001,5,0,1:0:0:0:
234,40,76168,1,2,0:0:0:0:
325,276,76335,5,8,0:0:0:0:
56,158,76501,1,2,0:0:0:0:
279,158,76668,5,0,1:0:0:0:
82,254,76835,1,2,0:0:0:0:
234,40,77001,5,8,0:0:0:0:
354,358,77168,1,2,0:0:0:0:
490,98,77335,5,0,1:0:0:0:
257,170,77501,1,2,0:0:0:0:
188,165,77584,1,2,0:0:0:0:
141,116,77668,2,0,P|126:84|126:40,1,69.9999978637696,8|0,0:0|0:0,0:0:0:0:
220,254,77835,2,0,P|199:283|161:305,1,69.9999978637696,2|0,0:0|0:0,0:0:0:0:
1,372,78001,5,0,1:0:0:0:
30,66,78168,1,2,0:0:0:0:
122,378,78335,5,8,0:0:0:0:
4,217,78501,1,2,0:0:0:0:
257,170,78668,5,0,1:0:0:0:
234,40,78835,1,2,0:0:0:0:
234,40,78918,1,2,0:0:0:0:
234,40,79001,1,0,1:0:0:0:
358,82,79168,1,2,0:0:0:0:
480,13,79335,2,0,L|470:95,1,69.9999978637696,0|0,1:0|1:0,0:0:0:0:
419,162,79501,2,0,L|429:244,1,69.9999978637696,0|0,1:0|1:0,0:0:0:0:
502,328,79668,2,0,L|498:370,6,34.9999989318848,2|2|2|2|0|0|0,0:0|0:0|0:0|0:0|0:0|0:0|0:0,0:0:0:0:
374,370,80001,5,4,1:0:0:0:
330,382,80084,1,0,0:0:0:0:
286,379,80167,1,2,0:0:0:0:
246,360,80250,1,0,0:0:0:0:
215,327,80334,1,0,1:0:0:0:
200,285,80417,1,0,0:0:0:0:
201,240,80500,1,2,0:0:0:0:
218,200,80584,1,0,0:0:0:0:
249,167,80668,5,0,1:0:0:0:
277,202,80751,1,0,0:0:0:0:
289,245,80834,1,2,0:0:0:0:
284,289,80917,1,0,0:0:0:0:
263,328,81001,1,0,1:0:0:0:
228,356,81084,1,0,0:0:0:0:
185,369,81167,1,2,0:0:0:0:
141,363,81251,1,0,0:0:0:0:
102,342,81335,5,0,1:0:0:0:
144,329,81418,1,0,0:0:0:0:
174,297,81501,1,2,0:0:0:0:
184,253,81584,1,0,0:0:0:0:
171,210,81668,1,0,1:0:0:0:
138,181,81751,1,0,0:0:0:0:
95,171,81834,1,2,0:0:0:0:
53,184,81918,1,0,0:0:0:0:
23,218,82001,5,0,1:0:0:0:
55,247,82084,1,0,0:0:0:0:
98,257,82167,1,2,0:0:0:0:
141,244,82250,1,0,0:0:0:0:
170,210,82334,1,0,1:0:0:0:
179,166,82417,1,0,0:0:0:0:
165,125,82500,1,0,1:2:0:0:
132,95,82584,1,0,0:0:0:0:
88,87,82668,5,0,1:0:0:0:
85,131,82751,1,0,0:0:0:0:
106,170,82834,1,2,0:0:0:0:
146,190,82917,1,0,0:0:0:0:
190,184,83001,1,0,1:0:0:0:
223,155,83084,1,0,0:0:0:0:
267,149,83168,1,2,0:0:0:0:
307,169,83251,1,0,0:0:0:0:
329,208,83335,5,0,1:0:0:0:
284,205,83418,1,0,0:0:0:0:
244,225,83501,1,2,0:0:0:0:
221,263,83584,1,0,0:0:0:0:
220,307,83668,1,0,1:0:0:0:
241,346,83751,1,0,0:0:0:0:
280,368,83835,2,0,P|306:367|329:359,1,50,2|0,0:0|0:0,0:0:0:0:
441,329,84001,5,0,1:0:0:0:
441,306,84084,1,0,0:0:0:0:
443,284,84167,1,2,0:0:0:0:
445,261,84250,1,0,0:0:0:0:
447,239,84334,1,0,1:0:0:0:
449,216,84417,1,0,0:0:0:0:
451,192,84501,2,0,L|455:139,1,50,2|0,0:0|0:0,0:0:0:0:
331,27,84668,5,0,1:0:0:0:
368,22,84751,1,0,0:0:0:0:
405,18,84835,2,0,L|474:10,1,50,2|0,0:0|0:0,0:0:0:0:
317,137,85001,5,0,1:0:0:0:
260,129,85084,1,0,1:0:0:0:
204,123,85168,2,0,L|123:114,1,50,0|0,1:0|0:0,0:0:0:0:
95,32,85335,5,0,1:0:0:0:
58,56,85418,1,0,0:0:0:0:
35,95,85501,1,2,0:0:0:0:
32,140,85584,1,0,0:0:0:0:
46,182,85668,1,0,1:0:0:0:
77,213,85752,1,0,0:0:0:0:
91,256,85836,1,2,0:0:0:0:
87,300,85919,1,0,0:0:0:0:
65,338,86001,5,0,1:0:0:0:
25,317,86084,1,0,0:0:0:0:
2,279,86167,1,2,0:0:0:0:
0,235,86250,1,0,0:0:0:0:
20,194,86334,1,0,1:0:0:0:
57,170,86417,1,0,0:0:0:0:
101,167,86500,1,2,0:0:0:0:
141,185,86584,1,0,0:0:0:0:
167,221,86668,5,0,1:0:0:0:
193,185,86751,1,0,0:0:0:0:
234,167,86835,1,2,0:0:0:0:
278,170,86918,1,0,0:0:0:0:
315,194,87001,1,0,1:0:0:0:
335,235,87085,1,0,0:0:0:0:
333,279,87168,1,2,0:0:0:0:
309,317,87251,1,0,0:0:0:0:
271,338,87335,5,0,1:0:0:0:
246,300,87418,1,0,0:0:0:0:
243,256,87501,1,2,0:0:0:0:
262,216,87584,1,0,0:0:0:0:
298,191,87668,1,0,1:0:0:0:
342,185,87751,1,0,0:0:0:0:
383,203,87834,1,0,1:0:0:0:
409,238,87918,1,0,0:0:0:0:
416,282,88001,5,0,1:0:0:0:
371,279,88084,1,0,0:0:0:0:
326,274,88167,1,2,0:0:0:0:
282,270,88250,1,0,0:0:0:0:
237,266,88334,1,0,1:0:0:0:
192,262,88417,1,0,0:0:0:0:
147,258,88500,1,2,0:0:0:0:
103,254,88584,1,0,0:0:0:0:
58,249,88668,5,0,1:0:0:0:
66,205,88751,1,0,0:0:0:0:
91,169,88834,1,2,0:0:0:0:
130,147,88917,1,0,0:0:0:0:
175,144,89001,1,0,1:0:0:0:
216,159,89084,1,0,0:0:0:0:
260,156,89168,2,0,P|281:138|298:109,1,50,2|0,0:0|0:0,0:0:0:0:
236,30,89335,5,2,0:0:0:0:
236,30,89418,1,2,0:0:0:0:
236,30,89501,2,0,L|171:36,1,50,2|2,0:0|0:0,0:0:0:0:
349,31,89668,5,2,0:0:0:0:
349,31,89751,1,2,0:0:0:0:
349,31,89834,2,0,L|414:36,1,50,2|2,0:0|0:0,0:0:0:0:
481,231,90001,6,0,P|407:213|430:140,1,150,0|0,1:0|0:0,0:0:0:0:
503,206,90335,6,0,B|478:248|498:314|498:314|439:322|413:372,1,209.999993591309,8|0,0:0|0:0,0:0:0:0:
257,351,90668,5,6,1:0:0:0:
190,368,90751,1,2,0:2:0:0:
124,347,90834,1,2,0:2:0:0:
80,294,90917,1,2,0:2:0:0:
71,225,91001,1,10,0:2:0:0:
101,163,91084,1,2,0:2:0:0:
160,127,91167,1,2,0:2:0:0:
229,128,91251,1,2,0:2:0:0:
287,165,91335,5,2,1:2:0:0:
257,228,91418,1,2,0:2:0:0:
198,264,91501,1,2,0:2:0:0:
129,263,91584,1,2,0:2:0:0:
71,226,91668,1,10,0:2:0:0:
42,163,91751,1,2,0:2:0:0:
52,94,91834,1,2,0:2:0:0:
97,42,91918,1,2,0:2:0:0:
163,21,92001,5,2,1:2:0:0:
136,85,92084,1,2,0:2:0:0:
146,153,92167,1,2,0:2:0:0:
190,207,92250,1,2,0:2:0:0:
256,229,92334,1,10,0:2:0:0:
323,213,92417,1,2,0:2:0:0:
373,165,92500,1,2,0:2:0:0:
390,98,92584,1,2,0:2:0:0:
369,32,92668,5,2,1:2:0:0:
303,49,92751,1,2,0:2:0:0:
257,101,92834,1,2,0:2:0:0:
249,170,92917,1,2,0:2:0:0:
281,231,93001,1,10,0:2:0:0:
342,263,93084,1,2,0:2:0:0:
410,256,93167,1,2,1:2:0:0:
463,211,93251,1,2,0:2:0:0:
481,144,93335,5,2,1:2:0:0:
413,131,93418,1,2,0:2:0:0:
347,153,93501,1,2,0:2:0:0:
301,205,93584,1,2,0:2:0:0:
287,273,93668,1,10,0:2:0:0:
241,325,93751,1,2,0:2:0:0:
175,346,93834,1,2,0:2:0:0:
108,332,93917,1,2,0:2:0:0:
56,286,94001,5,2,1:2:0:0:
126,285,94084,1,2,0:2:0:0:
180,240,94167,1,2,0:2:0:0:
201,173,94250,1,2,0:2:0:0:
181,107,94334,1,10,0:2:0:0:
129,64,94417,1,2,0:2:0:0:
60,55,94501,2,0,P|25:73|-1:106,1,69.9999978637696,2|2,0:2|0:2,0:0:0:0:
97,184,94668,5,2,1:2:0:0:
131,180,94751,1,2,0:2:0:0:
166,177,94834,1,2,0:2:0:0:
201,173,94917,1,2,0:2:0:0:
236,170,95001,1,10,0:2:0:0:
271,166,95084,1,2,0:2:0:0:
305,163,95168,2,0,L|382:154,1,69.9999978637696,2|2,0:2|0:2,0:0:0:0:
463,292,95335,5,2,1:2:0:0:
410,286,95418,1,2,0:2:0:0:
358,281,95501,2,0,L|273:272,1,69.9999978637696,2|2,0:2|0:2,0:0:0:0:
146,379,95668,5,10,1:2:0:0:
103,326,95751,1,2,1:2:0:0:
62,275,95834,2,0,L|-4:190,1,69.9999978637696,2|2,1:2|1:2,0:0:0:0:
25,78,96001,5,6,1:0:0:0:
69,25,96084,1,2,0:2:0:0:
134,1,96167,1,2,0:2:0:0:
202,14,96250,1,2,0:2:0:0:
255,57,96334,1,10,0:2:0:0:
281,122,96418,1,2,0:2:0:0:
333,165,96502,1,2,0:2:0:0:
403,177,96585,1,2,0:2:0:0:
465,153,96668,5,2,1:2:0:0:
441,89,96751,1,2,0:2:0:0:
387,45,96834,1,2,0:2:0:0:
319,33,96917,1,2,0:2:0:0:
255,57,97001,1,10,0:2:0:0:
210,110,97084,1,2,0:2:0:0:
197,179,97167,1,2,0:2:0:0:
221,244,97251,1,2,0:2:0:0:
273,289,97335,5,2,1:2:0:0:
317,235,97418,1,2,0:2:0:0:
330,167,97501,1,2,0:2:0:0:
307,102,97584,1,2,0:2:0:0:
255,57,97668,1,10,0:2:0:0:
188,41,97751,1,2,0:2:0:0:
121,61,97834,1,2,0:2:0:0:
74,111,97918,1,2,0:2:0:0:
56,178,98001,5,2,1:2:0:0:
117,145,98084,1,2,0:2:0:0:
186,152,98167,1,2,0:2:0:0:
239,195,98250,1,2,0:2:0:0:
260,261,98334,1,10,0:2:0:0:
240,327,98417,1,2,0:2:0:0:
187,371,98501,2,0,P|153:378|119:371,1,69.9999978637696,2|2,1:2|0:2,0:0:0:0:
10,280,98668,5,2,1:2:0:0:
34,277,98751,1,2,0:2:0:0:
59,274,98834,1,2,0:2:0:0:
84,271,98917,1,2,0:2:0:0:
109,267,99001,2,0,L|167:258,1,50,10|2,0:2|0:2,0:0:0:0:
186,152,99168,2,0,L|244:161,1,50,2|2,0:2|0:2,0:0:0:0:
336,114,99335,5,2,1:2:0:0:
339,138,99418,1,2,0:2:0:0:
342,163,99501,1,2,0:2:0:0:
345,188,99584,1,2,0:2:0:0:
349,213,99668,2,0,L|358:271,1,50,10|2,0:2|0:2,0:0:0:0:
447,369,99835,2,0,L|454:319,1,50,2|2,0:2|0:2,0:0:0:0:
477,177,100001,5,2,1:2:0:0:
459,102,100084,1,2,0:2:0:0:
403,50,100167,1,2,0:2:0:0:
326,39,100250,1,2,0:2:0:0:
258,74,100335,5,2,1:2:0:0:
318,65,100418,1,2,0:2:0:0:
368,100,100501,1,2,0:2:0:0:
381,160,100584,1,2,0:2:0:0:
349,213,100668,5,2,1:2:0:0:
347,182,100751,1,2,0:2:0:0:
330,156,100834,1,2,0:2:0:0:
302,144,100917,1,2,0:2:0:0:
272,148,101001,6,0,P|276:185|265:223,1,62.5,10|2,1:2|1:2,0:0:0:0:
236,329,101168,2,0,P|202:314|175:285,1,62.5,2|2,1:2|1:2,0:0:0:0:
43,80,101335,5,2,1:0:0:0:
256,192,101418,12,0,105335,0:0:0:0:
