osu file format v14

[General]
AudioFilename: audio.mp3
AudioLeadIn: 0
PreviewTime: -1
Countdown: 2
SampleSet: Normal
StackLeniency: 0.7
Mode: 0
LetterboxInBreaks: 0
WidescreenStoryboard: 1

[Editor]
Bookmarks: 10747,21413,30747,32080,42747,53080,58747,69413,71996,80080,90747,100080
DistanceSpacing: 2.8
BeatDivisor: 4
GridSize: 16
TimelineZoom: 1.9

[Metadata]
Title:Doki-Doki
TitleUnicode:Doki-Doki
Artist:Thaehan
ArtistUnicode:Thaehan
Creator:[Moor]
Version:Doki-Doki
Source:
Tags:
BeatmapID:1739470
BeatmapSetID:830213

[Difficulty]
HPDrainRate:6
CircleSize:4.1
OverallDifficulty:8
ApproachRate:9.4
SliderMultiplier:1.50000000596046
SliderTickRate:1

[Events]
//Background and Video events
0,0,"Anime-girl-space-magic-sword-weapon_1920x1080.jpg",0,0
//Break Periods
//Storyboard Layer 0 (Background)
//Storyboard Layer 1 (Fail)
//Storyboard Layer 2 (Pass)
//Storyboard Layer 3 (Foreground)
//Storyboard Sound Samples

[TimingPoints]
80,333.333333333333,4,1,0,50,1,0
4746,-133.333333333333,4,1,0,50,0,0
5413,-100,4,1,0,50,0,0
8246,-100,4,1,0,50,0,0
9579,-133.333333333333,4,1,0,50,0,0
10413,-66.6666666666667,4,1,0,50,0,0
10746,-79.9999999999999,4,1,0,50,0,0
15413,-100,4,1,0,50,0,0
16079,-66.6666666666667,4,1,0,50,0,0
20246,-100,4,1,0,50,0,0
21079,-50,4,1,0,50,0,0
21413,-133.333333333333,4,1,0,70,0,1
22079,-66.6666666666667,4,1,0,70,0,1
22746,-200,4,1,0,70,0,1
23413,-66.6666666666667,4,1,0,70,0,1
24079,-133.333333333333,4,1,0,70,0,1
24746,-79.9999999999999,4,1,0,70,0,1
25413,-133.333333333333,4,1,0,70,0,1
25913,-79.9999999999999,4,1,0,70,0,1
26246,-66.6666666666667,4,1,0,70,0,1
26746,-133.333333333333,4,1,0,70,0,1
27413,-79.9999999999999,4,1,0,70,0,1
28079,-200,4,1,0,70,0,1
28746,-133.333333333333,4,1,0,70,0,1
29079,-100,4,1,0,70,0,1
29413,-79.9999999999999,4,1,0,70,0,1
30079,-66.6666666666667,4,1,0,70,0,1
30746,-100,4,1,0,50,0,0
32079,-133.333333333333,4,1,0,50,0,0
32746,-79.9999999999999,4,1,0,50,0,0
33413,-200,4,1,0,50,0,0
34079,-66.6666666666667,4,1,0,50,0,0
34746,-133.333333333333,4,1,0,50,0,0
35413,-79.9999999999999,4,1,0,50,0,0
36079,-133.333333333333,4,1,0,50,0,0
36746,-66.6666666666667,4,1,0,50,0,0
37413,-133.333333333333,4,1,0,50,0,0
38079,-79.9999999999999,4,1,0,50,0,0
38746,-133.333333333333,4,1,0,50,0,0
39413,-66.6666666666667,4,1,0,50,0,0
40079,-100,4,1,0,50,0,0
40746,-79.9999999999999,4,1,0,50,0,0
41413,-100,4,1,0,50,0,0
53079,-66.6666666666667,4,1,0,50,0,0
53413,-200,4,1,0,50,0,0
54079,-133.333333333333,4,1,0,50,0,0
56079,-79.9999999999999,4,1,0,50,0,0
56746,-66.6666666666667,4,1,0,50,0,0
57413,-133.333333333333,4,1,0,50,0,0
58079,-200,4,1,0,50,0,0
58413,-100,4,1,0,50,0,0
58746,-79.9999999999999,4,1,0,50,0,0
69079,-66.6666666666667,4,1,0,50,0,0
69413,-100,4,1,0,50,0,0
72079,-79.9999999999999,4,1,0,50,0,0
78913,-100,4,1,0,50,0,0
79746,-66.6666666666667,4,1,0,50,0,0
80079,-133.333333333333,4,1,0,70,0,1
80746,-100,4,1,0,70,0,1
81413,-79.9999999999999,4,1,0,70,0,1
82079,-100,4,1,0,70,0,1
82746,-133.333333333333,4,1,0,70,0,1
84079,-200,4,1,0,70,0,1
84746,-79.9999999999999,4,1,0,70,0,1
85413,-133.333333333333,4,1,0,70,0,1
86079,-100,4,1,0,70,0,1
86746,-79.9999999999999,4,1,0,70,0,1
87413,-100,4,1,0,70,0,1
88079,-133.333333333333,4,1,0,70,0,1
89413,-66.6666666666667,4,1,0,70,0,1
94746,-100,4,1,0,70,0,1
95413,-66.6666666666667,4,1,0,70,0,1
98746,-100,4,1,0,70,0,1
99413,-79.9999999999999,4,1,0,70,0,1
100079,-57.1428571428571,4,1,0,70,0,1
101079,-50,4,1,0,70,0,1
101413,-50,4,1,0,70,0,0

[HitObjects]
273,272,80,5,8,0:0:0:0:
383,216,246,1,0,0:0:0:0:
400,183,329,1,0,0:0:0:0:
405,146,412,1,8,0:0:0:0:
394,110,495,1,0,0:0:0:0:
371,81,579,1,0,0:0:0:0:
339,63,662,1,0,0:0:0:0:
302,55,746,6,2,L|290:121,1,37.5000001490115
271,274,913,1,8,0:0:0:0:
150,64,1079,2,2,L|169:120,1,37.5000001490115
252,296,1246,1,8,0:0:0:0:
63,146,1413,5,8,0:0:0:0:
92,169,1496,1,0,0:0:0:0:
121,192,1579,1,0,0:0:0:0:
361,336,1746,5,8,0:0:0:0:
360,298,1829,1,0,0:0:0:0:
359,261,1912,1,0,0:0:0:0:
356,41,2079,5,8,0:0:0:0:
326,63,2162,1,0,0:0:0:0:
296,86,2245,1,0,0:0:0:0:
194,266,2413,1,8,0:0:0:0:
363,179,2579,1,8,0:0:0:0:
198,92,2746,5,8,0:0:0:0:
313,295,2913,1,8,0:0:0:0:
347,307,2996,1,0,0:0:0:0:
384,299,3079,1,0,0:0:0:0:
471,146,3246,1,8,0:0:0:0:
168,131,3413,1,8,0:0:0:0:
290,94,3579,5,8,0:0:0:0:
123,201,3746,1,8,0:0:0:0:
95,226,3829,1,0,0:0:0:0:
67,251,3912,1,0,0:0:0:0:
173,349,4079,1,8,0:0:0:0:
339,272,4246,5,8,0:0:0:0:
365,244,4329,1,0,0:0:0:0:
380,210,4412,1,8,0:0:0:0:
385,173,4495,1,0,0:0:0:0:
377,137,4579,1,8,0:0:0:0:
358,104,4662,1,0,0:0:0:0:
259,85,4746,5,8,0:0:0:0:
254,112,4829,1,0,0:0:0:0:
250,140,4912,1,8,0:0:0:0:
248,168,4995,1,0,0:0:0:0:
247,192,5079,2,0,P|246:237|252:267,1,56.2500023692846,2|0,0:0|0:0,0:0:0:0:
397,338,5413,5,8,0:0:0:0:
362,45,5579,1,8,0:0:0:0:
125,221,5746,2,2,P|93:264|72:306,1,75.000000298023
406,223,6079,5,8,0:0:0:0:
260,56,6245,1,8,0:0:0:0:
186,264,6412,2,2,P|184:305|189:340,1,75.000000298023
349,123,6746,5,8,0:0:0:0:
182,121,6912,1,8,0:0:0:0:
261,267,7079,2,2,P|283:288|329:315,1,75.000000298023
269,106,7413,5,8,0:0:0:0:
179,193,7579,1,8,0:0:0:0:
299,228,7746,2,2,P|321:228|378:212,1,75.000000298023
457,88,8079,1,8,0:0:0:0:
217,77,8246,5,8,0:0:0:0:
173,86,8329,1,0,0:0:0:0:
132,104,8412,1,8,0:0:0:0:
95,131,8496,1,0,0:0:0:0:
66,164,8579,1,8,0:0:0:0:
189,334,8746,5,8,0:0:0:0:
351,88,8913,1,8,0:0:0:0:
426,173,9079,2,2,L|420:250,1,75.000000298023
346,324,9413,1,8,0:0:0:0:
181,264,9579,5,8,0:0:0:0:
155,251,9662,1,0,0:0:0:0:
130,239,9745,1,8,0:0:0:0:
91,162,9913,1,8,0:0:0:0:
273,121,10079,1,8,0:0:0:0:
201,102,10246,1,8,0:0:0:0:
410,92,10413,2,2,P|431:160|394:263,1,168.750007107854
240,319,10746,1,8,0:0:0:0:
83,151,10913,5,8,0:0:0:0:
100,107,10996,1,0,0:0:0:0:
131,73,11079,1,8,0:0:0:0:
172,51,11163,1,0,0:0:0:0:
219,46,11246,1,8,0:0:0:0:
478,133,11413,1,8,0:0:0:0:
297,39,11579,1,8,0:0:0:0:
404,215,11746,5,8,0:0:0:0:
418,259,11829,1,0,0:0:0:0:
433,303,11912,1,8,0:0:0:0:
160,305,12079,5,8,0:0:0:0:
113,304,12162,1,0,0:0:0:0:
63,304,12246,2,0,L|22:264,1,46.8750001862644,2|0,0:0|0:0,0:0:0:0:
191,105,12413,5,8,0:0:0:0:
226,74,12496,1,0,0:0:0:0:
261,39,12579,2,0,L|319:50,1,46.8750001862644,2|0,0:0|0:0,0:0:0:0:
419,175,12746,5,8,0:0:0:0:
427,221,12829,1,0,0:0:0:0:
439,268,12912,2,0,L|399:312,1,46.8750001862644,2|0,0:0|0:0,0:0:0:0:
104,214,13079,1,8,0:0:0:0:
293,325,13246,1,8,0:0:0:0:
122,103,13413,1,8,0:0:0:0:
323,248,13579,5,8,0:0:0:0:
362,273,13662,1,0,0:0:0:0:
401,299,13745,1,8,0:0:0:0:
472,128,13913,1,8,0:0:0:0:
220,71,14079,1,8,0:0:0:0:
45,227,14246,1,8,0:0:0:0:
268,299,14413,5,8,0:0:0:0:
313,311,14496,1,0,0:0:0:0:
358,324,14579,1,8,0:0:0:0:
464,174,14746,1,8,0:0:0:0:
283,94,14913,5,8,0:0:0:0:
241,71,14996,1,0,0:0:0:0:
200,48,15079,1,8,0:0:0:0:
166,78,15163,1,0,0:0:0:0:
131,110,15246,1,8,0:0:0:0:
97,142,15329,1,0,0:0:0:0:
139,223,15413,5,8,0:0:0:0:
160,253,15496,1,0,0:0:0:0:
191,274,15579,1,8,0:0:0:0:
227,282,15663,1,0,0:0:0:0:
265,279,15746,2,0,P|308:266|350:205,1,112.500000447034,2|0,0:0|0:0,0:0:0:0:
402,47,16079,5,8,0:0:0:0:
73,86,16246,1,8,0:0:0:0:
273,352,16413,2,2,P|334:356|394:331,1,112.500004738569
312,37,16746,5,8,0:0:0:0:
87,177,16913,1,8,0:0:0:0:
322,302,17080,2,2,P|368:284|413:230,1,112.500004738569
244,60,17413,5,8,0:0:0:0:
128,238,17580,1,8,0:0:0:0:
341,249,17747,2,2,P|368:221|379:141,1,112.500004738569
203,100,18079,5,8,0:0:0:0:
179,268,18246,1,8,0:0:0:0:
337,204,18413,2,2,P|347:175|320:96,1,112.500004738569
97,42,18746,1,8,0:0:0:0:
133,288,18913,5,8,0:0:0:0:
181,316,18996,1,0,0:0:0:0:
236,328,19079,1,8,0:0:0:0:
469,221,19246,1,8,0:0:0:0:
116,103,19413,1,8,0:0:0:0:
421,91,19579,1,0,0:0:0:0:
115,176,19746,1,8,0:0:0:0:
408,32,19913,1,0,0:0:0:0:
250,132,20079,5,8,0:0:0:0:
379,218,20246,1,8,0:0:0:0:
410,238,20329,1,0,0:0:0:0:
442,258,20412,1,8,0:0:0:0:
252,173,20579,1,8,0:0:0:0:
443,309,20746,1,8,0:0:0:0:
223,211,20913,1,8,0:0:0:0:
105,74,21079,2,0,P|98:200|145:301,1,225.000000894069,2|0,0:0|0:0,0:0:0:0:
357,319,21413,5,4,0:0:0:0:
372,295,21496,1,0,0:0:0:0:
383,269,21579,1,4,0:0:0:0:
390,242,21662,1,0,0:0:0:0:
391,214,21746,1,4,0:0:0:0:
387,186,21829,1,0,0:0:0:0:
379,159,21912,1,4,0:0:0:0:
365,135,21996,1,0,0:0:0:0:
352,118,22079,5,4,0:0:0:0:
296,107,22162,1,0,0:0:0:0:
240,101,22245,1,4,0:0:0:0:
184,101,22328,1,0,0:0:0:0:
129,111,22412,1,4,0:0:0:0:
80,138,22495,1,0,0:0:0:0:
53,186,22578,1,4,0:0:0:0:
54,242,22662,1,0,0:0:0:0:
68,296,22745,5,4,0:0:0:0:
87,296,22829,1,0,0:0:0:0:
106,296,22912,1,4,0:0:0:0:
125,296,22995,1,0,0:0:0:0:
143,295,23079,1,4,0:0:0:0:
162,292,23162,1,0,0:0:0:0:
180,289,23245,1,4,0:0:0:0:
204,282,23329,1,0,0:0:0:0:
221,276,23413,5,8,0:0:0:0:
218,219,23496,1,0,0:0:0:0:
231,165,23579,1,8,0:0:0:0:
259,116,23662,1,0,0:0:0:0:
299,77,23746,1,8,0:0:0:0:
426,160,23913,1,8,0:0:0:0:
446,212,23996,1,0,0:0:0:0:
469,263,24079,5,4,0:0:0:0:
449,283,24162,1,0,0:0:0:0:
427,300,24245,1,4,0:0:0:0:
402,313,24328,1,0,0:0:0:0:
376,323,24412,1,4,0:0:0:0:
348,328,24495,1,0,0:0:0:0:
320,329,24578,1,4,0:0:0:0:
292,326,24662,1,0,0:0:0:0:
272,319,24746,5,4,0:0:0:0:
293,277,24829,1,0,0:0:0:0:
302,231,24912,1,4,0:0:0:0:
298,184,24995,1,0,0:0:0:0:
282,141,25079,1,4,0:0:0:0:
255,103,25162,1,0,0:0:0:0:
219,73,25245,1,4,0:0:0:0:
176,55,25329,1,0,0:0:0:0:
129,51,25413,5,4,0:0:0:0:
124,78,25496,1,0,0:0:0:0:
121,106,25579,1,4,0:0:0:0:
121,134,25662,1,0,0:0:0:0:
122,162,25746,1,4,0:0:0:0:
126,190,25829,1,0,0:0:0:0:
158,267,25913,5,8,0:0:0:0:
196,292,25996,1,0,0:0:0:0:
242,296,26079,1,8,0:0:0:0:
284,277,26162,1,0,0:0:0:0:
317,341,26246,5,8,0:0:0:0:
369,321,26329,1,0,0:0:0:0:
405,279,26412,1,8,0:0:0:0:
417,226,26496,2,0,P|393:162|367:141,1,56.2500023692846
315,52,26746,5,4,0:0:0:0:
286,53,26829,1,0,0:0:0:0:
258,55,26912,1,4,0:0:0:0:
231,59,26995,1,0,0:0:0:0:
203,65,27079,1,4,0:0:0:0:
176,71,27162,1,0,0:0:0:0:
149,79,27245,1,4,0:0:0:0:
122,88,27329,1,0,0:0:0:0:
99,99,27413,5,4,0:0:0:0:
112,143,27496,1,0,0:0:0:0:
133,185,27579,1,4,0:0:0:0:
159,224,27662,1,0,0:0:0:0:
192,258,27746,1,4,0:0:0:0:
229,286,27829,1,0,0:0:0:0:
271,308,27912,1,4,0:0:0:0:
315,323,27996,1,0,0:0:0:0:
362,330,28079,5,4,0:0:0:0:
366,311,28162,1,0,0:0:0:0:
370,293,28245,1,4,0:0:0:0:
374,275,28328,1,0,0:0:0:0:
378,256,28412,1,4,0:0:0:0:
382,238,28495,1,0,0:0:0:0:
386,220,28578,1,4,0:0:0:0:
390,201,28662,1,0,0:0:0:0:
394,184,28746,5,4,0:0:0:0:
367,194,28829,1,0,0:0:0:0:
340,192,28912,1,4,0:0:0:0:
315,179,28995,1,0,0:0:0:0:
295,155,29079,1,4,0:0:0:0:
267,180,29162,1,0,0:0:0:0:
232,191,29245,1,4,0:0:0:0:
195,186,29328,1,0,0:0:0:0:
160,163,29413,5,4,0:0:0:0:
185,123,29496,1,0,0:0:0:0:
219,91,29579,1,4,0:0:0:0:
260,69,29662,1,0,0:0:0:0:
305,57,29746,1,4,0:0:0:0:
352,57,29829,1,0,0:0:0:0:
397,68,29912,1,4,0:0:0:0:
438,91,29996,1,0,0:0:0:0:
475,121,30079,5,4,0:0:0:0:
474,176,30162,1,0,0:0:0:0:
442,221,30245,1,4,0:0:0:0:
390,241,30328,1,0,0:0:0:0:
335,224,30413,1,4,0:0:0:0:
323,278,30496,1,0,0:0:0:0:
284,317,30579,1,4,0:0:0:0:
230,329,30662,1,0,0:0:0:0:
175,312,30746,6,2,P|141:288|117:241,1,75.000000298023
118,117,31079,1,8,0:0:0:0:
120,79,31162,1,0,0:0:0:0:
123,42,31245,1,8,0:0:0:0:
413,73,31413,2,0,L|371:101,1,37.5000001490115,2|0,0:0|0:0,0:0:0:0:
190,194,31579,2,0,L|259:178,1,37.5000001490115,2|0,0:0|0:0,0:0:0:0:
396,205,31746,2,0,P|416:262|368:324,1,112.500000447034,2|0,0:0|0:0,0:0:0:0:
224,320,32079,5,8,0:0:0:0:
195,320,32162,1,0,0:0:0:0:
167,320,32245,1,8,0:0:0:0:
139,320,32328,1,0,0:0:0:0:
111,320,32412,1,8,0:0:0:0:
92,308,32495,1,0,0:0:0:0:
83,281,32578,1,8,0:0:0:0:
74,254,32662,1,0,0:0:0:0:
64,224,32746,5,8,0:0:0:0:
110,224,32829,1,0,0:0:0:0:
157,224,32912,1,8,0:0:0:0:
204,224,32996,1,0,0:0:0:0:
251,224,33079,1,8,0:0:0:0:
279,188,33162,1,0,0:0:0:0:
305,149,33246,1,8,0:0:0:0:
340,128,33329,1,0,0:0:0:0:
384,128,33413,5,8,0:0:0:0:
384,146,33496,1,0,0:0:0:0:
384,165,33579,1,8,0:0:0:0:
384,184,33663,1,0,0:0:0:0:
384,203,33746,1,8,0:0:0:0:
384,221,33829,1,0,0:0:0:0:
384,240,33913,1,8,0:0:0:0:
384,259,33996,1,0,0:0:0:0:
384,288,34079,6,0,L|325:275,1,56.2500023692846,2|0,0:0|0:0,0:0:0:0:
36,199,34246,2,0,L|110:174,1,56.2500023692846,2|0,0:0|0:0,0:0:0:0:
290,36,34413,2,0,P|321:122|310:197,1,168.750007107854,2|0,0:0|0:0,0:0:0:0:
112,320,34746,5,8,0:0:0:0:
112,291,34829,1,0,0:0:0:0:
112,263,34912,1,8,0:0:0:0:
112,235,34996,1,0,0:0:0:0:
112,207,35079,1,8,0:0:0:0:
112,179,35162,1,0,0:0:0:0:
112,151,35246,1,8,0:0:0:0:
112,123,35329,1,0,0:0:0:0:
112,96,35413,5,8,0:0:0:0:
158,96,35496,1,0,0:0:0:0:
205,96,35579,1,8,0:0:0:0:
252,96,35663,1,0,0:0:0:0:
299,96,35746,1,8,0:0:0:0:
325,132,35829,1,0,0:0:0:0:
348,173,35913,1,8,0:0:0:0:
372,213,35996,1,0,0:0:0:0:
400,256,36079,5,8,0:0:0:0:
371,256,36162,1,0,0:0:0:0:
343,256,36245,1,8,0:0:0:0:
315,256,36329,1,0,0:0:0:0:
287,256,36412,1,8,0:0:0:0:
259,256,36495,1,0,0:0:0:0:
231,256,36579,1,8,0:0:0:0:
203,256,36662,1,0,0:0:0:0:
179,258,36746,6,0,L|132:206,1,56.2500023692846,2|0,0:0|0:0,0:0:0:0:
63,40,36913,2,0,L|138:37,1,56.2500023692846,2|0,0:0|0:0,0:0:0:0:
370,65,37079,1,8,0:0:0:0:
398,89,37162,1,0,0:0:0:0:
420,119,37245,1,8,0:0:0:0:
437,153,37329,1,0,0:0:0:0:
416,224,37413,5,8,0:0:0:0:
392,209,37496,1,0,0:0:0:0:
368,194,37579,1,8,0:0:0:0:
344,179,37663,1,0,0:0:0:0:
320,165,37746,1,8,0:0:0:0:
296,150,37829,1,0,0:0:0:0:
272,135,37913,1,8,0:0:0:0:
248,120,37996,1,0,0:0:0:0:
224,112,38079,5,8,0:0:0:0:
177,112,38162,1,0,0:0:0:0:
130,112,38245,1,8,0:0:0:0:
83,112,38329,1,0,0:0:0:0:
36,112,38412,1,8,0:0:0:0:
52,149,38495,1,0,0:0:0:0:
74,190,38579,1,8,0:0:0:0:
97,231,38662,1,0,0:0:0:0:
128,272,38746,5,8,0:0:0:0:
156,272,38829,1,0,0:0:0:0:
184,272,38912,1,8,0:0:0:0:
212,272,38996,1,0,0:0:0:0:
240,272,39079,1,8,0:0:0:0:
268,272,39162,1,0,0:0:0:0:
296,272,39246,1,8,0:0:0:0:
324,272,39329,1,0,0:0:0:0:
351,272,39413,6,0,L|384:216,1,56.2500023692846,2|0,0:0|0:0,0:0:0:0:
468,27,39579,2,0,L|391:65,1,56.2500023692846,2|0,0:0|0:0,0:0:0:0:
122,114,39746,2,0,P|106:207|140:302,1,168.750007107854,2|0,0:0|0:0,0:0:0:0:
272,336,40079,5,8,0:0:0:0:
291,304,40162,1,0,0:0:0:0:
311,272,40245,1,8,0:0:0:0:
331,240,40329,1,0,0:0:0:0:
351,208,40412,1,8,0:0:0:0:
371,177,40495,1,0,0:0:0:0:
391,145,40579,1,8,0:0:0:0:
411,113,40662,1,0,0:0:0:0:
432,80,40746,5,8,0:0:0:0:
385,80,40829,1,0,0:0:0:0:
338,80,40912,1,8,0:0:0:0:
291,80,40996,1,0,0:0:0:0:
244,80,41079,1,8,0:0:0:0:
219,115,41162,1,0,0:0:0:0:
194,156,41246,1,8,0:0:0:0:
109,298,41413,6,2,P|154:325|210:322,1,75.000000298023
368,305,41746,1,8,0:0:0:0:
404,295,41829,1,0,0:0:0:0:
440,285,41912,1,8,0:0:0:0:
448,47,42079,2,0,L|446:98,1,37.5000001490115,2|0,0:0|0:0,0:0:0:0:
407,221,42246,2,0,L|367:189,1,37.5000001490115,2|0,0:0|0:0,0:0:0:0:
149,55,42413,2,0,P|110:96|97:146,1,75.000000298023,2|0,0:0|0:0,0:0:0:0:
151,310,42746,5,8,0:0:0:0:
430,296,42913,1,8,0:0:0:0:
430,296,42996,1,0,0:0:0:0:
430,296,43079,2,0,L|367:245,1,75.000000298023,2|0,0:0|0:0,0:0:0:0:
154,95,43413,1,4,0:0:0:0:
283,328,43579,5,8,0:0:0:0:
283,328,43663,1,0,0:0:0:0:
283,328,43746,1,8,0:0:0:0:
283,328,43829,1,0,0:0:0:0:
283,328,43913,1,8,0:0:0:0:
195,77,44079,5,4,0:0:0:0:
449,176,44246,1,8,0:0:0:0:
449,176,44329,1,0,0:0:0:0:
449,176,44413,2,2,L|342:152,1,75.000000298023
107,123,44746,5,4,0:0:0:0:
335,258,44913,1,8,0:0:0:0:
370,269,44996,1,0,0:0:0:0:
406,281,45079,1,8,0:0:0:0:
453,60,45246,1,8,0:0:0:0:
153,267,45413,5,8,0:0:0:0:
164,231,45496,1,0,0:0:0:0:
183,199,45579,1,8,0:0:0:0:
208,171,45663,1,0,0:0:0:0:
242,152,45746,2,2,P|294:152|346:178,1,75.000000298023
469,312,46079,5,8,0:0:0:0:
389,69,46246,1,0,0:0:0:0:
478,262,46413,1,8,0:0:0:0:
331,44,46579,1,0,0:0:0:0:
345,188,46746,5,8,0:0:0:0:
149,103,46913,1,0,0:0:0:0:
381,155,47079,1,8,0:0:0:0:
115,146,47246,1,0,0:0:0:0:
410,88,47413,5,8,0:0:0:0:
437,112,47496,1,0,0:0:0:0:
457,144,47579,1,8,0:0:0:0:
468,180,47663,1,0,0:0:0:0:
468,217,47746,1,8,0:0:0:0:
248,319,47913,1,8,0:0:0:0:
133,163,48079,6,0,P|175:138|230:118,1,75.000000298023,2|0,0:0|0:0,0:0:0:0:
215,196,48302,1,4,0:0:0:0:
372,117,48413,1,8,0:0:0:0:
176,270,48579,1,8,0:0:0:0:
124,131,48746,6,0,P|166:106|221:86,1,75.000000298023,2|0,0:0|0:0,0:0:0:0:
206,164,48969,1,4,0:0:0:0:
363,85,49080,1,8,0:0:0:0:
136,271,49246,5,8,0:0:0:0:
112,300,49329,1,0,0:0:0:0:
88,329,49412,1,8,0:0:0:0:
310,313,49579,5,8,0:0:0:0:
347,311,49662,1,0,0:0:0:0:
384,309,49745,1,8,0:0:0:0:
415,88,49913,1,8,0:0:0:0:
85,112,50079,5,4,0:0:0:0:
365,160,50246,1,8,0:0:0:0:
402,158,50329,1,0,0:0:0:0:
439,156,50412,1,8,0:0:0:0:
421,316,50579,1,8,0:0:0:0:
133,163,50746,6,0,P|175:138|230:118,1,75.000000298023,2|0,0:0|0:0,0:0:0:0:
215,196,50969,1,4,0:0:0:0:
372,117,51080,1,8,0:0:0:0:
176,270,51246,1,8,0:0:0:0:
124,131,51413,6,0,P|166:106|221:86,1,75.000000298023,2|0,0:0|0:0,0:0:0:0:
206,164,51636,1,4,0:0:0:0:
363,85,51747,1,8,0:0:0:0:
136,271,51913,1,8,0:0:0:0:
319,334,52079,5,8,0:0:0:0:
338,217,52246,1,0,0:0:0:0:
279,318,52413,1,8,0:0:0:0:
407,220,52579,1,0,0:0:0:0:
177,319,52746,5,8,0:0:0:0:
140,310,52829,1,0,0:0:0:0:
109,289,52912,1,8,0:0:0:0:
88,258,52996,1,0,0:0:0:0:
70,219,53079,2,2,P|75:140|98:93,1,112.500004738569
331,40,53413,5,8,0:0:0:0:
331,40,53496,1,0,0:0:0:0:
331,40,53579,2,0,L|348:71,1,18.7500000745057,2|0,0:0|0:0,0:0:0:0:
158,53,53746,5,8,0:0:0:0:
158,53,53829,1,0,0:0:0:0:
158,53,53912,2,0,L|141:84,1,18.7500000745057,2|0,0:0|0:0,0:0:0:0:
311,115,54079,5,8,0:0:0:0:
327,134,54163,1,0,0:0:0:0:
342,150,54246,2,0,L|375:185,1,28.1250011846423,2|0,0:0|0:0,0:0:0:0:
195,115,54413,5,8,0:0:0:0:
179,134,54497,1,0,0:0:0:0:
164,150,54580,2,0,L|131:185,1,28.1250011846423,2|0,0:0|0:0,0:0:0:0:
339,225,54746,5,8,0:0:0:0:
361,250,54829,1,0,0:0:0:0:
384,276,54913,2,0,L|417:312,1,28.1250011846423,2|0,0:0|0:0,0:0:0:0:
173,225,55079,5,8,0:0:0:0:
151,250,55162,1,0,0:0:0:0:
128,276,55246,2,0,L|95:312,1,28.1250011846423,2|0,0:0|0:0,0:0:0:0:
325,152,55413,5,4,0:0:0:0:
367,154,55496,1,0,0:0:0:0:
411,158,55579,2,0,L|458:160,1,28.1250011846423,2|0,0:0|0:0,0:0:0:0:
187,152,55746,5,4,0:0:0:0:
145,154,55829,1,0,0:0:0:0:
101,158,55912,2,0,L|54:160,1,28.1250011846423,2|0,0:0|0:0,0:0:0:0:
421,260,56079,5,4,0:0:0:0:
385,290,56162,1,0,0:0:0:0:
344,313,56245,1,4,0:0:0:0:
300,327,56329,1,0,0:0:0:0:
253,332,56412,1,4,0:0:0:0:
207,328,56495,1,0,0:0:0:0:
162,313,56579,1,4,0:0:0:0:
121,291,56662,1,0,0:0:0:0:
84,262,56746,5,4,0:0:0:0:
140,257,56829,1,0,0:0:0:0:
195,246,56912,1,4,0:0:0:0:
248,227,56996,1,0,0:0:0:0:
298,202,57079,1,4,0:0:0:0:
345,171,57162,1,0,0:0:0:0:
387,134,57246,1,4,0:0:0:0:
424,92,57329,1,0,0:0:0:0:
457,42,57413,6,2,L|285:67,1,168.750007107854
89,109,58079,5,8,0:0:0:0:
94,126,58162,1,0,0:0:0:0:
100,144,58245,1,8,0:0:0:0:
206,336,58413,5,8,0:0:0:0:
217,300,58496,1,0,0:0:0:0:
229,264,58579,1,8,0:0:0:0:
427,58,58746,5,8,0:0:0:0:
457,256,58913,1,4,0:0:0:0:
434,296,58996,1,0,0:0:0:0:
400,328,59079,1,4,0:0:0:0:
356,345,59163,1,0,0:0:0:0:
310,348,59246,1,4,0:0:0:0:
100,144,59413,1,8,0:0:0:0:
228,331,59579,1,8,0:0:0:0:
162,69,59746,5,4,0:0:0:0:
201,43,59829,1,0,0:0:0:0:
247,36,59912,1,4,0:0:0:0:
432,176,60079,5,4,0:0:0:0:
411,218,60162,1,0,0:0:0:0:
390,260,60246,2,0,L|352:317,1,46.8750001862644,2|0,0:0|0:0,0:0:0:0:
174,325,60413,5,4,0:0:0:0:
139,292,60496,1,0,0:0:0:0:
106,260,60579,2,0,L|51:201,1,46.8750001862644,2|0,0:0|0:0,0:0:0:0:
188,100,60746,5,4,0:0:0:0:
234,92,60829,1,0,0:0:0:0:
282,85,60913,2,0,L|330:78,1,46.8750001862644,2|0,0:0|0:0,0:0:0:0:
343,339,61079,5,8,0:0:0:0:
404,101,61246,1,8,0:0:0:0:
394,337,61413,1,8,0:0:0:0:
347,106,61579,5,4,0:0:0:0:
331,61,61662,1,0,0:0:0:0:
316,17,61745,1,4,0:0:0:0:
96,84,61913,1,8,0:0:0:0:
281,290,62079,1,8,0:0:0:0:
60,116,62246,1,8,0:0:0:0:
321,245,62413,5,4,0:0:0:0:
365,260,62496,1,0,0:0:0:0:
409,275,62579,1,4,0:0:0:0:
420,63,62746,1,8,0:0:0:0:
205,83,62913,5,4,0:0:0:0:
170,114,62996,1,0,0:0:0:0:
141,151,63079,1,4,0:0:0:0:
119,192,63163,1,0,0:0:0:0:
104,237,63246,1,4,0:0:0:0:
96,283,63329,1,0,0:0:0:0:
208,338,63413,5,4,0:0:0:0:
254,329,63496,1,0,0:0:0:0:
297,313,63579,1,4,0:0:0:0:
338,289,63663,1,0,0:0:0:0:
372,258,63746,2,0,P|424:219|450:176,1,93.7500003725287,2|0,0:0|0:0,0:0:0:0:
290,44,64079,5,8,0:0:0:0:
44,180,64246,1,8,0:0:0:0:
288,326,64413,2,2,P|380:315|415:295,1,93.7500003725287
239,56,64746,5,8,0:0:0:0:
73,247,64913,1,8,0:0:0:0:
324,295,65080,2,2,P|398:257|421:230,1,93.7500003725287
200,82,65413,5,8,0:0:0:0:
118,294,65580,1,8,0:0:0:0:
345,258,65747,2,2,P|396:203|407:173,1,93.7500003725287
175,116,66079,5,8,0:0:0:0:
171,321,66246,1,8,0:0:0:0:
351,220,66413,2,2,P|378:158|378:129,1,93.7500003725287
206,29,66746,5,8,0:0:0:0:
410,225,66913,1,4,0:0:0:0:
444,256,66996,1,0,0:0:0:0:
479,288,67079,1,4,0:0:0:0:
472,60,67246,1,8,0:0:0:0:
86,193,67413,5,8,0:0:0:0:
392,124,67579,1,0,0:0:0:0:
62,132,67746,1,8,0:0:0:0:
423,167,67913,1,0,0:0:0:0:
192,120,68079,5,8,0:0:0:0:
400,240,68246,1,4,0:0:0:0:
439,264,68329,1,0,0:0:0:0:
479,288,68412,1,4,0:0:0:0:
458,64,68579,1,8,0:0:0:0:
181,200,68746,5,4,0:0:0:0:
142,225,68829,1,0,0:0:0:0:
129,269,68912,1,4,0:0:0:0:
148,311,68995,1,0,0:0:0:0:
190,329,69079,2,2,L|314:347,1,112.500004738569
438,200,69413,1,4,0:0:0:0:
232,70,70746,5,4,0:0:0:0:
198,87,70829,1,0,0:0:0:0:
160,104,70913,2,0,L|117:129,1,37.5000001490115,2|0,0:0|0:0,0:0:0:0:
355,164,71079,5,4,0:0:0:0:
383,188,71162,1,0,0:0:0:0:
414,214,71246,2,0,L|448:243,1,37.5000001490115,2|0,0:0|0:0,0:0:0:0:
153,255,71413,5,4,0:0:0:0:
124,279,71496,1,0,0:0:0:0:
96,308,71579,2,0,L|67:335,1,37.5000001490115,2|0,0:0|0:0,0:0:0:0:
442,338,71746,1,8,0:0:0:0:
316,223,71913,1,8,0:0:0:0:
302,308,72079,5,8,0:0:0:0:
158,121,72246,1,4,0:0:0:0:
118,81,72329,1,0,0:0:0:0:
78,41,72412,1,4,0:0:0:0:
331,38,72579,1,8,0:0:0:0:
190,258,72746,5,8,0:0:0:0:
382,84,72913,1,8,0:0:0:0:
120,274,73079,1,4,0:0:0:0:
86,306,73162,1,0,0:0:0:0:
52,339,73245,1,4,0:0:0:0:
40,130,73413,5,8,0:0:0:0:
218,106,73579,1,4,0:0:0:0:
250,139,73662,1,0,0:0:0:0:
291,161,73745,1,4,0:0:0:0:
337,168,73828,1,0,0:0:0:0:
384,161,73912,1,4,0:0:0:0:
425,140,73995,1,0,0:0:0:0:
438,258,74079,5,4,0:0:0:0:
395,278,74162,1,0,0:0:0:0:
353,299,74245,1,4,0:0:0:0:
311,320,74328,1,0,0:0:0:0:
271,339,74413,2,2,P|214:327|164:284,1,93.7500003725287
192,42,74746,5,8,0:0:0:0:
417,211,74913,1,8,0:0:0:0:
159,322,75079,2,2,P|108:306|58:253,1,93.7500003725287
247,29,75413,5,8,0:0:0:0:
400,265,75580,1,8,0:0:0:0:
120,280,75746,2,2,P|77:248|49:181,1,93.7500003725287
303,36,76079,5,8,0:0:0:0:
366,310,76246,1,8,0:0:0:0:
98,229,76412,2,2,P|69:184|65:111,1,93.7500003725287
353,62,76746,5,8,0:0:0:0:
319,341,76913,1,8,0:0:0:0:
94,172,77079,2,2,P|83:120|104:51,1,93.7500003725287
394,98,77413,5,8,0:0:0:0:
151,291,77579,1,4,0:0:0:0:
111,315,77662,1,0,0:0:0:0:
71,340,77745,1,4,0:0:0:0:
71,82,77913,1,8,0:0:0:0:
393,314,78079,5,8,0:0:0:0:
217,48,78246,1,0,0:0:0:0:
439,294,78413,1,8,0:0:0:0:
177,70,78579,1,0,0:0:0:0:
303,191,78746,5,8,0:0:0:0:
192,285,78913,1,4,0:0:0:0:
165,311,78996,1,0,0:0:0:0:
139,338,79079,1,4,0:0:0:0:
82,167,79246,1,8,0:0:0:0:
278,62,79413,5,4,0:0:0:0:
313,74,79496,1,0,0:0:0:0:
344,94,79579,1,4,0:0:0:0:
371,121,79662,1,0,0:0:0:0:
392,151,79746,2,2,P|395:222|377:311,1,112.500004738569
169,328,80079,5,4,0:0:0:0:
141,325,80162,1,0,0:0:0:0:
115,314,80245,1,4,0:0:0:0:
95,295,80328,1,0,0:0:0:0:
83,270,80412,1,4,0:0:0:0:
80,242,80495,1,0,0:0:0:0:
87,215,80578,1,4,0:0:0:0:
102,191,80662,1,0,0:0:0:0:
120,179,80746,5,4,0:0:0:0:
144,206,80829,1,0,0:0:0:0:
178,221,80912,1,4,0:0:0:0:
216,219,80995,1,0,0:0:0:0:
248,202,81079,1,4,0:0:0:0:
271,172,81162,1,0,0:0:0:0:
278,135,81246,1,4,0:0:0:0:
268,99,81329,1,0,0:0:0:0:
244,70,81413,5,4,0:0:0:0:
282,44,81496,1,0,0:0:0:0:
328,33,81579,1,4,0:0:0:0:
374,38,81662,1,0,0:0:0:0:
416,59,81746,1,4,0:0:0:0:
447,94,81829,1,0,0:0:0:0:
465,137,81912,1,4,0:0:0:0:
468,183,81996,1,0,0:0:0:0:
453,230,82079,5,4,0:0:0:0:
433,198,82162,1,0,0:0:0:0:
403,175,82245,1,4,0:0:0:0:
368,162,82328,1,0,0:0:0:0:
331,163,82412,1,4,0:0:0:0:
296,175,82495,1,0,0:0:0:0:
266,198,82578,1,4,0:0:0:0:
247,230,82662,1,0,0:0:0:0:
240,266,82746,5,4,0:0:0:0:
212,268,82829,1,0,0:0:0:0:
184,265,82912,1,4,0:0:0:0:
157,256,82995,1,0,0:0:0:0:
133,242,83079,1,4,0:0:0:0:
112,223,83162,1,0,0:0:0:0:
96,200,83245,1,4,0:0:0:0:
84,175,83329,1,0,0:0:0:0:
78,151,83413,5,4,0:0:0:0:
106,152,83496,1,0,0:0:0:0:
134,151,83579,1,4,0:0:0:0:
162,149,83662,1,0,0:0:0:0:
190,145,83746,1,4,0:0:0:0:
217,139,83829,1,0,0:0:0:0:
244,131,83912,1,4,0:0:0:0:
271,122,83996,1,0,0:0:0:0:
295,108,84079,5,4,0:0:0:0:
303,124,84162,1,0,0:0:0:0:
311,141,84245,1,4,0:0:0:0:
319,158,84328,1,0,0:0:0:0:
327,175,84412,1,4,0:0:0:0:
335,192,84495,1,0,0:0:0:0:
343,209,84578,1,4,0:0:0:0:
351,226,84662,1,0,0:0:0:0:
379,287,84746,5,8,0:0:0:0:
334,301,84829,1,0,0:0:0:0:
288,320,84913,2,0,L|240:337,1,46.8750001862644,2|0,0:0|0:0,0:0:0:0:
231,213,85079,5,8,0:0:0:0:
189,191,85162,1,0,0:0:0:0:
148,168,85246,2,0,L|104:136,1,46.8750001862644,2|0,0:0|0:0,0:0:0:0:
280,73,85413,5,4,0:0:0:0:
307,68,85496,1,0,0:0:0:0:
335,67,85579,1,4,0:0:0:0:
363,71,85662,1,0,0:0:0:0:
390,79,85746,1,4,0:0:0:0:
415,92,85829,1,0,0:0:0:0:
438,108,85912,1,4,0:0:0:0:
458,128,85996,1,0,0:0:0:0:
470,146,86079,5,4,0:0:0:0:
432,144,86162,1,0,0:0:0:0:
395,150,86245,1,4,0:0:0:0:
361,165,86328,1,0,0:0:0:0:
330,186,86412,1,4,0:0:0:0:
305,214,86495,1,0,0:0:0:0:
287,247,86578,1,4,0:0:0:0:
276,282,86662,1,0,0:0:0:0:
271,322,86746,5,4,0:0:0:0:
276,275,86829,1,0,0:0:0:0:
273,228,86912,1,4,0:0:0:0:
261,183,86995,1,0,0:0:0:0:
239,142,87079,1,4,0:0:0:0:
210,105,87162,1,0,0:0:0:0:
174,75,87245,1,4,0:0:0:0:
133,53,87329,1,0,0:0:0:0:
88,39,87413,5,4,0:0:0:0:
85,76,87496,1,0,0:0:0:0:
87,113,87579,1,4,0:0:0:0:
94,150,87662,1,0,0:0:0:0:
105,186,87746,1,4,0:0:0:0:
119,220,87829,1,0,0:0:0:0:
138,253,87912,1,4,0:0:0:0:
161,283,87996,1,0,0:0:0:0:
188,311,88079,5,4,0:0:0:0:
212,297,88162,1,0,0:0:0:0:
235,280,88245,1,4,0:0:0:0:
254,260,88328,1,0,0:0:0:0:
270,237,88412,1,4,0:0:0:0:
282,211,88495,1,0,0:0:0:0:
289,184,88578,1,4,0:0:0:0:
292,156,88662,1,0,0:0:0:0:
291,127,88746,5,4,0:0:0:0:
318,120,88829,1,0,0:0:0:0:
346,120,88912,1,4,0:0:0:0:
373,126,88995,1,0,0:0:0:0:
398,139,89079,1,4,0:0:0:0:
419,158,89162,1,0,0:0:0:0:
435,181,89245,1,4,0:0:0:0:
445,207,89329,1,0,0:0:0:0:
451,234,89413,5,8,0:0:0:0:
398,254,89496,1,0,0:0:0:0:
343,264,89579,1,8,0:0:0:0:
287,264,89662,1,0,0:0:0:0:
232,254,89746,1,8,0:0:0:0:
179,233,89829,1,0,0:0:0:0:
132,203,89912,1,8,0:0:0:0:
92,57,90079,6,0,P|179:48|270:64,1,168.750007107854,2|0,0:0|0:0,0:0:0:0:
389,317,90413,2,0,P|393:256|365:120,1,168.750007107854,2|0,0:0|0:0,0:0:0:0:
212,121,90746,5,4,0:0:0:0:
160,141,90829,1,0,0:0:0:0:
128,187,90912,1,4,0:0:0:0:
127,242,90995,1,0,0:0:0:0:
156,289,91079,1,4,0:0:0:0:
206,313,91162,1,0,0:0:0:0:
260,307,91246,2,0,L|277:207,1,56.2500023692846,2|0,0:0|0:0,0:0:0:0:
183,96,91413,5,4,0:0:0:0:
131,116,91496,1,0,0:0:0:0:
99,162,91579,1,4,0:0:0:0:
98,217,91662,1,0,0:0:0:0:
127,264,91746,1,4,0:0:0:0:
177,288,91829,1,0,0:0:0:0:
231,282,91913,2,0,L|248:182,1,56.2500023692846,2|0,0:0|0:0,0:0:0:0:
323,90,92079,5,4,0:0:0:0:
378,85,92162,1,0,0:0:0:0:
429,107,92245,1,4,0:0:0:0:
463,151,92328,1,0,0:0:0:0:
472,206,92412,1,4,0:0:0:0:
454,259,92495,1,0,0:0:0:0:
410,294,92579,2,0,L|374:242,1,56.2500023692846,2|0,0:0|0:0,0:0:0:0:
303,132,92746,5,4,0:0:0:0:
358,127,92829,1,0,0:0:0:0:
409,149,92912,1,4,0:0:0:0:
443,193,92995,1,0,0:0:0:0:
452,248,93079,1,4,0:0:0:0:
434,301,93162,1,0,0:0:0:0:
390,336,93246,2,0,L|354:284,1,56.2500023692846,2|0,0:0|0:0,0:0:0:0:
233,84,93413,5,4,0:0:0:0:
186,53,93496,1,0,0:0:0:0:
131,57,93579,1,4,0:0:0:0:
90,94,93662,1,0,0:0:0:0:
81,149,93746,1,4,0:0:0:0:
107,198,93829,1,0,0:0:0:0:
153,219,93913,2,0,L|197:173,1,56.2500023692846,2|0,0:0|0:0,0:0:0:0:
243,130,94079,5,4,0:0:0:0:
196,99,94162,1,0,0:0:0:0:
141,103,94245,1,4,0:0:0:0:
100,140,94328,1,0,0:0:0:0:
91,195,94412,1,4,0:0:0:0:
117,244,94495,1,0,0:0:0:0:
163,265,94579,2,0,L|207:219,1,56.2500023692846,2|0,0:0|0:0,0:0:0:0:
371,97,94746,5,8,0:0:0:0:
394,126,94829,1,0,0:0:0:0:
409,160,94912,1,8,0:0:0:0:
416,197,94995,1,0,0:0:0:0:
412,234,95079,1,8,0:0:0:0:
400,269,95162,1,0,0:0:0:0:
378,300,95245,1,8,0:0:0:0:
350,324,95329,1,0,0:0:0:0:
320,341,95413,5,8,0:0:0:0:
264,345,95496,1,0,0:0:0:0:
208,336,95579,1,8,0:0:0:0:
157,313,95662,1,0,0:0:0:0:
112,279,95746,1,8,0:0:0:0:
77,235,95829,1,0,0:0:0:0:
54,184,95913,2,0,L|114:150,1,56.2500023692846,2|0,0:0|0:0,0:0:0:0:
323,54,96079,5,4,0:0:0:0:
378,54,96162,1,0,0:0:0:0:
427,81,96245,1,4,0:0:0:0:
456,128,96328,1,0,0:0:0:0:
460,184,96412,1,4,0:0:0:0:
437,234,96495,1,0,0:0:0:0:
390,269,96579,2,0,L|346:225,1,56.2500023692846,2|0,0:0|0:0,0:0:0:0:
314,100,96746,5,4,0:0:0:0:
369,100,96829,1,0,0:0:0:0:
418,127,96912,1,4,0:0:0:0:
447,174,96995,1,0,0:0:0:0:
451,230,97079,1,4,0:0:0:0:
428,280,97162,1,0,0:0:0:0:
381,315,97246,2,0,L|337:271,1,56.2500023692846,2|0,0:0|0:0,0:0:0:0:
170,92,97413,5,4,0:0:0:0:
116,108,97496,1,0,0:0:0:0:
79,149,97579,1,4,0:0:0:0:
67,203,97662,1,0,0:0:0:0:
83,257,97746,1,4,0:0:0:0:
124,294,97829,1,0,0:0:0:0:
179,307,97913,2,0,L|195:250,1,56.2500023692846,2|0,0:0|0:0,0:0:0:0:
172,34,98079,5,4,0:0:0:0:
118,50,98162,1,0,0:0:0:0:
81,91,98245,1,4,0:0:0:0:
69,145,98328,1,0,0:0:0:0:
85,199,98412,1,4,0:0:0:0:
126,236,98495,1,0,0:0:0:0:
181,249,98579,2,0,L|197:192,1,56.2500023692846,2|0,0:0|0:0,0:0:0:0:
312,50,98746,5,8,0:0:0:0:
345,66,98829,1,0,0:0:0:0:
374,89,98912,1,8,0:0:0:0:
397,119,98995,1,0,0:0:0:0:
413,153,99079,1,8,0:0:0:0:
421,189,99162,1,0,0:0:0:0:
420,227,99245,1,8,0:0:0:0:
411,263,99329,1,0,0:0:0:0:
395,298,99413,5,8,0:0:0:0:
374,255,99496,1,0,0:0:0:0:
347,217,99579,1,8,0:0:0:0:
315,183,99662,1,0,0:0:0:0:
278,154,99746,1,8,0:0:0:0:
237,131,99829,1,0,0:0:0:0:
191,112,99913,2,0,L|136:89,1,46.8750001862644,2|0,0:0|0:0,0:0:0:0:
118,204,100079,5,4,0:0:0:0:
100,264,100162,1,8,0:0:0:0:
140,314,100245,1,4,0:0:0:0:
203,311,100328,1,8,0:0:0:0:
237,247,100413,5,4,0:0:0:0:
219,307,100496,1,8,0:0:0:0:
259,357,100579,1,4,0:0:0:0:
322,354,100662,1,8,0:0:0:0:
367,296,100746,5,4,0:0:0:0:
430,292,100829,1,8,0:0:0:0:
464,239,100912,1,4,0:0:0:0:
440,180,100995,1,8,0:0:0:0:
380,165,101079,5,4,0:0:0:0:
325,114,101162,1,8,0:0:0:0:
258,79,101245,1,4,0:0:0:0:
185,63,101328,1,8,0:0:0:0:
111,68,101412,5,4,0:0:0:0:
