osu file format v14

[General]
AudioFilename: audio.mp3
AudioLeadIn: 0
PreviewTime: 41032
Countdown: 0
SampleSet: None
StackLeniency: 0.7
Mode: 3
LetterboxInBreaks: 0
SpecialStyle: 0
WidescreenStoryboard: 0

[Editor]
DistanceSpacing: 0.8
BeatDivisor: 3
GridSize: 8
TimelineZoom: 1.4

[Metadata]
Title:Chiptune & Baroque
TitleUnicode:Chiptune & Baroque
Artist:Thaehan
ArtistUnicode:Thaehan
Creator:Raveille
Version:NM
Source:osu!
Tags:featured artist bwa electronic hydria 8 bit 8-bit
BeatmapID:1249383
BeatmapSetID:590323

[Difficulty]
HPDrainRate:7.5
CircleSize:4
OverallDifficulty:7.5
ApproachRate:5
SliderMultiplier:1.4
SliderTickRate:1

[Events]
//Background and Video events
0,0,"chiptunebaroque.png",0,0
//Break Periods
//Storyboard Layer 0 (Background)
//Storyboard Layer 1 (Fail)
//Storyboard Layer 2 (Pass)
//Storyboard Layer 3 (Foreground)
//Storyboard Sound Samples

[TimingPoints]
232,300,4,3,1,10,1,0
41032,-100,4,3,1,30,0,1
50332,-100,4,3,1,30,0,0
50632,-100,4,3,1,30,0,1
59032,-100,4,3,1,10,0,0

[HitObjects]
448,192,232,5,0,0:0:0:0:
320,192,432,1,0,0:0:0:0:
64,192,532,1,0,0:0:0:0:
320,192,732,1,0,0:0:0:0:
192,192,832,1,8,0:0:0:0:
64,192,1032,1,0,0:0:0:0:
320,192,1132,1,0,0:0:0:0:
192,192,1332,1,0,0:0:0:0:
448,192,1432,1,0,0:0:0:0:
320,192,1632,1,0,0:0:0:0:
64,192,1732,1,0,0:0:0:0:
448,192,1932,1,0,0:0:0:0:
64,192,2032,1,8,0:0:0:0:
448,192,2332,128,0,2632:0:0:0:0:
192,192,2632,1,0,0:0:0:0:
320,192,2832,1,0,0:0:0:0:
64,192,2932,1,0,0:0:0:0:
192,192,3132,1,0,0:0:0:0:
448,192,3232,1,8,0:0:0:0:
320,192,3432,1,0,0:0:0:0:
64,192,3532,1,0,0:0:0:0:
448,192,3732,1,0,0:0:0:0:
192,192,3832,1,0,0:0:0:0:
64,192,4032,1,0,0:0:0:0:
192,192,4132,1,0,0:0:0:0:
320,192,4232,1,0,0:0:0:0:
448,192,4332,1,0,0:0:0:0:
64,192,4432,1,8,0:0:0:0:
320,192,4732,128,0,5032:0:0:0:0:
64,192,5032,128,0,5332:0:0:0:0:
320,192,5332,128,0,5632:0:0:0:0:
192,192,5632,128,0,5932:0:0:0:0:
64,192,5632,1,8,0:0:0:0:
448,192,5932,128,0,6232:0:0:0:0:
64,192,6232,1,0,0:0:0:0:
448,192,6432,1,0,0:0:0:0:
320,192,6532,1,0,0:0:0:0:
192,192,6632,1,0,0:0:0:0:
64,192,6732,1,0,0:0:0:0:
448,192,6832,1,8,0:0:0:0:
64,192,7132,128,0,7432:0:0:0:0:
320,192,7332,1,0,0:0:0:0:
448,192,7432,128,0,7732:0:0:0:0:
192,192,7732,128,0,8032:0:0:0:0:
320,192,8032,128,0,8332:0:0:0:0:
448,192,8032,1,8,0:0:0:0:
64,192,8332,128,0,8632:0:0:0:0:
320,192,8632,128,0,8932:0:0:0:0:
192,192,8932,128,0,9232:0:0:0:0:
448,192,9232,128,0,9532:0:0:0:0:
64,192,9232,1,8,0:0:0:0:
192,192,9532,128,0,9832:0:0:0:0:
320,192,9832,1,0,0:0:0:0:
448,192,10032,1,0,0:0:0:0:
192,192,10132,1,0,0:0:0:0:
64,192,10332,1,0,0:0:0:0:
320,192,10432,1,8,0:0:0:0:
448,192,10632,1,0,0:0:0:0:
192,192,10732,1,0,0:0:0:0:
320,192,10932,1,0,0:0:0:0:
64,192,11032,1,0,0:0:0:0:
448,192,11232,1,0,0:0:0:0:
192,192,11332,1,0,0:0:0:0:
320,192,11532,1,0,0:0:0:0:
64,192,11632,1,8,0:0:0:0:
192,192,11932,128,0,12232:0:0:0:0:
448,192,12232,1,0,0:0:0:0:
320,192,12432,1,0,0:0:0:0:
64,192,12532,1,0,0:0:0:0:
448,192,12732,1,0,0:0:0:0:
192,192,12832,1,8,0:0:0:0:
64,192,13032,1,0,0:0:0:0:
320,192,13132,1,0,0:0:0:0:
192,192,13332,1,0,0:0:0:0:
448,192,13432,1,0,0:0:0:0:
64,192,13632,1,0,0:0:0:0:
192,192,13732,1,0,0:0:0:0:
320,192,13832,1,0,0:0:0:0:
448,192,13932,1,0,0:0:0:0:
64,192,14032,1,8,0:0:0:0:
448,192,14332,128,0,14632:0:0:0:0:
64,192,14632,128,0,14932:0:0:0:0:
320,192,14932,128,0,15232:0:0:0:0:
192,192,15232,128,0,15532:0:0:0:0:
64,192,15232,1,8,0:0:0:0:
448,192,15532,128,0,15832:0:0:0:0:
192,192,15832,1,0,0:0:0:0:
448,192,16032,1,0,0:0:0:0:
320,192,16132,1,0,0:0:0:0:
192,192,16232,1,0,0:0:0:0:
64,192,16332,1,0,0:0:0:0:
448,192,16432,1,8,0:0:0:0:
64,192,16732,128,0,17032:0:0:0:0:
320,192,16932,1,0,0:0:0:0:
448,192,17032,128,0,17332:0:0:0:0:
192,192,17332,128,0,17632:0:0:0:0:
320,192,17632,128,0,17932:0:0:0:0:
448,192,17632,1,8,0:0:0:0:
64,192,17932,128,0,18232:0:0:0:0:
320,192,18232,128,0,18532:0:0:0:0:
448,192,18532,128,0,18832:0:0:0:0:
320,192,18832,128,0,19132:0:0:0:0:
64,192,18832,1,8,0:0:0:0:
192,192,19132,128,0,19432:0:0:0:0:
64,192,19432,128,0,20032:0:0:0:0:
448,192,19432,1,0,0:0:0:0:
192,192,20032,128,0,20632:0:0:0:0:
448,192,20032,1,0,0:0:0:0:
320,192,20632,128,0,21232:0:0:0:0:
64,192,20632,1,0,0:0:0:0:
448,192,21232,128,0,21832:0:0:0:0:
64,192,21232,1,0,0:0:0:0:
192,192,21532,1,8,0:0:0:0:
64,192,21832,5,0,0:0:0:0:
192,192,22032,1,0,0:0:0:0:
448,192,22132,1,0,0:0:0:0:
192,192,22332,1,0,0:0:0:0:
64,192,22432,1,8,0:0:0:0:
448,192,22632,1,0,0:0:0:0:
192,192,22732,1,0,0:0:0:0:
320,192,22932,1,0,0:0:0:0:
64,192,23032,1,0,0:0:0:0:
192,192,23232,1,0,0:0:0:0:
448,192,23332,1,0,0:0:0:0:
64,192,23532,1,0,0:0:0:0:
448,192,23632,1,8,0:0:0:0:
64,192,23932,128,0,24232:0:0:0:0:
320,192,24232,1,0,0:0:0:0:
192,192,24432,1,0,0:0:0:0:
448,192,24532,1,0,0:0:0:0:
320,192,24732,1,0,0:0:0:0:
64,192,24832,1,8,0:0:0:0:
192,192,25032,1,0,0:0:0:0:
448,192,25132,1,0,0:0:0:0:
320,192,25332,1,0,0:0:0:0:
64,192,25432,1,0,0:0:0:0:
448,192,25632,1,0,0:0:0:0:
320,192,25732,1,0,0:0:0:0:
192,192,25832,1,0,0:0:0:0:
64,192,25932,1,0,0:0:0:0:
448,192,26032,1,8,0:0:0:0:
192,192,26332,128,0,26632:0:0:0:0:
448,192,26632,128,0,26932:0:0:0:0:
192,192,26932,128,0,27232:0:0:0:0:
320,192,27232,128,0,27532:0:0:0:0:
448,192,27232,1,8,0:0:0:0:
64,192,27532,128,0,27832:0:0:0:0:
448,192,27832,1,0,0:0:0:0:
64,192,28032,1,0,0:0:0:0:
192,192,28132,1,0,0:0:0:0:
320,192,28232,1,0,0:0:0:0:
448,192,28332,1,0,0:0:0:0:
64,192,28432,1,8,0:0:0:0:
448,192,28732,128,0,29032:0:0:0:0:
192,192,28932,1,0,0:0:0:0:
64,192,29032,128,0,29332:0:0:0:0:
192,192,29332,128,0,29632:0:0:0:0:
448,192,29632,128,0,29932:0:0:0:0:
320,192,29632,1,8,0:0:0:0:
64,192,29932,128,0,30232:0:0:0:0:
320,192,30232,128,0,30532:0:0:0:0:
192,192,30532,128,0,30832:0:0:0:0:
64,192,30832,1,8,0:0:0:0:
448,192,30832,128,0,31132:0:0:0:0:
320,192,31132,128,0,31432:0:0:0:0:
64,192,31432,1,0,0:0:0:0:
448,192,31632,1,0,0:0:0:0:
64,192,31732,1,0,0:0:0:0:
448,192,31932,1,0,0:0:0:0:
192,192,32032,1,8,0:0:0:0:
64,192,32232,1,0,0:0:0:0:
320,192,32332,1,0,0:0:0:0:
192,192,32532,1,0,0:0:0:0:
448,192,32632,1,0,0:0:0:0:
64,192,32832,1,0,0:0:0:0:
448,192,32932,1,0,0:0:0:0:
320,192,33132,1,0,0:0:0:0:
64,192,33232,1,8,0:0:0:0:
320,192,33532,128,0,33832:0:0:0:0:
64,192,33832,1,0,0:0:0:0:
192,192,34032,1,0,0:0:0:0:
448,192,34132,1,0,0:0:0:0:
64,192,34332,1,0,0:0:0:0:
320,192,34432,1,8,0:0:0:0:
192,192,34632,1,0,0:0:0:0:
64,192,34732,1,0,0:0:0:0:
448,192,34932,1,0,0:0:0:0:
192,192,35032,1,0,0:0:0:0:
448,192,35232,1,0,0:0:0:0:
320,192,35332,1,0,0:0:0:0:
192,192,35432,1,0,0:0:0:0:
64,192,35532,1,0,0:0:0:0:
448,192,35632,1,8,0:0:0:0:
64,192,35932,128,0,36232:0:0:0:0:
320,192,36232,128,0,36532:0:0:0:0:
448,192,36532,128,0,36832:0:0:0:0:
64,192,36832,128,0,37132:0:0:0:0:
320,192,36832,1,8,0:0:0:0:
192,192,37132,128,0,37432:0:0:0:0:
448,192,37432,1,0,0:0:0:0:
64,192,37632,1,0,0:0:0:0:
192,192,37732,1,0,0:0:0:0:
320,192,37832,1,0,0:0:0:0:
448,192,37932,1,0,0:0:0:0:
64,192,38032,1,8,0:0:0:0:
448,192,38332,128,0,38632:0:0:0:0:
192,192,38532,1,0,0:0:0:0:
64,192,38632,128,0,38932:0:0:0:0:
192,192,38932,128,0,39232:0:0:0:0:
320,192,39232,128,0,39532:0:0:0:0:
64,192,39232,1,8,0:0:0:0:
448,192,39532,128,0,39832:0:0:0:0:
64,192,39832,128,0,40432:0:0:0:0:
192,192,40432,128,0,40732:0:0:0:0:
448,192,40732,128,0,41032:0:0:0:0:
320,192,41032,1,2,0:0:0:0:
64,192,41232,1,2,0:0:0:0:
192,192,41332,1,2,0:0:0:0:
448,192,41532,1,2,0:0:0:0:
192,192,41632,1,2,0:0:0:0:
64,192,41832,1,2,0:0:0:0:
320,192,41932,1,2,0:0:0:0:
448,192,42132,1,2,0:0:0:0:
192,192,42232,1,2,0:0:0:0:
320,192,42432,1,2,0:0:0:0:
64,192,42532,1,2,0:0:0:0:
448,192,42732,1,2,0:0:0:0:
64,192,42832,1,2,0:0:0:0:
192,192,43032,1,2,0:0:0:0:
448,192,43132,1,2,0:0:0:0:
64,192,43332,1,2,0:0:0:0:
448,192,43432,1,2,0:0:0:0:
320,192,43632,1,2,0:0:0:0:
192,192,43732,1,2,0:0:0:0:
448,192,43932,1,2,0:0:0:0:
192,192,44032,1,2,0:0:0:0:
64,192,44232,1,2,0:0:0:0:
320,192,44332,1,2,0:0:0:0:
448,192,44532,1,2,0:0:0:0:
192,192,44632,1,2,0:0:0:0:
64,192,44832,1,2,0:0:0:0:
320,192,44932,1,2,0:0:0:0:
448,192,45132,1,2,0:0:0:0:
320,192,45232,128,2,45532:0:0:0:0:
192,192,45532,128,2,45832:0:0:0:0:
64,192,45832,1,2,0:0:0:0:
448,192,45932,1,2,0:0:0:0:
320,192,46032,1,2,0:0:0:0:
192,192,46132,1,2,0:0:0:0:
448,192,46432,1,2,0:0:0:0:
192,192,46532,1,2,0:0:0:0:
448,192,46632,1,2,0:0:0:0:
64,192,46732,1,2,0:0:0:0:
320,192,46932,1,2,0:0:0:0:
64,192,47032,128,2,47332:0:0:0:0:
192,192,47332,128,2,47632:0:0:0:0:
320,192,47632,128,2,47932:0:0:0:0:
448,192,47932,128,2,48232:0:0:0:0:
192,192,48232,1,2,0:0:0:0:
320,192,48432,1,2,0:0:0:0:
64,192,48532,1,2,0:0:0:0:
192,192,48732,1,2,0:0:0:0:
448,192,48832,1,2,0:0:0:0:
320,192,49032,1,2,0:0:0:0:
64,192,49132,128,2,49432:0:0:0:0:
448,192,49432,1,2,0:0:0:0:
320,192,49632,1,2,0:0:0:0:
64,192,49732,1,2,0:0:0:0:
192,192,49932,1,2,0:0:0:0:
448,192,50032,128,2,50332:0:0:0:0:
192,192,50332,128,2,50632:0:0:0:0:
448,192,50632,1,2,0:0:0:0:
320,192,50832,1,2,0:0:0:0:
64,192,50932,1,8,0:0:0:0:
192,192,50932,1,2,0:0:0:0:
448,192,51232,1,2,0:0:0:0:
64,192,51432,1,2,0:0:0:0:
192,192,51532,1,2,0:0:0:0:
320,192,51532,1,8,0:0:0:0:
448,192,51632,1,2,0:0:0:0:
320,192,51732,1,2,0:0:0:0:
192,192,51832,1,2,0:0:0:0:
64,192,52032,1,2,0:0:0:0:
320,192,52132,1,2,0:0:0:0:
448,192,52132,1,8,0:0:0:0:
192,192,52332,1,2,0:0:0:0:
448,192,52432,1,2,0:0:0:0:
192,192,52732,1,2,0:0:0:0:
320,192,52732,1,8,0:0:0:0:
64,192,52832,1,2,0:0:0:0:
448,192,52932,1,2,0:0:0:0:
320,192,53032,1,2,0:0:0:0:
192,192,53232,1,2,0:0:0:0:
64,192,53332,1,8,0:0:0:0:
448,192,53332,1,2,0:0:0:0:
320,192,53432,1,2,0:0:0:0:
192,192,53532,1,2,0:0:0:0:
320,192,53632,1,2,0:0:0:0:
192,192,53932,1,2,0:0:0:0:
64,192,53932,128,8,54232:0:0:0:0:
448,192,54232,1,2,0:0:0:0:
192,192,54432,1,2,0:0:0:0:
448,192,54532,1,8,0:0:0:0:
320,192,54532,1,2,0:0:0:0:
64,192,54632,1,2,0:0:0:0:
192,192,54732,1,2,0:0:0:0:
448,192,54832,128,2,55132:0:0:0:0:
320,192,55132,1,2,0:0:0:0:
192,192,55132,128,8,55432:0:0:0:0:
64,192,55432,1,2,0:0:0:0:
448,192,55532,1,2,0:0:0:0:
320,192,55632,1,2,0:0:0:0:
64,192,55732,1,8,0:0:0:0:
192,192,55732,1,2,0:0:0:0:
448,192,56032,1,2,0:0:0:0:
192,192,56132,1,2,0:0:0:0:
64,192,56232,1,2,0:0:0:0:
448,192,56332,1,2,0:0:0:0:
320,192,56332,1,8,0:0:0:0:
64,192,56532,1,2,0:0:0:0:
448,192,56632,128,2,56932:0:0:0:0:
64,192,56832,1,2,0:0:0:0:
320,192,56932,128,2,57232:0:0:0:0:
192,192,56932,1,8,0:0:0:0:
64,192,57132,1,2,0:0:0:0:
192,192,57232,128,2,57532:0:0:0:0:
320,192,57432,1,2,0:0:0:0:
64,192,57532,128,2,57832:0:0:0:0:
448,192,57532,1,8,0:0:0:0:
448,192,57732,1,2,0:0:0:0:
320,192,57832,1,2,0:0:0:0:
192,192,58032,1,2,0:0:0:0:
64,192,58132,1,8,0:0:0:0:
448,192,58132,1,2,0:0:0:0:
320,192,58232,1,2,0:0:0:0:
192,192,58332,1,2,0:0:0:0:
64,192,58432,1,2,0:0:0:0:
192,192,58732,1,2,0:0:0:0:
320,192,58732,128,8,59032:0:0:0:0:
64,192,59032,1,0,0:0:0:0:
320,192,59232,1,0,0:0:0:0:
448,192,59332,1,0,0:0:0:0:
320,192,59432,1,0,0:0:0:0:
192,192,59532,1,0,0:0:0:0:
448,192,59632,128,0,59932:0:0:0:0:
64,192,59932,128,0,60232:0:0:0:0:
448,192,60232,5,0,0:0:0:0:
320,192,60432,1,0,0:0:0:0:
64,192,60532,1,0,0:0:0:0:
320,192,60732,1,0,0:0:0:0:
448,192,60832,1,8,0:0:0:0:
64,192,61032,1,0,0:0:0:0:
320,192,61132,1,0,0:0:0:0:
192,192,61332,1,0,0:0:0:0:
448,192,61432,1,0,0:0:0:0:
320,192,61632,1,0,0:0:0:0:
64,192,61732,1,0,0:0:0:0:
448,192,61932,1,0,0:0:0:0:
64,192,62032,1,8,0:0:0:0:
448,192,62332,128,0,62632:0:0:0:0:
192,192,62632,1,0,0:0:0:0:
320,192,62832,1,0,0:0:0:0:
64,192,62932,1,0,0:0:0:0:
192,192,63132,1,0,0:0:0:0:
448,192,63232,1,8,0:0:0:0:
320,192,63432,1,0,0:0:0:0:
64,192,63532,1,0,0:0:0:0:
448,192,63732,1,0,0:0:0:0:
192,192,63832,1,0,0:0:0:0:
64,192,64032,1,0,0:0:0:0:
192,192,64132,1,0,0:0:0:0:
320,192,64232,1,0,0:0:0:0:
448,192,64332,1,0,0:0:0:0:
64,192,64432,1,8,0:0:0:0:
320,192,64732,128,0,65032:0:0:0:0:
64,192,65032,128,0,65332:0:0:0:0:
320,192,65332,128,0,65632:0:0:0:0:
192,192,65632,128,0,65932:0:0:0:0:
64,192,65632,1,8,0:0:0:0:
448,192,65932,128,0,66232:0:0:0:0:
64,192,66232,1,0,0:0:0:0:
448,192,66432,1,0,0:0:0:0:
320,192,66532,1,0,0:0:0:0:
192,192,66632,1,0,0:0:0:0:
64,192,66732,1,0,0:0:0:0:
448,192,66832,1,8,0:0:0:0:
64,192,67132,128,0,67432:0:0:0:0:
320,192,67332,1,0,0:0:0:0:
448,192,67432,128,0,67732:0:0:0:0:
192,192,67732,128,0,68032:0:0:0:0:
320,192,68032,128,0,68332:0:0:0:0:
448,192,68032,1,8,0:0:0:0:
64,192,68332,128,0,68632:0:0:0:0:
320,192,68632,128,0,68932:0:0:0:0:
192,192,68932,128,0,69232:0:0:0:0:
64,192,69232,1,8,0:0:0:0:
448,192,69232,128,0,69532:0:0:0:0:
192,192,69532,128,0,69832:0:0:0:0:
64,192,69832,1,0,0:0:0:0:
448,192,69832,1,0,0:0:0:0:
