osu file format v14

[General]
AudioFilename: audio.mp3
AudioLeadIn: 0
PreviewTime: 41032
Countdown: 0
SampleSet: None
StackLeniency: 0.7
Mode: 3
LetterboxInBreaks: 0
SpecialStyle: 0
WidescreenStoryboard: 1

[Editor]
DistanceSpacing: 0.8
BeatDivisor: 3
GridSize: 8
TimelineZoom: 1.4

[Metadata]
Title:Chiptune & Baroque
TitleUnicode:Chiptune & Baroque
Artist:Thaehan
ArtistUnicode:Thaehan
Creator:Raveille
Version:Hydria's MX
Source:osu!
Tags:featured artist bwa electronic hydria 8 bit 8-bit
BeatmapID:1249382
BeatmapSetID:590323

[Difficulty]
HPDrainRate:8.5
CircleSize:4
OverallDifficulty:8.5
ApproachRate:5
SliderMultiplier:1.4
SliderTickRate:1

[Events]
//Background and Video events
0,0,"chiptunebaroque.png",0,0
//Break Periods
//Storyboard Layer 0 (Background)
//Storyboard Layer 1 (Fail)
//Storyboard Layer 2 (Pass)
//Storyboard Layer 3 (Foreground)
//Storyboard Sound Samples

[TimingPoints]
232,300,4,3,1,10,1,0
41032,-100,4,3,1,30,0,1
50332,-100,4,3,1,30,0,0
50632,-100,4,3,1,30,0,1
59032,-100,4,3,1,10,0,0

[HitObjects]
320,192,232,5,0,0:0:0:0:
448,192,232,1,0,0:0:0:0:
320,192,432,1,0,0:0:0:0:
192,192,532,1,0,0:0:0:0:
64,192,532,1,0,0:0:0:0:
192,192,732,1,0,0:0:0:0:
448,192,832,1,8,0:0:0:0:
320,192,832,1,0,0:0:0:0:
64,192,832,1,0,0:0:0:0:
448,192,1032,1,0,0:0:0:0:
192,192,1132,1,0,0:0:0:0:
64,192,1132,1,0,0:0:0:0:
320,192,1332,1,0,0:0:0:0:
192,192,1432,1,0,0:0:0:0:
192,192,1632,1,0,0:0:0:0:
320,192,1732,1,0,0:0:0:0:
448,192,1732,1,0,0:0:0:0:
64,192,1932,1,0,0:0:0:0:
192,192,2032,1,0,0:0:0:0:
448,192,2032,1,8,0:0:0:0:
320,192,2032,1,0,0:0:0:0:
320,192,2232,1,0,0:0:0:0:
64,192,2332,1,0,0:0:0:0:
192,192,2332,128,0,2632:0:0:0:0:
320,192,2632,1,0,0:0:0:0:
448,192,2632,1,0,0:0:0:0:
320,192,2832,1,0,0:0:0:0:
448,192,2932,1,0,0:0:0:0:
192,192,2932,1,0,0:0:0:0:
192,192,3132,1,0,0:0:0:0:
448,192,3232,1,8,0:0:0:0:
64,192,3232,1,0,0:0:0:0:
320,192,3232,1,0,0:0:0:0:
320,192,3432,1,0,0:0:0:0:
192,192,3532,1,0,0:0:0:0:
64,192,3532,1,0,0:0:0:0:
320,192,3732,1,0,0:0:0:0:
64,192,3832,1,0,0:0:0:0:
192,192,4032,1,0,0:0:0:0:
64,192,4132,1,0,0:0:0:0:
448,192,4132,1,0,0:0:0:0:
192,192,4232,1,0,0:0:0:0:
320,192,4332,1,0,0:0:0:0:
448,192,4432,1,0,0:0:0:0:
64,192,4432,1,8,0:0:0:0:
192,192,4432,1,0,0:0:0:0:
64,192,4732,1,0,0:0:0:0:
192,192,4732,128,0,5032:0:0:0:0:
320,192,5032,1,0,0:0:0:0:
448,192,5032,1,0,0:0:0:0:
192,192,5132,1,0,0:0:0:0:
64,192,5232,1,0,0:0:0:0:
320,192,5332,1,0,0:0:0:0:
448,192,5332,1,0,0:0:0:0:
192,192,5432,1,0,0:0:0:0:
320,192,5532,1,0,0:0:0:0:
448,192,5632,1,0,0:0:0:0:
64,192,5632,1,8,0:0:0:0:
192,192,5632,1,0,0:0:0:0:
320,192,5732,1,0,0:0:0:0:
64,192,5832,1,0,0:0:0:0:
448,192,5932,1,0,0:0:0:0:
192,192,5932,1,0,0:0:0:0:
64,192,6032,1,0,0:0:0:0:
192,192,6132,1,0,0:0:0:0:
448,192,6232,1,0,0:0:0:0:
320,192,6232,1,0,0:0:0:0:
448,192,6432,1,0,0:0:0:0:
320,192,6532,1,0,0:0:0:0:
64,192,6532,1,0,0:0:0:0:
192,192,6632,1,0,0:0:0:0:
320,192,6732,1,0,0:0:0:0:
64,192,6832,1,8,0:0:0:0:
448,192,6832,1,0,0:0:0:0:
192,192,6832,1,0,0:0:0:0:
192,192,7032,1,0,0:0:0:0:
448,192,7132,1,0,0:0:0:0:
320,192,7132,128,0,7432:0:0:0:0:
192,192,7332,1,0,0:0:0:0:
64,192,7432,1,0,0:0:0:0:
448,192,7432,1,0,0:0:0:0:
320,192,7532,1,0,0:0:0:0:
192,192,7632,1,0,0:0:0:0:
320,192,7732,1,0,0:0:0:0:
448,192,7732,1,0,0:0:0:0:
192,192,7832,1,0,0:0:0:0:
64,192,7932,1,0,0:0:0:0:
192,192,8032,1,0,0:0:0:0:
320,192,8032,1,0,0:0:0:0:
448,192,8032,1,8,0:0:0:0:
64,192,8132,1,0,0:0:0:0:
320,192,8232,1,0,0:0:0:0:
192,192,8332,1,0,0:0:0:0:
64,192,8332,1,0,0:0:0:0:
320,192,8432,1,0,0:0:0:0:
448,192,8532,1,0,0:0:0:0:
64,192,8632,1,0,0:0:0:0:
192,192,8632,1,0,0:0:0:0:
320,192,8732,1,0,0:0:0:0:
192,192,8832,1,0,0:0:0:0:
64,192,8932,1,0,0:0:0:0:
448,192,8932,1,0,0:0:0:0:
320,192,9032,1,0,0:0:0:0:
192,192,9132,1,0,0:0:0:0:
64,192,9232,1,0,0:0:0:0:
448,192,9232,1,8,0:0:0:0:
320,192,9232,1,0,0:0:0:0:
192,192,9332,1,0,0:0:0:0:
448,192,9432,1,0,0:0:0:0:
64,192,9532,1,0,0:0:0:0:
320,192,9532,1,0,0:0:0:0:
448,192,9632,1,0,0:0:0:0:
192,192,9732,1,0,0:0:0:0:
64,192,9832,1,0,0:0:0:0:
320,192,9832,1,0,0:0:0:0:
320,192,10032,1,0,0:0:0:0:
448,192,10032,1,0,0:0:0:0:
64,192,10132,1,0,0:0:0:0:
192,192,10132,1,0,0:0:0:0:
192,192,10332,1,0,0:0:0:0:
448,192,10332,1,0,0:0:0:0:
320,192,10432,1,8,0:0:0:0:
64,192,10432,1,0,0:0:0:0:
448,192,10632,1,0,0:0:0:0:
64,192,10632,1,0,0:0:0:0:
192,192,10732,1,0,0:0:0:0:
320,192,10732,1,0,0:0:0:0:
64,192,10932,1,0,0:0:0:0:
192,192,10932,1,0,0:0:0:0:
320,192,11032,1,0,0:0:0:0:
448,192,11032,1,0,0:0:0:0:
64,192,11232,1,0,0:0:0:0:
320,192,11232,1,0,0:0:0:0:
192,192,11332,1,0,0:0:0:0:
448,192,11332,1,0,0:0:0:0:
192,192,11532,1,0,0:0:0:0:
320,192,11532,1,0,0:0:0:0:
64,192,11632,1,0,0:0:0:0:
448,192,11632,1,8,0:0:0:0:
192,192,11832,1,0,0:0:0:0:
448,192,11932,1,0,0:0:0:0:
320,192,11932,128,0,12232:0:0:0:0:
64,192,12232,1,0,0:0:0:0:
192,192,12232,1,0,0:0:0:0:
320,192,12432,1,0,0:0:0:0:
448,192,12432,1,0,0:0:0:0:
64,192,12532,1,0,0:0:0:0:
192,192,12532,1,0,0:0:0:0:
192,192,12732,1,0,0:0:0:0:
448,192,12732,1,0,0:0:0:0:
320,192,12832,1,0,0:0:0:0:
64,192,12832,1,8,0:0:0:0:
448,192,13032,1,0,0:0:0:0:
64,192,13032,1,0,0:0:0:0:
192,192,13132,1,0,0:0:0:0:
320,192,13132,1,0,0:0:0:0:
64,192,13332,1,0,0:0:0:0:
192,192,13332,1,0,0:0:0:0:
320,192,13432,1,0,0:0:0:0:
448,192,13432,1,0,0:0:0:0:
64,192,13632,1,0,0:0:0:0:
320,192,13632,1,0,0:0:0:0:
192,192,13732,1,0,0:0:0:0:
448,192,13732,1,0,0:0:0:0:
320,192,13832,1,0,0:0:0:0:
64,192,13932,1,0,0:0:0:0:
192,192,14032,1,0,0:0:0:0:
320,192,14032,1,0,0:0:0:0:
448,192,14032,1,8,0:0:0:0:
448,192,14332,1,0,0:0:0:0:
64,192,14332,128,0,14632:0:0:0:0:
192,192,14632,1,0,0:0:0:0:
448,192,14632,1,0,0:0:0:0:
320,192,14732,1,0,0:0:0:0:
192,192,14832,1,0,0:0:0:0:
448,192,14932,1,0,0:0:0:0:
320,192,14932,1,0,0:0:0:0:
64,192,15032,1,0,0:0:0:0:
192,192,15132,1,0,0:0:0:0:
320,192,15232,1,0,0:0:0:0:
64,192,15232,1,0,0:0:0:0:
448,192,15232,1,8,0:0:0:0:
192,192,15332,1,0,0:0:0:0:
320,192,15432,1,0,0:0:0:0:
64,192,15532,1,0,0:0:0:0:
192,192,15532,1,0,0:0:0:0:
448,192,15632,1,0,0:0:0:0:
64,192,15732,1,0,0:0:0:0:
448,192,15832,1,0,0:0:0:0:
320,192,15832,1,0,0:0:0:0:
448,192,16032,1,0,0:0:0:0:
192,192,16132,1,0,0:0:0:0:
64,192,16132,1,0,0:0:0:0:
320,192,16232,1,0,0:0:0:0:
192,192,16332,1,0,0:0:0:0:
64,192,16432,1,0,0:0:0:0:
448,192,16432,1,0,0:0:0:0:
320,192,16432,1,8,0:0:0:0:
448,192,16632,1,0,0:0:0:0:
192,192,16732,1,0,0:0:0:0:
64,192,16732,1,0,0:0:0:0:
320,192,16932,1,0,0:0:0:0:
448,192,16932,1,0,0:0:0:0:
192,192,17032,1,0,0:0:0:0:
64,192,17032,1,0,0:0:0:0:
320,192,17132,1,0,0:0:0:0:
192,192,17232,1,0,0:0:0:0:
64,192,17332,1,0,0:0:0:0:
448,192,17332,1,0,0:0:0:0:
320,192,17432,1,0,0:0:0:0:
192,192,17532,1,0,0:0:0:0:
448,192,17632,1,0,0:0:0:0:
320,192,17632,1,0,0:0:0:0:
64,192,17632,1,8,0:0:0:0:
192,192,17732,1,0,0:0:0:0:
448,192,17832,1,0,0:0:0:0:
320,192,17932,1,0,0:0:0:0:
64,192,17932,1,0,0:0:0:0:
192,192,18032,1,0,0:0:0:0:
320,192,18132,1,0,0:0:0:0:
448,192,18132,1,0,0:0:0:0:
64,192,18232,1,0,0:0:0:0:
192,192,18232,1,0,0:0:0:0:
448,192,18332,1,0,0:0:0:0:
320,192,18432,1,0,0:0:0:0:
64,192,18432,1,0,0:0:0:0:
192,192,18532,1,0,0:0:0:0:
448,192,18532,1,0,0:0:0:0:
320,192,18632,1,0,0:0:0:0:
64,192,18732,1,0,0:0:0:0:
320,192,18832,1,0,0:0:0:0:
192,192,18832,1,8,0:0:0:0:
448,192,18832,1,0,0:0:0:0:
64,192,18932,1,0,0:0:0:0:
320,192,19032,1,0,0:0:0:0:
448,192,19132,1,0,0:0:0:0:
64,192,19132,1,0,0:0:0:0:
320,192,19232,1,0,0:0:0:0:
192,192,19332,1,0,0:0:0:0:
64,192,19432,1,0,0:0:0:0:
448,192,19432,1,0,0:0:0:0:
192,192,19532,1,0,0:0:0:0:
320,192,19632,1,0,0:0:0:0:
448,192,19732,1,0,0:0:0:0:
64,192,19832,1,0,0:0:0:0:
320,192,19932,1,0,0:0:0:0:
448,192,19932,1,0,0:0:0:0:
64,192,20032,1,0,0:0:0:0:
192,192,20032,1,0,0:0:0:0:
320,192,20132,1,0,0:0:0:0:
192,192,20232,1,0,0:0:0:0:
448,192,20332,1,0,0:0:0:0:
320,192,20432,1,0,0:0:0:0:
192,192,20532,1,0,0:0:0:0:
64,192,20532,1,0,0:0:0:0:
448,192,20632,1,0,0:0:0:0:
320,192,20632,1,0,0:0:0:0:
192,192,20732,1,0,0:0:0:0:
64,192,20832,1,0,0:0:0:0:
448,192,20932,1,0,0:0:0:0:
192,192,21032,1,0,0:0:0:0:
320,192,21132,1,0,0:0:0:0:
448,192,21132,1,0,0:0:0:0:
192,192,21232,1,0,0:0:0:0:
64,192,21232,1,0,0:0:0:0:
320,192,21332,1,0,0:0:0:0:
192,192,21432,1,0,0:0:0:0:
448,192,21532,1,8,0:0:0:0:
64,192,21532,1,0,0:0:0:0:
320,192,21532,1,0,0:0:0:0:
192,192,21632,1,0,0:0:0:0:
320,192,21732,1,0,0:0:0:0:
64,192,21832,1,0,0:0:0:0:
448,192,21832,1,0,0:0:0:0:
192,192,22032,1,0,0:0:0:0:
320,192,22132,1,0,0:0:0:0:
448,192,22132,1,0,0:0:0:0:
64,192,22332,1,0,0:0:0:0:
320,192,22432,1,0,0:0:0:0:
192,192,22432,1,8,0:0:0:0:
448,192,22432,1,0,0:0:0:0:
448,192,22632,1,0,0:0:0:0:
192,192,22732,1,0,0:0:0:0:
64,192,22732,1,0,0:0:0:0:
320,192,22932,1,0,0:0:0:0:
192,192,23032,1,0,0:0:0:0:
64,192,23232,1,0,0:0:0:0:
320,192,23332,1,0,0:0:0:0:
448,192,23332,1,0,0:0:0:0:
192,192,23532,1,0,0:0:0:0:
64,192,23632,1,0,0:0:0:0:
448,192,23632,1,8,0:0:0:0:
320,192,23632,1,0,0:0:0:0:
320,192,23832,1,0,0:0:0:0:
64,192,23932,1,0,0:0:0:0:
192,192,23932,128,0,24232:0:0:0:0:
320,192,24232,1,0,0:0:0:0:
448,192,24232,1,0,0:0:0:0:
320,192,24432,1,0,0:0:0:0:
448,192,24532,1,0,0:0:0:0:
192,192,24532,1,0,0:0:0:0:
192,192,24732,1,0,0:0:0:0:
448,192,24832,1,8,0:0:0:0:
64,192,24832,1,0,0:0:0:0:
320,192,24832,1,0,0:0:0:0:
320,192,25032,1,0,0:0:0:0:
192,192,25132,1,0,0:0:0:0:
64,192,25132,1,0,0:0:0:0:
320,192,25332,1,0,0:0:0:0:
64,192,25432,1,0,0:0:0:0:
192,192,25632,1,0,0:0:0:0:
64,192,25732,1,0,0:0:0:0:
448,192,25732,1,0,0:0:0:0:
192,192,25832,1,0,0:0:0:0:
320,192,25932,1,0,0:0:0:0:
448,192,26032,1,0,0:0:0:0:
64,192,26032,1,8,0:0:0:0:
192,192,26032,1,0,0:0:0:0:
192,192,26332,1,0,0:0:0:0:
64,192,26332,128,0,26632:0:0:0:0:
320,192,26632,1,0,0:0:0:0:
448,192,26632,1,0,0:0:0:0:
192,192,26732,1,0,0:0:0:0:
64,192,26832,1,0,0:0:0:0:
320,192,26932,1,0,0:0:0:0:
448,192,26932,1,0,0:0:0:0:
192,192,27032,1,0,0:0:0:0:
320,192,27132,1,0,0:0:0:0:
448,192,27232,1,0,0:0:0:0:
64,192,27232,1,8,0:0:0:0:
192,192,27232,1,0,0:0:0:0:
320,192,27332,1,0,0:0:0:0:
192,192,27432,1,0,0:0:0:0:
64,192,27532,1,0,0:0:0:0:
448,192,27532,1,0,0:0:0:0:
320,192,27632,1,0,0:0:0:0:
448,192,27732,1,0,0:0:0:0:
64,192,27832,1,0,0:0:0:0:
192,192,27832,1,0,0:0:0:0:
320,192,28032,1,0,0:0:0:0:
192,192,28132,1,0,0:0:0:0:
64,192,28132,1,0,0:0:0:0:
320,192,28232,1,0,0:0:0:0:
192,192,28332,1,0,0:0:0:0:
64,192,28432,1,0,0:0:0:0:
448,192,28432,1,8,0:0:0:0:
320,192,28432,1,0,0:0:0:0:
192,192,28632,1,0,0:0:0:0:
448,192,28732,1,0,0:0:0:0:
320,192,28732,128,0,29032:0:0:0:0:
192,192,28932,1,0,0:0:0:0:
64,192,29032,1,0,0:0:0:0:
448,192,29032,1,0,0:0:0:0:
320,192,29132,1,0,0:0:0:0:
192,192,29232,1,0,0:0:0:0:
320,192,29332,1,0,0:0:0:0:
448,192,29332,1,0,0:0:0:0:
192,192,29432,1,0,0:0:0:0:
64,192,29532,1,0,0:0:0:0:
192,192,29632,1,0,0:0:0:0:
320,192,29632,1,0,0:0:0:0:
448,192,29632,1,8,0:0:0:0:
64,192,29732,1,0,0:0:0:0:
320,192,29832,1,0,0:0:0:0:
192,192,29932,1,0,0:0:0:0:
320,192,30032,1,0,0:0:0:0:
448,192,30132,1,0,0:0:0:0:
64,192,30232,1,0,0:0:0:0:
192,192,30232,1,0,0:0:0:0:
320,192,30332,1,0,0:0:0:0:
192,192,30432,1,0,0:0:0:0:
64,192,30532,1,0,0:0:0:0:
448,192,30532,1,0,0:0:0:0:
320,192,30632,1,0,0:0:0:0:
448,192,30732,1,0,0:0:0:0:
64,192,30832,1,8,0:0:0:0:
192,192,30832,1,0,0:0:0:0:
320,192,30832,1,0,0:0:0:0:
448,192,30932,1,0,0:0:0:0:
192,192,31032,1,0,0:0:0:0:
64,192,31132,1,0,0:0:0:0:
320,192,31132,1,0,0:0:0:0:
448,192,31232,1,0,0:0:0:0:
192,192,31332,1,0,0:0:0:0:
64,192,31432,1,0,0:0:0:0:
448,192,31432,1,0,0:0:0:0:
320,192,31632,1,0,0:0:0:0:
448,192,31632,1,0,0:0:0:0:
64,192,31732,1,0,0:0:0:0:
192,192,31732,1,0,0:0:0:0:
192,192,31932,1,0,0:0:0:0:
448,192,31932,1,0,0:0:0:0:
320,192,32032,1,0,0:0:0:0:
64,192,32032,1,8,0:0:0:0:
448,192,32232,1,0,0:0:0:0:
64,192,32232,1,0,0:0:0:0:
192,192,32332,1,0,0:0:0:0:
320,192,32332,1,0,0:0:0:0:
64,192,32532,1,0,0:0:0:0:
192,192,32532,1,0,0:0:0:0:
320,192,32632,1,0,0:0:0:0:
448,192,32632,1,0,0:0:0:0:
64,192,32832,1,0,0:0:0:0:
320,192,32832,1,0,0:0:0:0:
192,192,32932,1,0,0:0:0:0:
448,192,32932,1,0,0:0:0:0:
192,192,33132,1,0,0:0:0:0:
320,192,33132,1,0,0:0:0:0:
64,192,33232,1,8,0:0:0:0:
448,192,33232,1,0,0:0:0:0:
192,192,33432,1,0,0:0:0:0:
448,192,33532,1,0,0:0:0:0:
320,192,33532,128,0,33832:0:0:0:0:
64,192,33832,1,0,0:0:0:0:
192,192,33832,1,0,0:0:0:0:
320,192,34032,1,0,0:0:0:0:
448,192,34032,1,0,0:0:0:0:
64,192,34132,1,0,0:0:0:0:
192,192,34132,1,0,0:0:0:0:
192,192,34332,1,0,0:0:0:0:
448,192,34332,1,0,0:0:0:0:
320,192,34432,1,0,0:0:0:0:
64,192,34432,1,8,0:0:0:0:
448,192,34632,1,0,0:0:0:0:
64,192,34632,1,0,0:0:0:0:
192,192,34732,1,0,0:0:0:0:
320,192,34732,1,0,0:0:0:0:
64,192,34932,1,0,0:0:0:0:
192,192,34932,1,0,0:0:0:0:
320,192,35032,1,0,0:0:0:0:
448,192,35032,1,0,0:0:0:0:
64,192,35232,1,0,0:0:0:0:
320,192,35232,1,0,0:0:0:0:
192,192,35332,1,0,0:0:0:0:
448,192,35332,1,0,0:0:0:0:
320,192,35432,1,0,0:0:0:0:
64,192,35532,1,0,0:0:0:0:
192,192,35532,1,0,0:0:0:0:
320,192,35632,1,0,0:0:0:0:
448,192,35632,1,8,0:0:0:0:
448,192,35932,1,0,0:0:0:0:
64,192,35932,128,0,36232:0:0:0:0:
320,192,36232,1,0,0:0:0:0:
448,192,36232,1,0,0:0:0:0:
192,192,36332,1,0,0:0:0:0:
320,192,36432,1,0,0:0:0:0:
448,192,36532,1,0,0:0:0:0:
64,192,36532,1,0,0:0:0:0:
192,192,36632,1,0,0:0:0:0:
320,192,36732,1,0,0:0:0:0:
192,192,36832,1,0,0:0:0:0:
64,192,36832,1,8,0:0:0:0:
448,192,36832,1,0,0:0:0:0:
320,192,36932,1,0,0:0:0:0:
448,192,37032,1,0,0:0:0:0:
64,192,37132,1,0,0:0:0:0:
192,192,37132,1,0,0:0:0:0:
320,192,37232,1,0,0:0:0:0:
448,192,37332,1,0,0:0:0:0:
64,192,37432,1,0,0:0:0:0:
320,192,37432,1,0,0:0:0:0:
448,192,37632,1,0,0:0:0:0:
192,192,37732,1,0,0:0:0:0:
64,192,37732,1,0,0:0:0:0:
320,192,37832,1,0,0:0:0:0:
192,192,37932,1,0,0:0:0:0:
64,192,38032,1,0,0:0:0:0:
448,192,38032,1,8,0:0:0:0:
320,192,38032,1,0,0:0:0:0:
448,192,38232,1,0,0:0:0:0:
192,192,38332,1,0,0:0:0:0:
64,192,38332,1,0,0:0:0:0:
320,192,38532,1,0,0:0:0:0:
448,192,38532,1,0,0:0:0:0:
192,192,38632,1,0,0:0:0:0:
64,192,38632,1,0,0:0:0:0:
320,192,38732,1,0,0:0:0:0:
192,192,38832,1,0,0:0:0:0:
64,192,38932,1,0,0:0:0:0:
448,192,38932,1,0,0:0:0:0:
320,192,39032,1,0,0:0:0:0:
192,192,39132,1,0,0:0:0:0:
448,192,39232,1,8,0:0:0:0:
320,192,39232,1,0,0:0:0:0:
64,192,39232,1,0,0:0:0:0:
192,192,39332,1,0,0:0:0:0:
448,192,39432,1,0,0:0:0:0:
320,192,39532,1,0,0:0:0:0:
64,192,39532,1,0,0:0:0:0:
192,192,39632,1,0,0:0:0:0:
448,192,39732,1,0,0:0:0:0:
320,192,39832,1,0,0:0:0:0:
448,192,39932,1,0,0:0:0:0:
192,192,40032,1,0,0:0:0:0:
64,192,40132,1,0,0:0:0:0:
192,192,40232,1,0,0:0:0:0:
320,192,40332,1,0,0:0:0:0:
448,192,40432,1,0,0:0:0:0:
192,192,40532,1,0,0:0:0:0:
64,192,40632,1,0,0:0:0:0:
448,192,40732,1,0,0:0:0:0:
320,192,40832,1,0,0:0:0:0:
64,192,40932,1,0,0:0:0:0:
192,192,41032,1,0,0:0:0:0:
448,192,41032,1,2,0:0:0:0:
320,192,41232,1,2,0:0:0:0:
64,192,41332,1,2,0:0:0:0:
192,192,41332,1,0,0:0:0:0:
192,192,41432,1,2,0:0:0:0:
320,192,41532,1,2,0:0:0:0:
448,192,41632,1,0,0:0:0:0:
64,192,41632,1,2,0:0:0:0:
192,192,41832,1,2,0:0:0:0:
320,192,41932,1,0,0:0:0:0:
448,192,41932,1,2,0:0:0:0:
320,192,42032,1,2,0:0:0:0:
192,192,42132,1,2,0:0:0:0:
64,192,42232,1,2,0:0:0:0:
448,192,42232,1,0,0:0:0:0:
320,192,42432,1,2,0:0:0:0:
64,192,42532,1,2,0:0:0:0:
192,192,42532,1,0,0:0:0:0:
64,192,42632,1,2,0:0:0:0:
320,192,42732,1,2,0:0:0:0:
448,192,42832,1,2,0:0:0:0:
192,192,42832,1,0,0:0:0:0:
64,192,43132,1,2,0:0:0:0:
192,192,43132,1,0,0:0:0:0:
320,192,43232,1,2,0:0:0:0:
192,192,43332,1,2,0:0:0:0:
320,192,43432,1,0,0:0:0:0:
448,192,43432,1,2,0:0:0:0:
192,192,43632,1,2,0:0:0:0:
64,192,43732,1,0,0:0:0:0:
448,192,43732,1,2,0:0:0:0:
448,192,43832,1,2,0:0:0:0:
320,192,43932,1,2,0:0:0:0:
192,192,44032,1,0,0:0:0:0:
64,192,44032,1,2,0:0:0:0:
448,192,44232,1,2,0:0:0:0:
320,192,44332,1,0,0:0:0:0:
192,192,44332,128,2,44632:0:0:0:0:
320,192,44532,1,2,0:0:0:0:
64,192,44632,1,0,0:0:0:0:
448,192,44632,1,2,0:0:0:0:
192,192,44832,1,2,0:0:0:0:
64,192,44932,1,2,0:0:0:0:
448,192,44932,1,0,0:0:0:0:
64,192,45032,1,2,0:0:0:0:
448,192,45132,1,2,0:0:0:0:
320,192,45232,128,0,45532:0:0:0:0:
192,192,45232,1,2,0:0:0:0:
64,192,45532,128,0,45832:0:0:0:0:
448,192,45532,1,2,0:0:0:0:
320,192,45632,1,2,0:0:0:0:
448,192,45732,1,2,0:0:0:0:
192,192,45832,1,0,0:0:0:0:
320,192,45832,1,2,0:0:0:0:
192,192,45932,1,2,0:0:0:0:
448,192,46032,1,2,0:0:0:0:
320,192,46132,1,2,0:0:0:0:
64,192,46132,1,0,0:0:0:0:
448,192,46432,1,0,0:0:0:0:
320,192,46432,1,2,0:0:0:0:
320,192,46532,1,2,0:0:0:0:
192,192,46632,1,2,0:0:0:0:
448,192,46732,1,2,0:0:0:0:
64,192,46732,1,0,0:0:0:0:
320,192,46932,1,2,0:0:0:0:
64,192,47032,1,0,0:0:0:0:
448,192,47032,1,2,0:0:0:0:
64,192,47132,1,2,0:0:0:0:
192,192,47232,1,2,0:0:0:0:
448,192,47332,1,0,0:0:0:0:
320,192,47332,1,2,0:0:0:0:
320,192,47432,1,2,0:0:0:0:
64,192,47532,1,2,0:0:0:0:
192,192,47632,1,2,0:0:0:0:
448,192,47632,1,0,0:0:0:0:
192,192,47732,1,2,0:0:0:0:
320,192,47832,1,2,0:0:0:0:
448,192,47932,1,2,0:0:0:0:
64,192,47932,1,0,0:0:0:0:
448,192,48032,1,2,0:0:0:0:
192,192,48132,1,2,0:0:0:0:
64,192,48232,1,0,0:0:0:0:
320,192,48232,1,2,0:0:0:0:
192,192,48432,1,2,0:0:0:0:
320,192,48532,1,0,0:0:0:0:
448,192,48532,1,2,0:0:0:0:
320,192,48632,1,2,0:0:0:0:
192,192,48732,1,2,0:0:0:0:
64,192,48832,1,0,0:0:0:0:
448,192,48832,1,2,0:0:0:0:
320,192,49032,1,2,0:0:0:0:
64,192,49132,1,2,0:0:0:0:
192,192,49132,128,0,49432:0:0:0:0:
448,192,49332,1,2,0:0:0:0:
320,192,49432,1,2,0:0:0:0:
64,192,49432,1,0,0:0:0:0:
192,192,49632,1,2,0:0:0:0:
320,192,49732,1,0,0:0:0:0:
448,192,49732,1,2,0:0:0:0:
64,192,49832,1,2,0:0:0:0:
320,192,49932,1,2,0:0:0:0:
448,192,50032,1,2,0:0:0:0:
192,192,50032,128,0,50332:0:0:0:0:
448,192,50332,128,0,50632:0:0:0:0:
64,192,50332,1,2,0:0:0:0:
192,192,50432,1,2,0:0:0:0:
64,192,50532,1,2,0:0:0:0:
192,192,50632,1,2,0:0:0:0:
320,192,50632,1,0,0:0:0:0:
64,192,50832,1,2,0:0:0:0:
320,192,50932,1,0,0:0:0:0:
448,192,50932,1,8,0:0:0:0:
192,192,50932,1,2,0:0:0:0:
320,192,51032,1,2,0:0:0:0:
192,192,51132,1,2,0:0:0:0:
64,192,51232,1,2,0:0:0:0:
448,192,51232,1,0,0:0:0:0:
192,192,51432,1,2,0:0:0:0:
320,192,51532,1,0,0:0:0:0:
448,192,51532,1,8,0:0:0:0:
64,192,51532,1,2,0:0:0:0:
64,192,51632,1,2,0:0:0:0:
448,192,51732,1,2,0:0:0:0:
320,192,51832,1,2,0:0:0:0:
192,192,51832,1,0,0:0:0:0:
192,192,52032,1,2,0:0:0:0:
64,192,52132,1,8,0:0:0:0:
320,192,52132,1,0,0:0:0:0:
448,192,52132,1,2,0:0:0:0:
320,192,52232,1,2,0:0:0:0:
192,192,52332,1,2,0:0:0:0:
64,192,52432,1,0,0:0:0:0:
448,192,52432,1,2,0:0:0:0:
192,192,52632,1,2,0:0:0:0:
320,192,52732,1,8,0:0:0:0:
448,192,52732,1,2,0:0:0:0:
64,192,52732,1,0,0:0:0:0:
192,192,52832,1,2,0:0:0:0:
320,192,52932,1,2,0:0:0:0:
448,192,53032,1,2,0:0:0:0:
64,192,53032,1,0,0:0:0:0:
192,192,53232,1,2,0:0:0:0:
320,192,53332,1,8,0:0:0:0:
448,192,53332,1,2,0:0:0:0:
64,192,53332,1,0,0:0:0:0:
320,192,53432,1,2,0:0:0:0:
192,192,53532,1,2,0:0:0:0:
64,192,53632,1,0,0:0:0:0:
448,192,53632,1,2,0:0:0:0:
320,192,53832,1,2,0:0:0:0:
64,192,53932,1,0,0:0:0:0:
192,192,53932,128,8,54232:0:0:0:0:
448,192,53932,1,2,0:0:0:0:
320,192,54232,1,0,0:0:0:0:
448,192,54232,1,2,0:0:0:0:
192,192,54432,1,2,0:0:0:0:
320,192,54532,1,8,0:0:0:0:
448,192,54532,1,2,0:0:0:0:
64,192,54532,1,0,0:0:0:0:
448,192,54632,1,2,0:0:0:0:
192,192,54732,1,2,0:0:0:0:
64,192,54832,1,0,0:0:0:0:
320,192,54832,128,2,55132:0:0:0:0:
64,192,55132,128,0,55432:0:0:0:0:
448,192,55132,1,2,0:0:0:0:
192,192,55132,1,8,0:0:0:0:
320,192,55232,1,2,0:0:0:0:
448,192,55332,1,2,0:0:0:0:
192,192,55432,1,0,0:0:0:0:
320,192,55432,1,2,0:0:0:0:
192,192,55532,1,2,0:0:0:0:
448,192,55632,1,2,0:0:0:0:
320,192,55732,1,2,0:0:0:0:
64,192,55732,1,8,0:0:0:0:
192,192,55732,1,0,0:0:0:0:
64,192,56032,1,0,0:0:0:0:
320,192,56032,1,2,0:0:0:0:
320,192,56132,1,2,0:0:0:0:
192,192,56232,1,2,0:0:0:0:
320,192,56332,1,2,0:0:0:0:
64,192,56332,1,0,0:0:0:0:
448,192,56332,1,8,0:0:0:0:
192,192,56532,1,2,0:0:0:0:
320,192,56632,1,2,0:0:0:0:
448,192,56632,1,0,0:0:0:0:
64,192,56732,1,2,0:0:0:0:
192,192,56832,1,2,0:0:0:0:
448,192,56932,1,8,0:0:0:0:
64,192,56932,1,2,0:0:0:0:
320,192,56932,1,0,0:0:0:0:
192,192,57032,1,2,0:0:0:0:
448,192,57132,1,2,0:0:0:0:
320,192,57232,1,0,0:0:0:0:
64,192,57232,1,2,0:0:0:0:
192,192,57332,1,2,0:0:0:0:
320,192,57432,1,2,0:0:0:0:
448,192,57532,1,2,0:0:0:0:
192,192,57532,1,8,0:0:0:0:
64,192,57532,1,0,0:0:0:0:
320,192,57632,1,2,0:0:0:0:
192,192,57732,1,2,0:0:0:0:
320,192,57832,1,2,0:0:0:0:
448,192,57832,1,0,0:0:0:0:
192,192,58032,1,2,0:0:0:0:
320,192,58132,1,8,0:0:0:0:
448,192,58132,1,0,0:0:0:0:
64,192,58132,1,2,0:0:0:0:
320,192,58232,1,2,0:0:0:0:
64,192,58332,1,2,0:0:0:0:
448,192,58432,1,0,0:0:0:0:
192,192,58432,1,2,0:0:0:0:
320,192,58632,1,2,0:0:0:0:
64,192,58732,1,2,0:0:0:0:
192,192,58732,128,8,59032:0:0:0:0:
448,192,58732,1,0,0:0:0:0:
320,192,59032,1,0,0:0:0:0:
320,192,59232,1,0,0:0:0:0:
448,192,59332,1,0,0:0:0:0:
320,192,59432,1,0,0:0:0:0:
192,192,59532,1,0,0:0:0:0:
448,192,59632,128,0,59932:0:0:0:0:
64,192,59932,128,0,60232:0:0:0:0:
320,192,60232,5,0,0:0:0:0:
448,192,60232,1,0,0:0:0:0:
192,192,60432,1,0,0:0:0:0:
320,192,60532,1,0,0:0:0:0:
448,192,60532,1,0,0:0:0:0:
64,192,60732,1,0,0:0:0:0:
320,192,60832,1,0,0:0:0:0:
192,192,60832,1,0,0:0:0:0:
448,192,60832,1,8,0:0:0:0:
448,192,61032,1,0,0:0:0:0:
192,192,61132,1,0,0:0:0:0:
64,192,61132,1,0,0:0:0:0:
320,192,61332,1,0,0:0:0:0:
192,192,61432,1,0,0:0:0:0:
64,192,61632,1,0,0:0:0:0:
320,192,61732,1,0,0:0:0:0:
448,192,61732,1,0,0:0:0:0:
192,192,61932,1,0,0:0:0:0:
64,192,62032,1,0,0:0:0:0:
448,192,62032,1,8,0:0:0:0:
320,192,62032,1,0,0:0:0:0:
320,192,62232,1,0,0:0:0:0:
64,192,62332,1,0,0:0:0:0:
192,192,62332,128,0,62632:0:0:0:0:
320,192,62632,1,0,0:0:0:0:
448,192,62632,1,0,0:0:0:0:
320,192,62832,1,0,0:0:0:0:
448,192,62932,1,0,0:0:0:0:
192,192,62932,1,0,0:0:0:0:
192,192,63132,1,0,0:0:0:0:
448,192,63232,1,8,0:0:0:0:
64,192,63232,1,0,0:0:0:0:
320,192,63232,1,0,0:0:0:0:
320,192,63432,1,0,0:0:0:0:
192,192,63532,1,0,0:0:0:0:
64,192,63532,1,0,0:0:0:0:
192,192,63732,1,0,0:0:0:0:
320,192,63832,1,0,0:0:0:0:
192,192,64032,1,0,0:0:0:0:
320,192,64132,1,0,0:0:0:0:
448,192,64132,1,0,0:0:0:0:
192,192,64232,1,0,0:0:0:0:
320,192,64332,1,0,0:0:0:0:
448,192,64432,1,0,0:0:0:0:
64,192,64432,1,8,0:0:0:0:
192,192,64432,1,0,0:0:0:0:
64,192,64732,1,0,0:0:0:0:
192,192,64732,128,0,65032:0:0:0:0:
320,192,65032,1,0,0:0:0:0:
448,192,65032,1,0,0:0:0:0:
192,192,65132,1,0,0:0:0:0:
64,192,65232,1,0,0:0:0:0:
320,192,65332,1,0,0:0:0:0:
448,192,65332,1,0,0:0:0:0:
192,192,65432,1,0,0:0:0:0:
320,192,65532,1,0,0:0:0:0:
448,192,65632,1,0,0:0:0:0:
64,192,65632,1,8,0:0:0:0:
192,192,65632,1,0,0:0:0:0:
320,192,65732,1,0,0:0:0:0:
64,192,65832,1,0,0:0:0:0:
448,192,65932,1,0,0:0:0:0:
192,192,65932,1,0,0:0:0:0:
320,192,66032,1,0,0:0:0:0:
64,192,66132,1,0,0:0:0:0:
448,192,66232,1,0,0:0:0:0:
320,192,66232,1,0,0:0:0:0:
192,192,66432,1,0,0:0:0:0:
448,192,66532,1,0,0:0:0:0:
64,192,66532,1,0,0:0:0:0:
320,192,66632,1,0,0:0:0:0:
192,192,66732,1,0,0:0:0:0:
64,192,66832,1,8,0:0:0:0:
448,192,66832,1,0,0:0:0:0:
320,192,66832,1,0,0:0:0:0:
192,192,67032,1,0,0:0:0:0:
448,192,67132,1,0,0:0:0:0:
320,192,67132,128,0,67432:0:0:0:0:
192,192,67332,1,0,0:0:0:0:
64,192,67432,1,0,0:0:0:0:
448,192,67432,1,0,0:0:0:0:
320,192,67532,1,0,0:0:0:0:
192,192,67632,1,0,0:0:0:0:
64,192,67732,1,0,0:0:0:0:
448,192,67732,1,0,0:0:0:0:
192,192,67832,1,0,0:0:0:0:
320,192,67932,1,0,0:0:0:0:
448,192,68032,1,0,0:0:0:0:
64,192,68032,1,8,0:0:0:0:
192,192,68032,1,0,0:0:0:0:
320,192,68132,1,0,0:0:0:0:
192,192,68232,1,0,0:0:0:0:
64,192,68332,1,0,0:0:0:0:
320,192,68432,1,0,0:0:0:0:
448,192,68532,1,0,0:0:0:0:
64,192,68632,1,0,0:0:0:0:
192,192,68632,1,0,0:0:0:0:
448,192,68732,1,0,0:0:0:0:
320,192,68832,1,0,0:0:0:0:
192,192,68932,1,0,0:0:0:0:
320,192,69032,1,0,0:0:0:0:
192,192,69132,1,0,0:0:0:0:
64,192,69232,1,8,0:0:0:0:
448,192,69232,1,0,0:0:0:0:
320,192,69332,1,0,0:0:0:0:
192,192,69432,1,0,0:0:0:0:
448,192,69532,1,0,0:0:0:0:
320,192,69632,1,0,0:0:0:0:
192,192,69732,1,0,0:0:0:0:
64,192,69832,1,0,0:0:0:0:
448,192,69832,1,0,0:0:0:0:
