osu file format v14

[General]
AudioFilename: audio.mp3
AudioLeadIn: 0
PreviewTime: 41032
Countdown: 0
SampleSet: None
StackLeniency: 0.7
Mode: 3
LetterboxInBreaks: 0
SpecialStyle: 0
WidescreenStoryboard: 0

[Editor]
DistanceSpacing: 0.8
BeatDivisor: 3
GridSize: 8
TimelineZoom: 1.4

[Metadata]
Title:Chiptune & Baroque
TitleUnicode:Chiptune & Baroque
Artist:Thaehan
ArtistUnicode:Thaehan
Creator:Raveille
Version:EZ
Source:osu!
Tags:featured artist bwa electronic hydria 8 bit 8-bit
BeatmapID:1249381
BeatmapSetID:590323

[Difficulty]
HPDrainRate:7
CircleSize:4
OverallDifficulty:7
ApproachRate:5
SliderMultiplier:1.4
SliderTickRate:1

[Events]
//Background and Video events
0,0,"chiptunebaroque.png",0,0
//Break Periods
//Storyboard Layer 0 (Background)
//Storyboard Layer 1 (Fail)
//Storyboard Layer 2 (Pass)
//Storyboard Layer 3 (Foreground)
//Storyboard Sound Samples

[TimingPoints]
232,300,4,3,1,10,1,0
41032,-100,4,3,1,30,0,1
50332,-100,4,3,1,30,0,0
50632,-100,4,3,1,30,0,1
59032,-100,4,3,1,10,0,0

[HitObjects]
320,192,232,5,0,0:0:0:0:
64,192,832,1,0,0:0:0:0:
448,192,832,1,8,0:0:0:0:
192,192,1432,1,0,0:0:0:0:
64,192,2032,1,8,0:0:0:0:
320,192,2032,1,0,0:0:0:0:
192,192,2332,128,0,2632:0:0:0:0:
448,192,2632,1,0,0:0:0:0:
64,192,3232,1,8,0:0:0:0:
320,192,3232,1,0,0:0:0:0:
192,192,3832,1,0,0:0:0:0:
448,192,4132,1,0,0:0:0:0:
64,192,4432,1,8,0:0:0:0:
192,192,4432,1,0,0:0:0:0:
448,192,4732,128,0,5032:0:0:0:0:
64,192,5032,128,0,5632:0:0:0:0:
192,192,5632,128,0,6232:0:0:0:0:
320,192,5632,1,8,0:0:0:0:
448,192,6232,1,0,0:0:0:0:
64,192,6532,1,0,0:0:0:0:
448,192,6832,1,8,0:0:0:0:
320,192,6832,1,0,0:0:0:0:
192,192,7132,128,0,7432:0:0:0:0:
448,192,7432,128,0,8032:0:0:0:0:
320,192,8032,128,0,8632:0:0:0:0:
64,192,8032,1,8,0:0:0:0:
192,192,8632,128,0,9232:0:0:0:0:
64,192,9232,128,0,9532:0:0:0:0:
320,192,9232,1,8,0:0:0:0:
448,192,9532,128,0,9832:0:0:0:0:
192,192,9832,1,0,0:0:0:0:
448,192,10432,1,8,0:0:0:0:
64,192,10432,1,0,0:0:0:0:
320,192,11032,1,0,0:0:0:0:
448,192,11632,1,0,0:0:0:0:
192,192,11632,1,8,0:0:0:0:
320,192,11932,128,0,12232:0:0:0:0:
64,192,12232,1,0,0:0:0:0:
448,192,12832,1,0,0:0:0:0:
192,192,12832,1,8,0:0:0:0:
192,192,13432,1,0,0:0:0:0:
448,192,13732,1,0,0:0:0:0:
64,192,14032,1,8,0:0:0:0:
192,192,14032,1,0,0:0:0:0:
320,192,14332,128,0,14632:0:0:0:0:
64,192,14632,128,0,15232:0:0:0:0:
192,192,15232,128,0,15832:0:0:0:0:
320,192,15232,1,8,0:0:0:0:
448,192,15832,1,0,0:0:0:0:
320,192,16132,1,0,0:0:0:0:
64,192,16432,1,8,0:0:0:0:
192,192,16432,1,0,0:0:0:0:
320,192,16732,128,0,17032:0:0:0:0:
448,192,17032,128,0,17632:0:0:0:0:
192,192,17632,128,0,18232:0:0:0:0:
64,192,17632,1,8,0:0:0:0:
320,192,18232,128,0,18832:0:0:0:0:
64,192,18832,128,0,19132:0:0:0:0:
192,192,18832,1,8,0:0:0:0:
448,192,19132,128,0,19432:0:0:0:0:
64,192,19432,128,0,20032:0:0:0:0:
192,192,20032,128,0,20632:0:0:0:0:
320,192,20632,128,0,21232:0:0:0:0:
448,192,21232,128,0,21832:0:0:0:0:
192,192,21532,1,0,0:0:0:0:
64,192,21532,1,8,0:0:0:0:
320,192,21832,1,0,0:0:0:0:
448,192,22432,1,8,0:0:0:0:
64,192,22432,1,0,0:0:0:0:
192,192,23032,1,0,0:0:0:0:
320,192,23632,1,8,0:0:0:0:
64,192,23632,1,0,0:0:0:0:
192,192,23932,128,0,24232:0:0:0:0:
448,192,24232,1,0,0:0:0:0:
320,192,24832,1,0,0:0:0:0:
64,192,24832,1,8,0:0:0:0:
192,192,25432,1,0,0:0:0:0:
448,192,25732,1,0,0:0:0:0:
192,192,26032,1,8,0:0:0:0:
64,192,26032,1,0,0:0:0:0:
448,192,26332,128,0,26632:0:0:0:0:
64,192,26632,128,0,27232:0:0:0:0:
320,192,27232,1,8,0:0:0:0:
192,192,27232,128,0,27832:0:0:0:0:
448,192,27832,1,0,0:0:0:0:
320,192,28132,1,0,0:0:0:0:
192,192,28432,1,0,0:0:0:0:
64,192,28432,1,8,0:0:0:0:
320,192,28732,128,0,29032:0:0:0:0:
448,192,29032,128,0,29632:0:0:0:0:
64,192,29632,128,0,30232:0:0:0:0:
320,192,29632,1,8,0:0:0:0:
448,192,30232,128,0,30832:0:0:0:0:
64,192,30832,128,0,31132:0:0:0:0:
192,192,30832,1,8,0:0:0:0:
448,192,31132,128,0,31432:0:0:0:0:
192,192,31432,1,0,0:0:0:0:
448,192,32032,1,0,0:0:0:0:
64,192,32032,1,8,0:0:0:0:
320,192,32632,1,0,0:0:0:0:
448,192,33232,1,8,0:0:0:0:
192,192,33232,1,0,0:0:0:0:
320,192,33532,128,0,33832:0:0:0:0:
64,192,33832,1,0,0:0:0:0:
448,192,34432,1,0,0:0:0:0:
192,192,34432,1,8,0:0:0:0:
320,192,35032,1,0,0:0:0:0:
64,192,35332,1,0,0:0:0:0:
448,192,35632,1,8,0:0:0:0:
320,192,35632,1,0,0:0:0:0:
192,192,35932,128,0,36232:0:0:0:0:
64,192,36232,128,0,36832:0:0:0:0:
192,192,36832,128,0,37432:0:0:0:0:
320,192,36832,1,8,0:0:0:0:
448,192,37432,1,0,0:0:0:0:
64,192,37732,1,0,0:0:0:0:
448,192,38032,1,0,0:0:0:0:
320,192,38032,1,8,0:0:0:0:
192,192,38332,128,0,38632:0:0:0:0:
320,192,38632,128,0,39232:0:0:0:0:
448,192,39232,128,0,39832:0:0:0:0:
64,192,39232,1,8,0:0:0:0:
192,192,39832,128,0,40432:0:0:0:0:
64,192,40432,128,0,40732:0:0:0:0:
448,192,40732,128,0,41032:0:0:0:0:
320,192,41032,1,2,0:0:0:0:
192,192,41332,1,2,0:0:0:0:
320,192,41632,1,2,0:0:0:0:
192,192,41932,1,2,0:0:0:0:
448,192,42232,1,2,0:0:0:0:
64,192,42532,1,2,0:0:0:0:
448,192,42832,1,2,0:0:0:0:
64,192,43132,1,2,0:0:0:0:
192,192,43432,1,2,0:0:0:0:
448,192,43732,1,2,0:0:0:0:
192,192,44032,1,2,0:0:0:0:
320,192,44332,1,2,0:0:0:0:
448,192,44632,1,2,0:0:0:0:
192,192,44932,1,2,0:0:0:0:
448,192,45232,1,2,0:0:0:0:
64,192,45532,1,2,0:0:0:0:
320,192,45832,1,2,0:0:0:0:
64,192,46132,1,2,0:0:0:0:
320,192,46432,1,2,0:0:0:0:
448,192,46732,1,2,0:0:0:0:
192,192,47032,1,2,0:0:0:0:
448,192,47332,1,2,0:0:0:0:
320,192,47632,1,2,0:0:0:0:
64,192,47932,1,2,0:0:0:0:
320,192,48232,1,2,0:0:0:0:
64,192,48532,1,2,0:0:0:0:
320,192,48832,1,2,0:0:0:0:
192,192,49132,1,2,0:0:0:0:
64,192,49432,1,2,0:0:0:0:
320,192,49732,1,2,0:0:0:0:
448,192,50032,1,2,0:0:0:0:
192,192,50332,1,2,0:0:0:0:
64,192,50632,1,2,0:0:0:0:
192,192,50932,1,2,0:0:0:0:
320,192,50932,1,8,0:0:0:0:
448,192,51232,1,2,0:0:0:0:
320,192,51532,1,2,0:0:0:0:
192,192,51532,1,8,0:0:0:0:
64,192,51832,1,2,0:0:0:0:
192,192,52132,1,2,0:0:0:0:
320,192,52132,1,8,0:0:0:0:
448,192,52432,1,2,0:0:0:0:
192,192,52732,1,8,0:0:0:0:
320,192,52732,1,2,0:0:0:0:
64,192,53032,1,2,0:0:0:0:
192,192,53332,1,2,0:0:0:0:
448,192,53332,1,8,0:0:0:0:
320,192,53632,1,2,0:0:0:0:
64,192,53932,1,8,0:0:0:0:
192,192,53932,1,2,0:0:0:0:
320,192,54232,1,2,0:0:0:0:
448,192,54532,1,2,0:0:0:0:
192,192,54532,1,8,0:0:0:0:
64,192,54832,1,2,0:0:0:0:
448,192,55132,1,8,0:0:0:0:
320,192,55132,1,2,0:0:0:0:
192,192,55432,1,2,0:0:0:0:
64,192,55732,1,2,0:0:0:0:
320,192,55732,1,8,0:0:0:0:
448,192,56032,1,2,0:0:0:0:
64,192,56332,1,2,0:0:0:0:
320,192,56332,1,8,0:0:0:0:
192,192,56632,1,2,0:0:0:0:
448,192,56932,1,2,0:0:0:0:
320,192,56932,1,8,0:0:0:0:
64,192,57232,1,2,0:0:0:0:
448,192,57532,1,2,0:0:0:0:
320,192,57532,1,8,0:0:0:0:
192,192,57832,1,2,0:0:0:0:
448,192,58132,1,2,0:0:0:0:
64,192,58132,1,8,0:0:0:0:
192,192,58432,1,2,0:0:0:0:
320,192,58732,1,8,0:0:0:0:
448,192,58732,1,2,0:0:0:0:
64,192,59032,128,0,59632:0:0:0:0:
448,192,59632,128,0,59932:0:0:0:0:
192,192,59932,128,0,60232:0:0:0:0:
320,192,60232,1,0,0:0:0:0:
64,192,60832,1,8,0:0:0:0:
448,192,60832,1,0,0:0:0:0:
320,192,61432,1,0,0:0:0:0:
192,192,62032,1,0,0:0:0:0:
448,192,62032,1,8,0:0:0:0:
320,192,62332,128,0,62632:0:0:0:0:
64,192,62632,1,0,0:0:0:0:
192,192,63232,1,8,0:0:0:0:
448,192,63232,1,0,0:0:0:0:
192,192,63832,1,0,0:0:0:0:
448,192,64132,1,0,0:0:0:0:
192,192,64432,1,0,0:0:0:0:
64,192,64432,1,8,0:0:0:0:
320,192,64732,128,0,65032:0:0:0:0:
64,192,65032,128,0,65632:0:0:0:0:
320,192,65632,1,8,0:0:0:0:
192,192,65632,128,0,66232:0:0:0:0:
448,192,66232,1,0,0:0:0:0:
64,192,66532,1,0,0:0:0:0:
320,192,66832,1,0,0:0:0:0:
448,192,66832,1,8,0:0:0:0:
192,192,67132,128,0,67432:0:0:0:0:
448,192,67432,128,0,68032:0:0:0:0:
64,192,68032,1,8,0:0:0:0:
320,192,68032,128,0,68632:0:0:0:0:
448,192,68632,128,0,69232:0:0:0:0:
64,192,69232,1,8,0:0:0:0:
192,192,69232,128,0,69532:0:0:0:0:
320,192,69532,128,0,69832:0:0:0:0:
64,192,69832,1,0,0:0:0:0:
