osu file format v14

[General]
AudioFilename: audio.mp3
AudioLeadIn: 0
PreviewTime: 12081
Countdown: 0
SampleSet: Normal
StackLeniency: 0.7
Mode: 3
LetterboxInBreaks: 0
SpecialStyle: 0
WidescreenStoryboard: 0

[Editor]
DistanceSpacing: 0.8
BeatDivisor: 4
GridSize: 16
TimelineZoom: 3

[Metadata]
Title:Bwa !
TitleUnicode:Bwa !
Artist:Thaehan
ArtistUnicode:Thaehan
Creator:Voxa
Version:Power Up !
Source:osu!
Tags:electronic chiptune fa featured artist instrumental loki mappers' guild mg
BeatmapID:2341886
BeatmapSetID:1120790

[Difficulty]
HPDrainRate:8
CircleSize:4
OverallDifficulty:8
ApproachRate:5
SliderMultiplier:1.4
SliderTickRate:1

[Events]
//Background and Video events
0,0,"stretched-1366-768-705445.jpg",0,0
//Break Periods
//Storyboard Layer 0 (Background)
//Storyboard Layer 1 (Fail)
//Storyboard Layer 2 (Pass)
//Storyboard Layer 3 (Foreground)
//Storyboard Layer 4 (Overlay)
//Storyboard Sound Samples

[TimingPoints]
1896,318.302387267905,4,1,1,10,1,0
5715,-100,4,1,1,20,0,0
6988,-100,4,1,1,30,0,0
8262,-100,4,1,1,40,0,0
9535,-100,4,1,1,50,0,0
12081,-100,4,1,1,50,0,1
31816,-100,4,1,1,50,0,0
33089,-57.1428571428571,4,1,1,50,0,0
33129,-400,4,1,1,50,0,0
33169,-100,4,1,1,50,0,0
33248,-57.1429,4,1,1,50,0,0
33288,-400,4,1,1,50,0,0
33328,-100,4,1,1,50,0,0
34362,-57.1429,4,1,1,50,0,0
34402,-400,4,1,1,50,0,0
34442,-100,4,1,1,50,0,0
34521,-57.1429,4,1,1,50,0,0
34561,-400,4,1,1,50,0,0
34601,-100,4,1,1,50,0,0
34681,-57.1429,4,1,1,50,0,0
34721,-400,4,1,1,50,0,0
34761,-100,4,1,1,50,0,0
34840,-57.1429,4,1,1,50,0,0
34880,-400,4,1,1,50,0,0
34920,-100,4,1,1,50,0,0
36272,-57.1429,4,1,1,50,0,0
36312,-400,4,1,1,50,0,0
36352,-100,4,1,1,50,0,0
36431,-57.1429,4,1,1,50,0,0
36471,-400,4,1,1,50,0,0
36511,-100,4,1,1,50,0,0
36590,-57.1429,4,1,1,50,0,0
36630,-400,4,1,1,50,0,0
36670,-100,4,1,1,50,0,0
36750,-57.1429,4,1,1,50,0,0
36790,-400,4,1,1,50,0,0
36830,-100,4,1,1,50,0,0
39455,-57.1429,4,1,1,50,0,0
39495,-400,4,1,1,50,0,0
39535,-100,4,1,1,50,0,0
39614,-57.1429,4,1,1,50,0,0
39654,-400,4,1,1,50,0,0
39694,-100,4,1,1,50,0,0
39773,-57.1429,4,1,1,50,0,0
39813,-400,4,1,1,50,0,0
39853,-100,4,1,1,50,0,0
39933,-57.1429,4,1,1,50,0,0
39973,-400,4,1,1,50,0,0
40013,-100,4,1,1,50,0,0
41365,-57.1429,4,1,1,50,0,0
41405,-400,4,1,1,50,0,0
41445,-100,4,1,1,50,0,0
41524,-57.1429,4,1,1,50,0,0
41564,-400,4,1,1,50,0,0
41604,-100,4,1,1,50,0,0
41683,-57.1429,4,1,1,50,0,0
41723,-400,4,1,1,50,0,0
41763,-100,4,1,1,50,0,0
41842,-57.1429,4,1,1,50,0,0
41882,-400,4,1,1,50,0,0
41922,-100,4,1,1,50,0,0
43275,-57.1429,4,1,1,50,0,0
43315,-400,4,1,1,50,0,0
43355,-100,4,1,1,50,0,0
43434,-57.1429,4,1,1,50,0,0
43474,-400,4,1,1,50,0,0
43514,-100,4,1,1,50,0,0
44548,-57.1429,4,1,1,50,0,0
44588,-400,4,1,1,50,0,0
44628,-100,4,1,1,50,0,0
44707,-57.1429,4,1,1,50,0,0
44747,-400,4,1,1,50,0,0
44787,-100,4,1,1,50,0,0
44866,-57.1429,4,1,1,50,0,0
44906,-400,4,1,1,50,0,0
44946,-100,4,1,1,50,0,0
45025,-57.1429,4,1,1,50,0,0
45065,-400,4,1,1,50,0,0
45105,-100,4,1,1,50,0,0
46458,-57.1429,4,1,1,50,0,0
46498,-400,4,1,1,50,0,0
46538,-100,4,1,1,50,0,0
46617,-57.1429,4,1,1,50,0,0
46657,-400,4,1,1,50,0,0
46697,-100,4,1,1,50,0,0
46776,-57.1429,4,1,1,50,0,0
46816,-400,4,1,1,50,0,0
46856,-100,4,1,1,50,0,0
46935,-57.1429,4,1,1,50,0,0
46975,-400,4,1,1,50,0,0
47015,-100,4,1,1,50,0,0
49641,-57.1429,4,1,1,50,0,0
49681,-400,4,1,1,50,0,0
49721,-100,4,1,1,50,0,0
49800,-57.1429,4,1,1,50,0,0
49840,-400,4,1,1,50,0,0
49880,-100,4,1,1,50,0,0
49959,-57.1429,4,1,1,50,0,0
49999,-400,4,1,1,50,0,0
50039,-100,4,1,1,50,0,0
50118,-57.1429,4,1,1,50,0,0
50158,-400,4,1,1,50,0,0
50198,-100,4,1,1,50,0,0
51551,-57.1429,4,1,1,50,0,0
51591,-400,4,1,1,50,0,0
51631,-100,4,1,1,50,0,0
51710,-57.1429,4,1,1,50,0,0
51750,-400,4,1,1,50,0,0
51790,-100,4,1,1,50,0,0
51869,-57.1429,4,1,1,50,0,0
51909,-400,4,1,1,50,0,0
51949,-100,4,1,1,50,0,0
52028,-57.1429,4,1,1,50,0,0
52068,-400,4,1,1,50,0,0
52108,-100,4,1,1,50,0,0
52824,-55.5555555555556,4,1,1,50,0,0
52864,-500,4,1,1,50,0,0
52903,-55.5555555555556,4,1,1,50,0,0
52943,-500,4,1,1,50,0,0
52983,-55.5555555555556,4,1,1,50,0,0
53023,-500,4,1,1,50,0,0
53063,-55.5555555555556,4,1,1,50,0,0
53103,-500,4,1,1,50,0,0
53142,-57.1429,4,1,1,50,0,0
53182,-400,4,1,1,50,0,0
53222,-100,4,1,1,50,0,0
53301,-57.1429,4,1,1,50,0,0
53341,-400,4,1,1,50,0,0
53381,-100,4,1,1,50,0,0
53460,-57.1429,4,1,1,50,0,0
53500,-400,4,1,1,50,0,0
53540,-100,4,1,1,50,0,0
53620,-57.1429,4,1,1,50,0,0
53660,-400,4,1,1,50,0,0
53700,-100,4,1,1,50,0,0
53779,-57.1429,4,1,1,50,0,0
53819,-400,4,1,1,50,0,0
53859,-100,4,1,1,50,0,0
53938,-57.1429,4,1,1,50,0,0
53978,-400,4,1,1,50,0,0
54018,-100,4,1,1,50,0,0
54097,-57.1428571428571,4,1,1,50,0,0
54137,-400,4,1,1,50,0,0
54177,-57.1429,4,1,1,50,0,0
54217,-400,4,1,1,50,0,0
54256,-57.1429,4,1,1,50,0,0
54296,-400,4,1,1,50,0,0
54336,-57.1429,4,1,1,50,0,0
54376,-400,4,1,1,50,0,0
54415,-57.1429,4,1,1,50,0,0
54455,-400,4,1,1,50,0,0
54495,-100,4,1,1,50,0,0
54575,-57.1429,4,1,1,50,0,0
54615,-400,4,1,1,50,0,0
54655,-100,4,1,1,50,0,0
54734,-200,4,1,1,50,0,0
54893,-66.6666666666667,4,1,1,50,0,0
55052,-200,4,1,1,50,0,0
55211,-66.6666666666667,4,1,1,50,0,0
55370,-57.1429,4,1,1,50,0,0
55410,-400,4,1,1,50,0,0
55450,-100,4,1,1,50,0,0
55529,-57.1429,4,1,1,50,0,0
55569,-400,4,1,1,50,0,0
55609,-100,4,1,1,50,0,0
55689,-57.1429,4,1,1,50,0,0
55729,-400,4,1,1,50,0,0
55768,-57.1429,4,1,1,50,0,0
55808,-400,4,1,1,50,0,0
55848,-57.1429,4,1,1,50,0,0
55888,-400,4,1,1,50,0,0
55927,-57.1429,4,1,1,50,0,0
55967,-400,4,1,1,50,0,0
56007,-55.5556,4,1,1,50,0,0
56047,-500,4,1,1,50,0,0
56086,-55.5556,4,1,1,50,0,0
56126,-500,4,1,1,50,0,0
56166,-55.5556,4,1,1,50,0,0
56206,-500,4,1,1,50,0,0
56246,-55.5556,4,1,1,50,0,0
56286,-500,4,1,1,50,0,0
56325,-55.5556,4,1,1,50,0,0
56365,-500,4,1,1,50,0,0
56404,-55.5556,4,1,1,50,0,0
56444,-500,4,1,1,50,0,0
56484,-55.5556,4,1,1,50,0,0
56524,-500,4,1,1,50,0,0
56564,-55.5556,4,1,1,50,0,0
56604,-500,4,1,1,50,0,0
56644,-100,4,1,1,50,0,0
57917,-55.5556,4,1,1,50,0,0
57957,-500,4,1,1,50,0,0
57996,-55.5556,4,1,1,50,0,0
58036,-500,4,1,1,50,0,0
58076,-55.5556,4,1,1,50,0,0
58116,-500,4,1,1,50,0,0
58156,-55.5556,4,1,1,50,0,0
58196,-500,4,1,1,50,0,0
58235,-57.1429,4,1,1,50,0,0
58275,-400,4,1,1,50,0,0
58315,-100,4,1,1,50,0,0
58394,-57.1429,4,1,1,50,0,0
58434,-400,4,1,1,50,0,0
58474,-100,4,1,1,50,0,0
58553,-57.1429,4,1,1,50,0,0
58593,-400,4,1,1,50,0,0
58633,-100,4,1,1,50,0,0
58712,-57.1429,4,1,1,50,0,0
58752,-400,4,1,1,50,0,0
58792,-100,4,1,1,50,0,0
58872,-57.1429,4,1,1,50,0,0
58912,-400,4,1,1,50,0,0
58952,-100,4,1,1,50,0,0
59031,-57.1429,4,1,1,50,0,0
59071,-400,4,1,1,50,0,0
59111,-100,4,1,1,50,0,0
59190,-57.1429,4,1,1,50,0,0
59230,-400,4,1,1,50,0,0
59270,-57.1429,4,1,1,50,0,0
59310,-400,4,1,1,50,0,0
59349,-57.1429,4,1,1,50,0,0
59389,-400,4,1,1,50,0,0
59429,-57.1429,4,1,1,50,0,0
59469,-400,4,1,1,50,0,0
59508,-57.1429,4,1,1,50,0,0
59548,-400,4,1,1,50,0,0
59588,-100,4,1,1,50,0,0
59667,-57.1429,4,1,1,50,0,0
59707,-400,4,1,1,50,0,0
59747,-100,4,1,1,50,0,0
59827,-57.1429,4,1,1,50,0,0
59867,-400,4,1,1,50,0,0
59907,-100,4,1,1,50,0,0
59986,-57.1429,4,1,1,50,0,0
60026,-400,4,1,1,50,0,0
60066,-100,4,1,1,50,0,0
60145,-200,4,1,1,50,0,0
60304,-66.6666666666667,4,1,1,50,0,0
60463,-57.1429,4,1,1,50,0,0
60503,-400,4,1,1,50,0,0
60543,-100,4,1,1,50,0,0
60622,-57.1429,4,1,1,50,0,0
60662,-400,4,1,1,50,0,0
60702,-100,4,1,1,50,0,0
60781,-57.1429,4,1,1,50,0,0
60821,-400,4,1,1,50,0,0
60861,-57.1429,4,1,1,50,0,0
60901,-400,4,1,1,50,0,0
60941,-57.1429,4,1,1,50,0,0
60981,-400,4,1,1,50,0,0
61020,-57.1429,4,1,1,50,0,0
61060,-400,4,1,1,50,0,0
61100,-55.5556,4,1,1,50,0,0
61140,-500,4,1,1,50,0,0
61179,-55.5556,4,1,1,50,0,0
61219,-500,4,1,1,50,0,0
61259,-55.5556,4,1,1,50,0,0
61299,-500,4,1,1,50,0,0
61339,-55.5556,4,1,1,50,0,0
61379,-500,4,1,1,50,0,0
61418,-55.5556,4,1,1,50,0,0
61458,-500,4,1,1,50,0,0
61497,-55.5556,4,1,1,50,0,0
61537,-500,4,1,1,50,0,0
61577,-55.5556,4,1,1,50,0,0
61617,-500,4,1,1,50,0,0
61657,-55.5556,4,1,1,50,0,0
61697,-500,4,1,1,50,0,0
61736,-100,4,1,1,40,0,0
62055,-100,4,1,1,30,0,0
62373,-100,4,1,1,20,0,0
62691,-100,4,1,1,15,0,0
63010,-100,4,1,1,50,0,0
63089,-100,4,1,1,15,0,0
66829,-100,4,1,1,20,0,0
68102,-100,4,1,1,30,0,0
69376,-100,4,1,1,40,0,0
70649,-100,4,1,1,50,0,0
73195,-100,4,1,1,50,0,1
92930,-100,4,1,1,50,0,0
98023,-57.1429,4,1,1,50,0,0
98063,-400,4,1,1,50,0,0
98103,-100,4,1,1,50,0,0
98182,-57.1429,4,1,1,50,0,0
98222,-400,4,1,1,50,0,0
98262,-100,4,1,1,50,0,0
99296,-57.1429,4,1,1,50,0,0
99336,-400,4,1,1,50,0,0
99376,-100,4,1,1,50,0,0
99455,-57.1429,4,1,1,50,0,0
99495,-400,4,1,1,50,0,0
99535,-100,4,1,1,50,0,0
99614,-57.1429,4,1,1,50,0,0
99654,-400,4,1,1,50,0,0
99694,-100,4,1,1,50,0,0
99773,-57.1429,4,1,1,50,0,0
99813,-400,4,1,1,50,0,0
99853,-100,4,1,1,50,0,0
101206,-57.1429,4,1,1,50,0,0
101246,-400,4,1,1,50,0,0
101286,-100,4,1,1,50,0,0
101365,-57.1429,4,1,1,50,0,0
101405,-400,4,1,1,50,0,0
101445,-100,4,1,1,50,0,0
101524,-57.1429,4,1,1,50,0,0
101564,-400,4,1,1,50,0,0
101604,-100,4,1,1,50,0,0
101683,-57.1429,4,1,1,50,0,0
101723,-400,4,1,1,50,0,0
101763,-100,4,1,1,50,0,0
104389,-57.1429,4,1,1,50,0,0
104429,-400,4,1,1,50,0,0
104469,-100,4,1,1,50,0,0
104548,-57.1429,4,1,1,50,0,0
104588,-400,4,1,1,50,0,0
104628,-100,4,1,1,50,0,0
104707,-57.1429,4,1,1,50,0,0
104747,-400,4,1,1,50,0,0
104787,-100,4,1,1,50,0,0
104866,-57.1429,4,1,1,50,0,0
104906,-400,4,1,1,50,0,0
104946,-100,4,1,1,50,0,0
106299,-57.1429,4,1,1,50,0,0
106339,-400,4,1,1,50,0,0
106379,-100,4,1,1,50,0,0
106458,-57.1429,4,1,1,50,0,0
106498,-400,4,1,1,50,0,0
106538,-100,4,1,1,50,0,0
106617,-57.1429,4,1,1,50,0,0
106657,-400,4,1,1,50,0,0
106697,-100,4,1,1,50,0,0
106776,-57.1429,4,1,1,50,0,0
106816,-400,4,1,1,50,0,0
106856,-100,4,1,1,50,0,0
108208,-57.1429,4,1,1,50,0,0
108248,-400,4,1,1,50,0,0
108288,-100,4,1,1,50,0,0
108368,-57.1429,4,1,1,50,0,0
108408,-400,4,1,1,50,0,0
108448,-100,4,1,1,50,0,0
109482,-57.1429,4,1,1,50,0,0
109522,-400,4,1,1,50,0,0
109562,-100,4,1,1,50,0,0
109641,-57.1429,4,1,1,50,0,0
109681,-400,4,1,1,50,0,0
109721,-100,4,1,1,50,0,0
109800,-57.1429,4,1,1,50,0,0
109840,-400,4,1,1,50,0,0
109880,-100,4,1,1,50,0,0
109959,-57.1429,4,1,1,50,0,0
109999,-400,4,1,1,50,0,0
110039,-100,4,1,1,50,0,0
111392,-57.1429,4,1,1,50,0,0
111432,-400,4,1,1,50,0,0
111472,-100,4,1,1,50,0,0
111551,-57.1429,4,1,1,50,0,0
111591,-400,4,1,1,50,0,0
111631,-100,4,1,1,50,0,0
111710,-57.1429,4,1,1,50,0,0
111750,-400,4,1,1,50,0,0
111790,-100,4,1,1,50,0,0
111869,-57.1429,4,1,1,50,0,0
111909,-400,4,1,1,50,0,0
111949,-100,4,1,1,50,0,0
114575,-57.1429,4,1,1,50,0,0
114615,-400,4,1,1,50,0,0
114655,-100,4,1,1,50,0,0
114734,-57.1429,4,1,1,50,0,0
114774,-400,4,1,1,50,0,0
114814,-100,4,1,1,50,0,0
114893,-57.1429,4,1,1,50,0,0
114933,-400,4,1,1,50,0,0
114973,-100,4,1,1,50,0,0
115052,-57.1429,4,1,1,50,0,0
115092,-400,4,1,1,50,0,0
115132,-100,4,1,1,50,0,0
116484,-57.1429,4,1,1,50,0,0
116524,-400,4,1,1,50,0,0
116564,-100,4,1,1,50,0,0
116644,-57.1429,4,1,1,50,0,0
116684,-400,4,1,1,50,0,0
116724,-100,4,1,1,50,0,0
116803,-57.1429,4,1,1,50,0,0
116843,-400,4,1,1,50,0,0
116883,-100,4,1,1,50,0,0
116962,-57.1429,4,1,1,50,0,0
117002,-400,4,1,1,50,0,0
117042,-100,4,1,1,50,0,0

[HitObjects]
192,192,1895,128,0,2214:0:0:0:0:
448,192,2214,128,0,2373:0:0:0:0:
320,192,2373,128,0,2532:0:0:0:0:
192,192,2532,128,0,2850:0:0:0:0:
64,192,2850,128,0,3169:0:0:0:0:
320,192,3169,128,0,3328:0:0:0:0:
192,192,3328,128,0,3487:0:0:0:0:
320,192,3487,128,0,3646:0:0:0:0:
448,192,3646,128,0,3805:0:0:0:0:
64,192,3805,128,0,3964:0:0:0:0:
320,192,3964,128,0,4124:0:0:0:0:
192,192,4124,128,0,4283:0:0:0:0:
64,192,4283,128,0,4442:0:0:0:0:
192,192,4442,128,8,4760:0:0:0:0:
320,192,4442,1,0,0:0:0:0:
64,192,4760,1,8,0:0:0:0:
448,192,4760,128,0,4919:0:0:0:0:
320,192,4919,128,0,5079:0:0:0:0:
192,192,5079,128,8,5397:0:0:0:0:
448,192,5079,1,0,0:0:0:0:
64,192,5397,128,8,5715:0:0:0:0:
320,192,5397,1,0,0:0:0:0:
320,192,5715,128,8,5874:0:0:0:0:
448,192,5715,1,0,0:0:0:0:
192,192,5874,128,0,6033:0:0:0:0:
64,192,6033,1,8,0:0:0:0:
320,192,6033,128,0,6193:0:0:0:0:
448,192,6193,128,0,6352:0:0:0:0:
64,192,6352,128,8,6511:0:0:0:0:
192,192,6352,1,0,0:0:0:0:
320,192,6511,128,0,6670:0:0:0:0:
192,192,6670,128,8,6829:0:0:0:0:
448,192,6670,1,0,0:0:0:0:
64,192,6829,128,0,6988:0:0:0:0:
192,192,6988,128,8,7307:0:0:0:0:
320,192,6988,1,0,0:0:0:0:
64,192,7307,1,8,0:0:0:0:
448,192,7307,128,0,7466:0:0:0:0:
320,192,7466,128,0,7625:0:0:0:0:
192,192,7625,128,8,7943:0:0:0:0:
448,192,7625,1,0,0:0:0:0:
64,192,7943,128,8,8262:0:0:0:0:
320,192,7943,1,0,0:0:0:0:
320,192,8262,128,8,8341:0:0:0:0:
448,192,8262,1,0,0:0:0:0:
64,192,8421,1,8,0:0:0:0:
192,192,8421,128,0,8500:0:0:0:0:
320,192,8580,128,8,8659:0:0:0:0:
448,192,8580,1,0,0:0:0:0:
64,192,8739,128,8,8819:0:0:0:0:
192,192,8739,1,0,0:0:0:0:
64,192,8898,1,8,0:0:0:0:
448,192,8898,128,0,8978:0:0:0:0:
320,192,9057,128,8,9137:0:0:0:0:
448,192,9057,1,0,0:0:0:0:
192,192,9216,128,8,9296:0:0:0:0:
320,192,9216,1,0,0:0:0:0:
64,192,9376,128,8,9455:0:0:0:0:
192,192,9376,1,0,0:0:0:0:
320,192,9535,128,8,9614:0:0:0:0:
448,192,9535,1,0,0:0:0:0:
192,192,9614,128,8,9694:0:0:0:0:
64,192,9694,1,8,0:0:0:0:
448,192,9694,128,0,9773:0:0:0:0:
320,192,9773,128,8,9853:0:0:0:0:
64,192,9853,1,8,0:0:0:0:
192,192,9853,128,0,9933:0:0:0:0:
320,192,9933,128,8,10012:0:0:0:0:
64,192,10012,128,8,10092:0:0:0:0:
448,192,10012,1,0,0:0:0:0:
192,192,10092,128,8,10171:0:0:0:0:
320,192,10171,128,8,10251:0:0:0:0:
448,192,10171,1,0,0:0:0:0:
192,192,10251,128,8,10331:0:0:0:0:
64,192,10331,1,8,0:0:0:0:
448,192,10331,128,0,10410:0:0:0:0:
320,192,10410,128,8,10490:0:0:0:0:
64,192,10490,1,8,0:0:0:0:
192,192,10490,128,0,10569:0:0:0:0:
320,192,10569,128,8,10649:0:0:0:0:
64,192,10649,128,8,10728:0:0:0:0:
448,192,10649,1,0,0:0:0:0:
192,192,10728,128,8,10808:0:0:0:0:
320,192,10808,128,8,10967:0:0:0:0:
448,192,10808,128,0,10967:0:0:0:0:
64,192,11047,128,0,11126:0:0:0:0:
320,192,11126,128,0,11206:0:0:0:0:
448,192,11126,128,0,11206:0:0:0:0:
448,192,11445,1,0,0:0:0:0:
320,192,11484,1,0,0:0:0:0:
64,192,11524,1,0,0:0:0:0:
192,192,11564,1,0,0:0:0:0:
320,192,11604,1,0,0:0:0:0:
448,192,11644,1,0,0:0:0:0:
192,192,11683,1,0,0:0:0:0:
64,192,11723,1,0,0:0:0:0:
320,192,11763,1,2,0:0:0:0:
448,192,11763,1,0,0:0:0:0:
64,192,11842,1,2,0:0:0:0:
192,192,11842,1,0,0:0:0:0:
320,192,11922,1,2,0:0:0:0:
448,192,11922,1,0,0:0:0:0:
192,192,12002,1,2,0:0:0:0:
64,192,12081,1,8,0:0:0:0:
320,192,12081,128,4,12399:0:0:0:0:
448,192,12081,1,0,0:0:0:0:
192,192,12240,128,0,12559:0:0:0:0:
64,192,12399,128,2,12559:0:0:0:0:
448,192,12399,128,0,12718:0:0:0:0:
320,192,12559,128,0,12718:0:0:0:0:
64,192,12718,128,8,13036:0:0:0:0:
192,192,12718,1,0,0:0:0:0:
320,192,12877,128,0,13036:0:0:0:0:
192,192,13036,1,2,0:0:0:0:
448,192,13036,1,0,0:0:0:0:
448,192,13195,128,0,13354:0:0:0:0:
320,192,13275,128,0,13354:0:0:0:0:
64,192,13354,1,8,0:0:0:0:
192,192,13354,128,0,13673:0:0:0:0:
320,192,13514,128,0,13832:0:0:0:0:
64,192,13673,128,2,13991:0:0:0:0:
448,192,13673,128,0,13832:0:0:0:0:
192,192,13832,128,0,13991:0:0:0:0:
320,192,13991,1,8,0:0:0:0:
448,192,13991,128,0,14468:0:0:0:0:
64,192,14150,128,0,14309:0:0:0:0:
192,192,14309,1,2,0:0:0:0:
320,192,14309,1,0,0:0:0:0:
64,192,14468,128,0,14628:0:0:0:0:
192,192,14548,128,0,14628:0:0:0:0:
320,192,14628,128,8,14946:0:0:0:0:
448,192,14628,1,0,0:0:0:0:
192,192,14787,128,0,15105:0:0:0:0:
64,192,14946,128,2,15105:0:0:0:0:
448,192,14946,128,0,15264:0:0:0:0:
320,192,15105,128,0,15264:0:0:0:0:
64,192,15264,128,8,15423:0:0:0:0:
192,192,15264,1,0,0:0:0:0:
448,192,15423,128,0,15583:0:0:0:0:
320,192,15503,128,0,15583:0:0:0:0:
64,192,15583,128,2,15901:0:0:0:0:
192,192,15583,1,0,0:0:0:0:
448,192,15742,128,0,15901:0:0:0:0:
192,192,15901,128,8,16856:0:0:0:0:
320,192,15901,1,0,0:0:0:0:
320,192,16060,128,0,16219:0:0:0:0:
64,192,16219,1,2,0:0:0:0:
448,192,16219,1,0,0:0:0:0:
320,192,16378,128,0,16537:0:0:0:0:
64,192,16537,1,8,0:0:0:0:
448,192,16537,1,0,0:0:0:0:
320,192,16697,128,0,16856:0:0:0:0:
64,192,16856,1,2,0:0:0:0:
448,192,16856,1,0,0:0:0:0:
192,192,17015,1,2,0:0:0:0:
320,192,17015,1,0,0:0:0:0:
64,192,17174,1,8,0:0:0:0:
192,192,17174,128,0,17492:0:0:0:0:
448,192,17174,1,0,0:0:0:0:
320,192,17333,128,0,17651:0:0:0:0:
64,192,17492,128,2,17811:0:0:0:0:
448,192,17492,128,0,17651:0:0:0:0:
192,192,17651,128,0,17811:0:0:0:0:
320,192,17811,1,8,0:0:0:0:
448,192,17811,128,0,18129:0:0:0:0:
192,192,17970,128,0,18129:0:0:0:0:
64,192,18129,1,2,0:0:0:0:
320,192,18129,1,0,0:0:0:0:
64,192,18288,128,0,18447:0:0:0:0:
192,192,18368,128,0,18447:0:0:0:0:
320,192,18447,128,8,18766:0:0:0:0:
448,192,18447,1,0,0:0:0:0:
192,192,18606,128,0,18925:0:0:0:0:
64,192,18766,128,2,18925:0:0:0:0:
448,192,18766,128,0,19084:0:0:0:0:
320,192,18925,128,0,19084:0:0:0:0:
64,192,19084,128,8,19561:0:0:0:0:
192,192,19084,1,0,0:0:0:0:
448,192,19243,128,0,19402:0:0:0:0:
192,192,19402,1,2,0:0:0:0:
320,192,19402,1,0,0:0:0:0:
448,192,19561,128,0,19720:0:0:0:0:
320,192,19641,128,0,19720:0:0:0:0:
64,192,19720,1,8,0:0:0:0:
192,192,19720,128,0,20039:0:0:0:0:
320,192,19880,128,0,20198:0:0:0:0:
64,192,20039,128,2,20357:0:0:0:0:
448,192,20039,128,0,20198:0:0:0:0:
192,192,20198,128,0,20357:0:0:0:0:
320,192,20357,1,8,0:0:0:0:
448,192,20357,128,0,20516:0:0:0:0:
64,192,20516,128,0,20675:0:0:0:0:
192,192,20596,128,0,20675:0:0:0:0:
320,192,20675,128,2,20994:0:0:0:0:
448,192,20675,1,0,0:0:0:0:
64,192,20834,128,0,20994:0:0:0:0:
192,192,20994,1,8,0:0:0:0:
448,192,20994,128,0,21630:0:0:0:0:
320,192,21153,128,0,21312:0:0:0:0:
64,192,21312,1,2,0:0:0:0:
192,192,21312,1,0,0:0:0:0:
320,192,21471,128,0,21630:0:0:0:0:
64,192,21630,1,2,0:0:0:0:
192,192,21670,1,0,0:0:0:0:
448,192,21710,1,0,0:0:0:0:
320,192,21750,1,0,0:0:0:0:
192,192,21789,1,2,0:0:0:0:
64,192,21829,1,0,0:0:0:0:
320,192,21869,1,0,0:0:0:0:
448,192,21909,1,0,0:0:0:0:
64,192,21949,1,2,0:0:0:0:
192,192,21949,1,0,0:0:0:0:
320,192,22028,1,2,0:0:0:0:
448,192,22028,1,0,0:0:0:0:
64,192,22108,1,2,0:0:0:0:
192,192,22108,1,0,0:0:0:0:
320,192,22187,1,2,0:0:0:0:
64,192,22267,128,8,22346:0:0:0:0:
192,192,22267,1,4,0:0:0:0:
448,192,22267,128,0,22346:0:0:0:0:
192,192,22426,128,0,22506:0:0:0:0:
320,192,22426,128,0,22506:0:0:0:0:
320,192,22585,128,2,22665:0:0:0:0:
448,192,22585,128,0,22665:0:0:0:0:
64,192,22744,128,0,22824:0:0:0:0:
192,192,22744,128,0,22824:0:0:0:0:
320,192,22903,128,8,23063:0:0:0:0:
448,192,22903,128,0,23222:0:0:0:0:
64,192,23063,128,0,23222:0:0:0:0:
192,192,23222,1,2,0:0:0:0:
320,192,23222,1,0,0:0:0:0:
64,192,23381,1,0,0:0:0:0:
448,192,23381,128,0,23540:0:0:0:0:
320,192,23460,128,0,23540:0:0:0:0:
64,192,23540,128,8,23620:0:0:0:0:
192,192,23540,128,0,23620:0:0:0:0:
320,192,23699,128,0,23779:0:0:0:0:
448,192,23699,128,0,23779:0:0:0:0:
192,192,23858,128,2,23938:0:0:0:0:
320,192,23858,128,0,23938:0:0:0:0:
64,192,24018,128,0,24097:0:0:0:0:
192,192,24018,128,0,24097:0:0:0:0:
320,192,24177,128,8,24336:0:0:0:0:
448,192,24177,128,0,24495:0:0:0:0:
64,192,24336,128,0,24495:0:0:0:0:
192,192,24495,1,2,0:0:0:0:
320,192,24495,1,0,0:0:0:0:
64,192,24654,1,0,0:0:0:0:
448,192,24654,128,0,24813:0:0:0:0:
320,192,24734,128,0,24813:0:0:0:0:
64,192,24813,128,8,24893:0:0:0:0:
192,192,24813,128,0,24893:0:0:0:0:
320,192,24972,128,0,25052:0:0:0:0:
448,192,24972,128,0,25052:0:0:0:0:
64,192,25132,128,2,25211:0:0:0:0:
192,192,25132,128,0,25211:0:0:0:0:
192,192,25291,128,0,25370:0:0:0:0:
320,192,25291,128,0,25370:0:0:0:0:
320,192,25450,128,8,25529:0:0:0:0:
448,192,25450,128,0,25529:0:0:0:0:
64,192,25609,128,0,25768:0:0:0:0:
448,192,25609,1,0,0:0:0:0:
192,192,25689,128,0,25768:0:0:0:0:
320,192,25768,128,2,25848:0:0:0:0:
448,192,25768,128,0,25848:0:0:0:0:
64,192,25927,128,0,26007:0:0:0:0:
192,192,25927,128,0,26007:0:0:0:0:
64,192,26086,1,8,0:0:0:0:
320,192,26086,128,0,27041:0:0:0:0:
448,192,26086,1,0,0:0:0:0:
192,192,26246,128,0,26405:0:0:0:0:
64,192,26405,1,2,0:0:0:0:
448,192,26405,1,0,0:0:0:0:
192,192,26564,128,0,26723:0:0:0:0:
64,192,26723,1,8,0:0:0:0:
448,192,26723,1,0,0:0:0:0:
192,192,26882,128,0,27041:0:0:0:0:
64,192,27041,1,2,0:0:0:0:
448,192,27041,1,0,0:0:0:0:
192,192,27201,1,2,0:0:0:0:
320,192,27201,1,0,0:0:0:0:
64,192,27360,1,8,0:0:0:0:
320,192,27360,128,0,27439:0:0:0:0:
448,192,27360,128,0,27439:0:0:0:0:
192,192,27519,128,0,27598:0:0:0:0:
320,192,27519,128,0,27598:0:0:0:0:
64,192,27678,128,2,27758:0:0:0:0:
192,192,27678,128,0,27758:0:0:0:0:
320,192,27837,128,0,27917:0:0:0:0:
448,192,27837,128,0,27917:0:0:0:0:
64,192,27996,128,8,28315:0:0:0:0:
192,192,27996,128,0,28155:0:0:0:0:
320,192,28155,128,0,28315:0:0:0:0:
192,192,28315,1,2,0:0:0:0:
448,192,28315,1,0,0:0:0:0:
64,192,28474,1,0,0:0:0:0:
192,192,28474,128,0,28633:0:0:0:0:
320,192,28553,128,0,28633:0:0:0:0:
64,192,28633,128,8,28712:0:0:0:0:
448,192,28633,128,0,28712:0:0:0:0:
192,192,28792,128,0,28872:0:0:0:0:
320,192,28792,128,0,28872:0:0:0:0:
64,192,28951,128,2,29031:0:0:0:0:
192,192,28951,128,0,29031:0:0:0:0:
320,192,29110,128,0,29190:0:0:0:0:
448,192,29110,128,0,29190:0:0:0:0:
64,192,29270,128,8,29588:0:0:0:0:
192,192,29270,128,0,29429:0:0:0:0:
320,192,29429,128,0,29588:0:0:0:0:
192,192,29588,1,2,0:0:0:0:
448,192,29588,1,0,0:0:0:0:
64,192,29747,1,0,0:0:0:0:
192,192,29747,128,0,29906:0:0:0:0:
320,192,29827,128,0,29906:0:0:0:0:
64,192,29906,128,8,29986:0:0:0:0:
448,192,29906,128,0,29986:0:0:0:0:
192,192,30065,128,0,30145:0:0:0:0:
320,192,30065,128,0,30145:0:0:0:0:
64,192,30224,128,2,30304:0:0:0:0:
192,192,30224,128,0,30304:0:0:0:0:
320,192,30384,128,0,30463:0:0:0:0:
448,192,30384,128,0,30463:0:0:0:0:
192,192,30543,128,8,30622:0:0:0:0:
320,192,30543,128,0,30622:0:0:0:0:
64,192,30702,128,0,30861:0:0:0:0:
448,192,30702,1,0,0:0:0:0:
192,192,30781,128,0,30861:0:0:0:0:
320,192,30861,128,2,30941:0:0:0:0:
448,192,30861,128,0,30941:0:0:0:0:
64,192,31020,128,0,31100:0:0:0:0:
192,192,31020,128,0,31100:0:0:0:0:
64,192,31179,128,8,31816:0:0:0:0:
320,192,31179,1,0,0:0:0:0:
448,192,31179,1,0,0:0:0:0:
192,192,31338,128,0,31498:0:0:0:0:
320,192,31498,1,2,0:0:0:0:
448,192,31498,1,0,0:0:0:0:
192,192,31657,128,0,31816:0:0:0:0:
448,192,31816,1,0,0:0:0:0:
320,192,31856,1,0,0:0:0:0:
64,192,31896,1,0,0:0:0:0:
192,192,31935,1,0,0:0:0:0:
320,192,31975,1,0,0:0:0:0:
448,192,32015,1,0,0:0:0:0:
192,192,32055,1,0,0:0:0:0:
64,192,32094,1,0,0:0:0:0:
320,192,32134,1,2,0:0:0:0:
448,192,32134,1,0,0:0:0:0:
64,192,32214,1,2,0:0:0:0:
192,192,32214,1,0,0:0:0:0:
320,192,32293,1,2,0:0:0:0:
448,192,32293,1,0,0:0:0:0:
192,192,32373,1,2,0:0:0:0:
64,192,32453,1,8,0:0:0:0:
320,192,32453,128,4,32532:0:0:0:0:
448,192,32453,128,0,32771:0:0:0:0:
192,192,32612,128,0,32691:0:0:0:0:
64,192,32771,1,2,0:0:0:0:
192,192,32771,1,0,0:0:0:0:
64,192,32930,1,8,0:0:0:0:
448,192,32930,128,0,33089:0:0:0:0:
320,192,33010,128,0,33089:0:0:0:0:
64,192,33089,128,0,33169:0:0:0:0:
192,192,33089,128,0,33169:0:0:0:0:
64,192,33248,128,8,33328:0:0:0:0:
192,192,33248,128,0,33328:0:0:0:0:
64,192,33407,128,2,33567:0:0:0:0:
448,192,33407,128,0,33726:0:0:0:0:
320,192,33567,128,0,33726:0:0:0:0:
64,192,33726,1,8,0:0:0:0:
192,192,33726,128,0,33805:0:0:0:0:
320,192,33805,128,0,33885:0:0:0:0:
448,192,33885,128,0,33964:0:0:0:0:
64,192,34044,1,2,0:0:0:0:
448,192,34044,128,0,34203:0:0:0:0:
320,192,34124,128,0,34203:0:0:0:0:
64,192,34203,1,8,0:0:0:0:
192,192,34203,1,0,0:0:0:0:
320,192,34362,128,0,34442:0:0:0:0:
448,192,34362,128,0,34442:0:0:0:0:
320,192,34521,128,0,34601:0:0:0:0:
448,192,34521,128,0,34601:0:0:0:0:
64,192,34681,1,2,0:0:0:0:
320,192,34681,128,0,34760:0:0:0:0:
448,192,34681,128,0,34760:0:0:0:0:
320,192,34840,128,0,34919:0:0:0:0:
448,192,34840,128,0,34919:0:0:0:0:
320,192,34999,1,8,0:0:0:0:
448,192,34999,128,0,35317:0:0:0:0:
64,192,35317,128,2,35476:0:0:0:0:
192,192,35317,1,0,0:0:0:0:
320,192,35476,128,8,35795:0:0:0:0:
448,192,35476,1,0,0:0:0:0:
64,192,35636,1,0,0:0:0:0:
192,192,35795,1,8,0:0:0:0:
448,192,35795,128,0,35874:0:0:0:0:
64,192,35954,1,2,0:0:0:0:
320,192,35954,128,0,36033:0:0:0:0:
192,192,36113,128,0,36272:0:0:0:0:
320,192,36272,1,8,0:0:0:0:
448,192,36272,128,0,36352:0:0:0:0:
320,192,36431,1,8,0:0:0:0:
448,192,36431,128,0,36511:0:0:0:0:
64,192,36590,128,2,36670:0:0:0:0:
192,192,36590,128,0,36670:0:0:0:0:
64,192,36750,128,0,36829:0:0:0:0:
192,192,36750,128,0,36829:0:0:0:0:
192,192,36909,128,8,37227:0:0:0:0:
448,192,36909,1,0,0:0:0:0:
64,192,37068,128,8,37227:0:0:0:0:
448,192,37068,1,0,0:0:0:0:
320,192,37227,128,2,37545:0:0:0:0:
448,192,37227,1,0,0:0:0:0:
192,192,37386,128,0,37545:0:0:0:0:
64,192,37545,128,8,37705:0:0:0:0:
448,192,37545,128,0,37625:0:0:0:0:
320,192,37705,128,0,37784:0:0:0:0:
448,192,37705,128,0,37784:0:0:0:0:
64,192,37864,1,2,0:0:0:0:
192,192,37864,1,0,0:0:0:0:
64,192,38023,1,8,0:0:0:0:
192,192,38023,128,0,38102:0:0:0:0:
320,192,38102,128,0,38182:0:0:0:0:
448,192,38182,128,0,38262:0:0:0:0:
320,192,38341,128,8,38421:0:0:0:0:
448,192,38341,1,0,0:0:0:0:
192,192,38421,128,0,38500:0:0:0:0:
64,192,38500,128,2,38659:0:0:0:0:
448,192,38500,128,0,38819:0:0:0:0:
192,192,38659,128,0,38819:0:0:0:0:
64,192,38819,1,8,0:0:0:0:
320,192,38819,128,0,38898:0:0:0:0:
192,192,38898,128,0,38978:0:0:0:0:
64,192,38978,128,0,39057:0:0:0:0:
64,192,39137,128,2,39296:0:0:0:0:
448,192,39137,1,0,0:0:0:0:
192,192,39216,128,0,39296:0:0:0:0:
320,192,39296,1,8,0:0:0:0:
448,192,39296,1,0,0:0:0:0:
64,192,39455,128,0,39535:0:0:0:0:
192,192,39455,128,0,39535:0:0:0:0:
64,192,39614,128,0,39694:0:0:0:0:
192,192,39614,128,0,39694:0:0:0:0:
64,192,39773,128,2,39853:0:0:0:0:
192,192,39773,128,0,39853:0:0:0:0:
448,192,39773,1,0,0:0:0:0:
64,192,39933,128,0,40012:0:0:0:0:
192,192,39933,128,0,40012:0:0:0:0:
64,192,40092,128,8,40410:0:0:0:0:
192,192,40092,1,0,0:0:0:0:
320,192,40251,1,0,0:0:0:0:
192,192,40410,1,2,0:0:0:0:
448,192,40410,128,0,40569:0:0:0:0:
320,192,40490,1,0,0:0:0:0:
64,192,40569,1,8,0:0:0:0:
192,192,40569,128,0,40888:0:0:0:0:
448,192,40728,1,0,0:0:0:0:
64,192,40888,1,8,0:0:0:0:
320,192,40888,128,0,40967:0:0:0:0:
64,192,41047,1,2,0:0:0:0:
192,192,41047,128,0,41126:0:0:0:0:
320,192,41126,1,0,0:0:0:0:
64,192,41206,128,0,41365:0:0:0:0:
448,192,41206,1,0,0:0:0:0:
192,192,41365,1,8,0:0:0:0:
448,192,41365,128,0,41445:0:0:0:0:
192,192,41524,1,8,0:0:0:0:
448,192,41524,128,0,41604:0:0:0:0:
64,192,41683,128,2,41763:0:0:0:0:
320,192,41683,128,0,41763:0:0:0:0:
64,192,41842,128,0,41922:0:0:0:0:
320,192,41842,128,0,41922:0:0:0:0:
320,192,42002,1,2,0:0:0:0:
448,192,42002,128,0,42081:0:0:0:0:
64,192,42081,128,2,42161:0:0:0:0:
192,192,42081,1,0,0:0:0:0:
320,192,42161,128,2,42240:0:0:0:0:
448,192,42161,1,0,0:0:0:0:
64,192,42240,1,2,0:0:0:0:
192,192,42240,128,0,42320:0:0:0:0:
320,192,42320,128,0,42479:0:0:0:0:
448,192,42320,128,0,42479:0:0:0:0:
64,192,42638,128,8,42957:0:0:0:0:
192,192,42638,128,4,42718:0:0:0:0:
448,192,42638,1,0,0:0:0:0:
320,192,42797,128,0,42877:0:0:0:0:
320,192,42957,1,0,0:0:0:0:
64,192,43116,128,8,43275:0:0:0:0:
448,192,43116,1,0,0:0:0:0:
192,192,43195,128,0,43275:0:0:0:0:
320,192,43275,128,2,43354:0:0:0:0:
448,192,43275,128,0,43354:0:0:0:0:
320,192,43434,128,8,43514:0:0:0:0:
448,192,43434,128,0,43514:0:0:0:0:
64,192,43593,128,0,43911:0:0:0:0:
448,192,43593,128,0,43752:0:0:0:0:
192,192,43752,128,0,43911:0:0:0:0:
320,192,43911,128,8,43991:0:0:0:0:
448,192,43911,1,0,0:0:0:0:
192,192,43991,128,0,44071:0:0:0:0:
64,192,44071,128,0,44150:0:0:0:0:
64,192,44230,128,0,44389:0:0:0:0:
448,192,44230,1,0,0:0:0:0:
192,192,44309,128,0,44389:0:0:0:0:
320,192,44389,1,8,0:0:0:0:
448,192,44389,1,0,0:0:0:0:
64,192,44548,128,2,44628:0:0:0:0:
192,192,44548,128,0,44628:0:0:0:0:
64,192,44707,128,0,44787:0:0:0:0:
192,192,44707,128,0,44787:0:0:0:0:
64,192,44866,128,0,44946:0:0:0:0:
192,192,44866,128,0,44946:0:0:0:0:
64,192,45025,128,0,45105:0:0:0:0:
192,192,45025,128,0,45105:0:0:0:0:
64,192,45185,128,8,45503:0:0:0:0:
192,192,45185,1,0,0:0:0:0:
320,192,45503,1,0,0:0:0:0:
448,192,45503,128,0,45662:0:0:0:0:
64,192,45662,1,8,0:0:0:0:
192,192,45662,128,0,45980:0:0:0:0:
320,192,45821,1,2,0:0:0:0:
448,192,45821,1,0,0:0:0:0:
64,192,45980,128,8,46060:0:0:0:0:
448,192,45980,1,0,0:0:0:0:
192,192,46140,128,0,46219:0:0:0:0:
320,192,46299,128,0,46458:0:0:0:0:
64,192,46458,128,8,46537:0:0:0:0:
192,192,46458,1,0,0:0:0:0:
64,192,46617,128,8,46697:0:0:0:0:
192,192,46617,1,0,0:0:0:0:
320,192,46776,128,0,46856:0:0:0:0:
448,192,46776,128,0,46856:0:0:0:0:
320,192,46935,128,0,47015:0:0:0:0:
448,192,46935,128,0,47015:0:0:0:0:
64,192,47094,1,2,0:0:0:0:
320,192,47094,128,0,47413:0:0:0:0:
64,192,47254,1,8,0:0:0:0:
448,192,47254,128,0,47413:0:0:0:0:
192,192,47413,128,0,47731:0:0:0:0:
320,192,47572,128,0,47731:0:0:0:0:
64,192,47731,128,8,47811:0:0:0:0:
448,192,47731,128,0,47890:0:0:0:0:
64,192,47890,128,8,47970:0:0:0:0:
192,192,47890,128,0,47970:0:0:0:0:
448,192,48049,1,0,0:0:0:0:
320,192,48208,128,8,48288:0:0:0:0:
448,192,48208,1,0,0:0:0:0:
192,192,48288,128,0,48368:0:0:0:0:
64,192,48368,128,2,48447:0:0:0:0:
64,192,48527,1,8,0:0:0:0:
192,192,48527,128,0,48606:0:0:0:0:
320,192,48606,128,0,48686:0:0:0:0:
64,192,48686,128,0,49004:0:0:0:0:
448,192,48686,128,0,48845:0:0:0:0:
320,192,49004,128,8,49084:0:0:0:0:
448,192,49004,1,0,0:0:0:0:
192,192,49084,1,8,0:0:0:0:
64,192,49084,128,0,49163:0:0:0:0:
320,192,49163,1,8,0:0:0:0:
448,192,49163,128,0,49243:0:0:0:0:
64,192,49323,1,0,0:0:0:0:
448,192,49323,128,0,49482:0:0:0:0:
320,192,49402,128,0,49482:0:0:0:0:
64,192,49482,1,8,0:0:0:0:
192,192,49482,1,0,0:0:0:0:
320,192,49641,128,2,49720:0:0:0:0:
448,192,49641,128,0,49720:0:0:0:0:
320,192,49800,128,0,49880:0:0:0:0:
448,192,49800,128,0,49880:0:0:0:0:
320,192,49959,128,0,50039:0:0:0:0:
448,192,49959,128,0,50039:0:0:0:0:
320,192,50118,128,0,50198:0:0:0:0:
448,192,50118,128,0,50198:0:0:0:0:
320,192,50277,1,8,0:0:0:0:
448,192,50277,128,0,50596:0:0:0:0:
192,192,50437,1,0,0:0:0:0:
64,192,50596,128,0,50755:0:0:0:0:
320,192,50596,1,0,0:0:0:0:
192,192,50675,1,0,0:0:0:0:
320,192,50755,128,8,51073:0:0:0:0:
448,192,50755,1,0,0:0:0:0:
64,192,50914,1,2,0:0:0:0:
192,192,51073,128,8,51153:0:0:0:0:
448,192,51073,1,0,0:0:0:0:
320,192,51232,128,0,51312:0:0:0:0:
448,192,51232,1,0,0:0:0:0:
192,192,51312,1,0,0:0:0:0:
64,192,51392,1,0,0:0:0:0:
448,192,51392,128,0,51551:0:0:0:0:
64,192,51551,128,0,51630:0:0:0:0:
320,192,51551,1,0,0:0:0:0:
64,192,51710,128,0,51789:0:0:0:0:
320,192,51710,1,0,0:0:0:0:
192,192,51869,128,0,51949:0:0:0:0:
448,192,51869,128,0,51949:0:0:0:0:
192,192,52028,128,0,52108:0:0:0:0:
448,192,52028,128,0,52108:0:0:0:0:
64,192,52187,128,0,52346:0:0:0:0:
192,192,52267,128,0,52346:0:0:0:0:
448,192,52346,128,0,52506:0:0:0:0:
320,192,52426,128,0,52506:0:0:0:0:
64,192,52506,128,0,52824:0:0:0:0:
192,192,52506,128,0,52824:0:0:0:0:
320,192,52824,1,8,0:0:0:0:
448,192,52824,128,4,53142:0:0:0:0:
64,192,53142,128,2,53222:0:0:0:0:
192,192,53142,128,0,53222:0:0:0:0:
320,192,53142,128,0,53222:0:0:0:0:
64,192,53301,128,8,53381:0:0:0:0:
192,192,53301,128,0,53381:0:0:0:0:
320,192,53301,128,0,53381:0:0:0:0:
320,192,53460,1,0,0:0:0:0:
448,192,53460,128,0,53540:0:0:0:0:
320,192,53620,1,8,0:0:0:0:
448,192,53620,128,0,53699:0:0:0:0:
64,192,53779,128,2,53858:0:0:0:0:
192,192,53779,128,0,53858:0:0:0:0:
448,192,53779,1,0,0:0:0:0:
64,192,53938,128,0,54018:0:0:0:0:
192,192,53938,128,0,54018:0:0:0:0:
320,192,54097,128,8,54177:0:0:0:0:
448,192,54097,128,0,54177:0:0:0:0:
64,192,54177,128,0,54256:0:0:0:0:
448,192,54256,128,0,54336:0:0:0:0:
64,192,54336,128,0,54415:0:0:0:0:
192,192,54336,128,0,54415:0:0:0:0:
320,192,54415,128,2,54495:0:0:0:0:
448,192,54415,128,0,54495:0:0:0:0:
192,192,54575,128,8,54654:0:0:0:0:
320,192,54575,128,0,54654:0:0:0:0:
64,192,54734,128,0,55052:0:0:0:0:
192,192,54734,128,0,55052:0:0:0:0:
320,192,55052,128,2,55370:0:0:0:0:
448,192,55052,128,0,55370:0:0:0:0:
64,192,55370,128,8,55450:0:0:0:0:
192,192,55370,128,0,55450:0:0:0:0:
64,192,55529,128,0,55609:0:0:0:0:
192,192,55529,128,0,55609:0:0:0:0:
320,192,55689,128,2,55768:0:0:0:0:
448,192,55689,128,0,55768:0:0:0:0:
64,192,55768,128,0,55848:0:0:0:0:
448,192,55848,128,8,55927:0:0:0:0:
64,192,55927,128,0,56007:0:0:0:0:
192,192,55927,128,0,56007:0:0:0:0:
320,192,56007,128,0,56246:0:0:0:0:
448,192,56007,128,0,56246:0:0:0:0:
64,192,56325,128,2,56564:0:0:0:0:
192,192,56325,128,0,56564:0:0:0:0:
192,192,56644,128,8,56723:0:0:0:0:
448,192,56644,1,0,0:0:0:0:
320,192,56723,128,0,56803:0:0:0:0:
64,192,56803,128,8,56882:0:0:0:0:
448,192,56803,1,0,0:0:0:0:
192,192,56882,128,0,56962:0:0:0:0:
320,192,56962,1,2,0:0:0:0:
448,192,56962,128,0,57041:0:0:0:0:
64,192,57041,128,0,57121:0:0:0:0:
192,192,57121,128,0,57201:0:0:0:0:
320,192,57201,128,0,57280:0:0:0:0:
64,192,57280,1,8,0:0:0:0:
192,192,57320,1,0,0:0:0:0:
320,192,57360,1,0,0:0:0:0:
448,192,57399,1,0,0:0:0:0:
192,192,57439,1,8,0:0:0:0:
64,192,57479,1,0,0:0:0:0:
448,192,57519,1,0,0:0:0:0:
320,192,57559,1,0,0:0:0:0:
64,192,57598,1,2,0:0:0:0:
192,192,57638,1,0,0:0:0:0:
320,192,57678,1,0,0:0:0:0:
448,192,57718,1,0,0:0:0:0:
192,192,57758,1,0,0:0:0:0:
64,192,57797,1,0,0:0:0:0:
448,192,57837,1,0,0:0:0:0:
320,192,57877,1,0,0:0:0:0:
64,192,57917,128,8,58235:0:0:0:0:
192,192,57917,1,0,0:0:0:0:
192,192,58235,128,2,58315:0:0:0:0:
320,192,58235,128,0,58315:0:0:0:0:
448,192,58235,128,0,58315:0:0:0:0:
192,192,58394,128,8,58474:0:0:0:0:
320,192,58394,128,0,58474:0:0:0:0:
448,192,58394,128,0,58474:0:0:0:0:
64,192,58553,128,0,58633:0:0:0:0:
192,192,58553,1,0,0:0:0:0:
64,192,58712,128,8,58792:0:0:0:0:
192,192,58712,1,0,0:0:0:0:
64,192,58872,1,2,0:0:0:0:
320,192,58872,128,0,58951:0:0:0:0:
448,192,58872,128,0,58951:0:0:0:0:
320,192,59031,128,0,59110:0:0:0:0:
448,192,59031,128,0,59110:0:0:0:0:
64,192,59190,128,8,59270:0:0:0:0:
192,192,59190,128,0,59270:0:0:0:0:
448,192,59270,128,0,59349:0:0:0:0:
64,192,59349,128,0,59429:0:0:0:0:
320,192,59429,128,0,59508:0:0:0:0:
448,192,59429,128,0,59508:0:0:0:0:
64,192,59508,128,2,59588:0:0:0:0:
192,192,59508,128,0,59588:0:0:0:0:
192,192,59667,128,8,59747:0:0:0:0:
320,192,59667,128,0,59747:0:0:0:0:
320,192,59827,128,0,59906:0:0:0:0:
448,192,59827,128,0,59906:0:0:0:0:
64,192,59986,128,0,60065:0:0:0:0:
448,192,59986,128,0,60065:0:0:0:0:
64,192,60145,128,2,60463:0:0:0:0:
192,192,60145,128,0,60463:0:0:0:0:
320,192,60463,128,8,60543:0:0:0:0:
448,192,60463,128,0,60543:0:0:0:0:
320,192,60622,128,0,60702:0:0:0:0:
448,192,60622,128,0,60702:0:0:0:0:
64,192,60781,128,2,60861:0:0:0:0:
192,192,60781,128,0,60861:0:0:0:0:
448,192,60861,128,0,60941:0:0:0:0:
64,192,60941,128,8,61020:0:0:0:0:
320,192,61020,128,0,61100:0:0:0:0:
448,192,61020,128,0,61100:0:0:0:0:
64,192,61100,128,0,61338:0:0:0:0:
192,192,61100,128,0,61338:0:0:0:0:
320,192,61418,128,2,61657:0:0:0:0:
448,192,61418,128,0,61657:0:0:0:0:
448,192,61736,128,0,61816:0:0:0:0:
320,192,61816,128,0,61896:0:0:0:0:
448,192,61896,128,0,61975:0:0:0:0:
192,192,61975,128,0,62055:0:0:0:0:
320,192,62055,128,0,62134:0:0:0:0:
64,192,62134,128,0,62214:0:0:0:0:
192,192,62214,128,0,62293:0:0:0:0:
64,192,62293,128,0,62373:0:0:0:0:
448,192,62373,1,0,0:0:0:0:
320,192,62413,1,0,0:0:0:0:
192,192,62453,1,0,0:0:0:0:
64,192,62492,1,0,0:0:0:0:
448,192,62532,1,0,0:0:0:0:
320,192,62572,1,0,0:0:0:0:
192,192,62612,1,0,0:0:0:0:
64,192,62651,1,0,0:0:0:0:
320,192,62691,1,0,0:0:0:0:
448,192,62731,1,0,0:0:0:0:
64,192,62771,1,0,0:0:0:0:
192,192,62811,1,0,0:0:0:0:
320,192,62850,1,0,0:0:0:0:
448,192,62890,1,0,0:0:0:0:
64,192,62930,1,0,0:0:0:0:
192,192,62970,1,0,0:0:0:0:
320,192,63010,128,4,63328:0:0:0:0:
448,192,63010,1,8,0:0:0:0:
64,192,63328,128,0,63487:0:0:0:0:
192,192,63487,128,0,63646:0:0:0:0:
320,192,63646,128,0,63964:0:0:0:0:
448,192,63964,128,0,64283:0:0:0:0:
192,192,64283,128,0,64442:0:0:0:0:
320,192,64442,128,0,64601:0:0:0:0:
192,192,64601,128,0,64760:0:0:0:0:
64,192,64760,128,0,64919:0:0:0:0:
448,192,64919,128,0,65079:0:0:0:0:
192,192,65079,128,0,65238:0:0:0:0:
320,192,65238,128,0,65397:0:0:0:0:
448,192,65397,128,0,65556:0:0:0:0:
64,192,65556,1,8,0:0:0:0:
320,192,65556,128,0,65874:0:0:0:0:
64,192,65874,128,8,66033:0:0:0:0:
448,192,65874,1,0,0:0:0:0:
192,192,66033,128,0,66193:0:0:0:0:
64,192,66193,1,8,0:0:0:0:
320,192,66193,128,0,66511:0:0:0:0:
192,192,66511,1,8,0:0:0:0:
448,192,66511,128,0,66829:0:0:0:0:
64,192,66829,1,8,0:0:0:0:
192,192,66829,128,0,66988:0:0:0:0:
320,192,66988,128,0,67147:0:0:0:0:
192,192,67147,128,8,67307:0:0:0:0:
448,192,67147,1,0,0:0:0:0:
64,192,67307,128,0,67466:0:0:0:0:
320,192,67466,1,8,0:0:0:0:
448,192,67466,128,0,67625:0:0:0:0:
192,192,67625,128,0,67784:0:0:0:0:
64,192,67784,1,8,0:0:0:0:
320,192,67784,128,0,67943:0:0:0:0:
448,192,67943,128,0,68102:0:0:0:0:
192,192,68102,1,8,0:0:0:0:
320,192,68102,128,0,68421:0:0:0:0:
64,192,68421,128,8,68580:0:0:0:0:
448,192,68421,1,0,0:0:0:0:
192,192,68580,128,0,68739:0:0:0:0:
64,192,68739,1,8,0:0:0:0:
320,192,68739,128,0,69057:0:0:0:0:
64,192,69057,1,8,0:0:0:0:
448,192,69057,128,0,69376:0:0:0:0:
64,192,69376,1,8,0:0:0:0:
192,192,69376,128,0,69455:0:0:0:0:
320,192,69535,128,8,69614:0:0:0:0:
448,192,69535,1,0,0:0:0:0:
64,192,69694,1,8,0:0:0:0:
192,192,69694,128,0,69773:0:0:0:0:
320,192,69853,1,8,0:0:0:0:
448,192,69853,128,0,69933:0:0:0:0:
64,192,70012,128,8,70092:0:0:0:0:
448,192,70012,1,0,0:0:0:0:
64,192,70171,1,8,0:0:0:0:
192,192,70171,128,0,70251:0:0:0:0:
192,192,70331,1,8,0:0:0:0:
320,192,70331,128,0,70410:0:0:0:0:
320,192,70490,1,8,0:0:0:0:
448,192,70490,128,0,70569:0:0:0:0:
64,192,70649,1,8,0:0:0:0:
192,192,70649,128,0,70728:0:0:0:0:
320,192,70728,128,8,70808:0:0:0:0:
64,192,70808,128,8,70888:0:0:0:0:
448,192,70808,1,0,0:0:0:0:
192,192,70888,128,8,70967:0:0:0:0:
320,192,70967,128,8,71047:0:0:0:0:
448,192,70967,1,0,0:0:0:0:
192,192,71047,128,8,71126:0:0:0:0:
64,192,71126,1,8,0:0:0:0:
448,192,71126,128,0,71206:0:0:0:0:
320,192,71206,128,8,71285:0:0:0:0:
64,192,71285,1,8,0:0:0:0:
192,192,71285,128,0,71365:0:0:0:0:
320,192,71365,128,8,71445:0:0:0:0:
64,192,71445,128,8,71524:0:0:0:0:
448,192,71445,1,0,0:0:0:0:
192,192,71524,128,8,71604:0:0:0:0:
320,192,71604,128,8,71683:0:0:0:0:
448,192,71604,1,0,0:0:0:0:
192,192,71683,128,8,71763:0:0:0:0:
64,192,71763,1,8,0:0:0:0:
448,192,71763,128,0,71842:0:0:0:0:
320,192,71842,128,8,71922:0:0:0:0:
64,192,71922,128,8,72081:0:0:0:0:
192,192,71922,128,0,72081:0:0:0:0:
448,192,72161,128,0,72240:0:0:0:0:
64,192,72240,128,0,72320:0:0:0:0:
192,192,72240,128,0,72320:0:0:0:0:
64,192,72559,1,0,0:0:0:0:
192,192,72598,1,0,0:0:0:0:
448,192,72638,1,0,0:0:0:0:
320,192,72678,1,0,0:0:0:0:
192,192,72718,1,0,0:0:0:0:
64,192,72758,1,0,0:0:0:0:
320,192,72797,1,0,0:0:0:0:
448,192,72837,1,0,0:0:0:0:
64,192,72877,1,2,0:0:0:0:
192,192,72877,1,0,0:0:0:0:
320,192,72957,1,2,0:0:0:0:
448,192,72957,1,0,0:0:0:0:
64,192,73036,1,2,0:0:0:0:
192,192,73036,1,0,0:0:0:0:
320,192,73116,1,2,0:0:0:0:
64,192,73195,1,8,0:0:0:0:
192,192,73195,128,4,73514:0:0:0:0:
448,192,73195,1,0,0:0:0:0:
320,192,73354,128,0,73673:0:0:0:0:
64,192,73514,128,2,73832:0:0:0:0:
448,192,73514,128,0,73673:0:0:0:0:
192,192,73673,128,0,73832:0:0:0:0:
320,192,73832,1,8,0:0:0:0:
448,192,73832,128,0,74150:0:0:0:0:
192,192,73991,128,0,74150:0:0:0:0:
64,192,74150,1,2,0:0:0:0:
320,192,74150,1,0,0:0:0:0:
64,192,74309,128,0,74468:0:0:0:0:
192,192,74389,128,0,74468:0:0:0:0:
320,192,74468,128,8,74787:0:0:0:0:
448,192,74468,1,0,0:0:0:0:
192,192,74628,128,0,74946:0:0:0:0:
64,192,74787,128,2,74946:0:0:0:0:
448,192,74787,128,0,75105:0:0:0:0:
320,192,74946,128,0,75105:0:0:0:0:
64,192,75105,128,8,75583:0:0:0:0:
192,192,75105,1,0,0:0:0:0:
448,192,75264,128,0,75423:0:0:0:0:
192,192,75423,1,2,0:0:0:0:
320,192,75423,1,0,0:0:0:0:
448,192,75583,128,0,75742:0:0:0:0:
320,192,75662,128,0,75742:0:0:0:0:
64,192,75742,1,8,0:0:0:0:
192,192,75742,128,0,76060:0:0:0:0:
320,192,75901,128,0,76219:0:0:0:0:
64,192,76060,128,2,76378:0:0:0:0:
448,192,76060,128,0,76219:0:0:0:0:
192,192,76219,128,0,76378:0:0:0:0:
320,192,76378,1,8,0:0:0:0:
448,192,76378,128,0,76537:0:0:0:0:
64,192,76537,128,0,76697:0:0:0:0:
192,192,76617,128,0,76697:0:0:0:0:
320,192,76697,1,2,0:0:0:0:
448,192,76697,128,0,77015:0:0:0:0:
64,192,76856,128,0,77015:0:0:0:0:
192,192,77015,1,8,0:0:0:0:
320,192,77015,128,0,77970:0:0:0:0:
192,192,77174,128,0,77333:0:0:0:0:
64,192,77333,1,2,0:0:0:0:
448,192,77333,1,0,0:0:0:0:
192,192,77492,128,0,77651:0:0:0:0:
64,192,77651,1,8,0:0:0:0:
448,192,77651,1,0,0:0:0:0:
192,192,77811,128,0,77970:0:0:0:0:
64,192,77970,1,2,0:0:0:0:
448,192,77970,1,0,0:0:0:0:
192,192,78129,1,2,0:0:0:0:
320,192,78129,1,0,0:0:0:0:
64,192,78288,1,8,0:0:0:0:
320,192,78288,128,0,78606:0:0:0:0:
448,192,78288,1,0,0:0:0:0:
192,192,78447,128,0,78766:0:0:0:0:
64,192,78606,128,2,78766:0:0:0:0:
448,192,78606,128,0,78925:0:0:0:0:
320,192,78766,128,0,78925:0:0:0:0:
64,192,78925,128,8,79243:0:0:0:0:
192,192,78925,1,0,0:0:0:0:
320,192,79084,128,0,79243:0:0:0:0:
192,192,79243,1,2,0:0:0:0:
448,192,79243,1,0,0:0:0:0:
448,192,79402,128,0,79561:0:0:0:0:
320,192,79482,128,0,79561:0:0:0:0:
64,192,79561,1,8,0:0:0:0:
192,192,79561,128,0,79880:0:0:0:0:
320,192,79720,128,0,80039:0:0:0:0:
64,192,79880,128,2,80198:0:0:0:0:
448,192,79880,128,0,80039:0:0:0:0:
192,192,80039,128,0,80198:0:0:0:0:
320,192,80198,1,8,0:0:0:0:
448,192,80198,128,0,80675:0:0:0:0:
64,192,80357,128,0,80516:0:0:0:0:
192,192,80516,1,2,0:0:0:0:
320,192,80516,1,0,0:0:0:0:
64,192,80675,128,0,80834:0:0:0:0:
192,192,80755,128,0,80834:0:0:0:0:
320,192,80834,128,8,81153:0:0:0:0:
448,192,80834,1,0,0:0:0:0:
192,192,80994,128,0,81312:0:0:0:0:
64,192,81153,128,2,81312:0:0:0:0:
448,192,81153,128,0,81471:0:0:0:0:
320,192,81312,128,0,81471:0:0:0:0:
64,192,81471,128,8,81630:0:0:0:0:
192,192,81471,1,0,0:0:0:0:
448,192,81630,128,0,81789:0:0:0:0:
320,192,81710,128,0,81789:0:0:0:0:
64,192,81789,1,2,0:0:0:0:
192,192,81789,128,0,82108:0:0:0:0:
320,192,81949,128,0,82108:0:0:0:0:
64,192,82108,128,8,82744:0:0:0:0:
448,192,82108,1,0,0:0:0:0:
192,192,82267,128,0,82426:0:0:0:0:
320,192,82426,1,2,0:0:0:0:
448,192,82426,1,0,0:0:0:0:
192,192,82585,128,0,82744:0:0:0:0:
448,192,82744,1,2,0:0:0:0:
320,192,82784,1,0,0:0:0:0:
64,192,82824,1,0,0:0:0:0:
192,192,82864,1,0,0:0:0:0:
320,192,82903,1,2,0:0:0:0:
448,192,82943,1,0,0:0:0:0:
192,192,82983,1,0,0:0:0:0:
64,192,83023,1,0,0:0:0:0:
320,192,83063,1,2,0:0:0:0:
448,192,83063,1,0,0:0:0:0:
64,192,83142,1,2,0:0:0:0:
192,192,83142,1,0,0:0:0:0:
320,192,83222,1,2,0:0:0:0:
448,192,83222,1,0,0:0:0:0:
192,192,83301,1,2,0:0:0:0:
64,192,83381,128,8,83460:0:0:0:0:
320,192,83381,1,4,0:0:0:0:
448,192,83381,128,0,83460:0:0:0:0:
192,192,83540,128,0,83620:0:0:0:0:
320,192,83540,128,0,83620:0:0:0:0:
64,192,83699,128,2,83779:0:0:0:0:
192,192,83699,128,0,83779:0:0:0:0:
320,192,83858,128,0,83938:0:0:0:0:
448,192,83858,128,0,83938:0:0:0:0:
64,192,84018,128,8,84336:0:0:0:0:
192,192,84018,128,0,84177:0:0:0:0:
448,192,84177,128,0,84336:0:0:0:0:
192,192,84336,1,2,0:0:0:0:
320,192,84336,1,0,0:0:0:0:
64,192,84495,128,0,84654:0:0:0:0:
448,192,84495,1,0,0:0:0:0:
192,192,84575,128,0,84654:0:0:0:0:
320,192,84654,128,8,84734:0:0:0:0:
448,192,84654,128,0,84734:0:0:0:0:
192,192,84813,128,0,84893:0:0:0:0:
320,192,84813,128,0,84893:0:0:0:0:
64,192,84972,128,2,85052:0:0:0:0:
192,192,84972,128,0,85052:0:0:0:0:
320,192,85132,128,0,85211:0:0:0:0:
448,192,85132,128,0,85211:0:0:0:0:
64,192,85291,128,8,85609:0:0:0:0:
192,192,85291,128,0,85450:0:0:0:0:
448,192,85450,128,0,85609:0:0:0:0:
192,192,85609,1,2,0:0:0:0:
320,192,85609,1,0,0:0:0:0:
64,192,85768,128,0,85927:0:0:0:0:
448,192,85768,1,0,0:0:0:0:
192,192,85848,128,0,85927:0:0:0:0:
320,192,85927,128,8,86007:0:0:0:0:
448,192,85927,128,0,86007:0:0:0:0:
64,192,86086,128,0,86166:0:0:0:0:
192,192,86086,128,0,86166:0:0:0:0:
192,192,86246,128,2,86325:0:0:0:0:
320,192,86246,128,0,86325:0:0:0:0:
320,192,86405,128,0,86484:0:0:0:0:
448,192,86405,128,0,86484:0:0:0:0:
64,192,86564,128,8,86644:0:0:0:0:
192,192,86564,128,0,86644:0:0:0:0:
64,192,86723,1,0,0:0:0:0:
448,192,86723,128,0,86882:0:0:0:0:
320,192,86803,128,0,86882:0:0:0:0:
64,192,86882,128,2,86962:0:0:0:0:
192,192,86882,128,0,86962:0:0:0:0:
320,192,87041,128,0,87121:0:0:0:0:
448,192,87041,128,0,87121:0:0:0:0:
64,192,87201,1,8,0:0:0:0:
192,192,87201,128,0,88155:0:0:0:0:
448,192,87201,1,0,0:0:0:0:
320,192,87360,128,0,87519:0:0:0:0:
64,192,87519,1,2,0:0:0:0:
448,192,87519,1,0,0:0:0:0:
320,192,87678,128,0,87837:0:0:0:0:
64,192,87837,1,8,0:0:0:0:
448,192,87837,1,0,0:0:0:0:
320,192,87996,128,0,88155:0:0:0:0:
64,192,88155,1,2,0:0:0:0:
448,192,88155,1,0,0:0:0:0:
192,192,88315,1,2,0:0:0:0:
320,192,88315,1,0,0:0:0:0:
64,192,88474,128,8,88553:0:0:0:0:
192,192,88474,128,0,88553:0:0:0:0:
448,192,88474,1,0,0:0:0:0:
192,192,88633,128,0,88712:0:0:0:0:
320,192,88633,128,0,88712:0:0:0:0:
320,192,88792,128,2,88872:0:0:0:0:
448,192,88792,128,0,88872:0:0:0:0:
64,192,88951,128,0,89031:0:0:0:0:
192,192,88951,128,0,89031:0:0:0:0:
320,192,89110,128,8,89270:0:0:0:0:
448,192,89110,128,0,89429:0:0:0:0:
192,192,89270,128,0,89429:0:0:0:0:
64,192,89429,1,2,0:0:0:0:
320,192,89429,1,0,0:0:0:0:
320,192,89588,128,0,89747:0:0:0:0:
448,192,89588,1,0,0:0:0:0:
192,192,89667,128,0,89747:0:0:0:0:
64,192,89747,128,8,89827:0:0:0:0:
448,192,89747,128,0,89827:0:0:0:0:
192,192,89906,128,0,89986:0:0:0:0:
320,192,89906,128,0,89986:0:0:0:0:
320,192,90065,128,2,90145:0:0:0:0:
448,192,90065,128,0,90145:0:0:0:0:
64,192,90224,128,0,90304:0:0:0:0:
192,192,90224,128,0,90304:0:0:0:0:
320,192,90384,128,8,90543:0:0:0:0:
448,192,90384,128,0,90702:0:0:0:0:
192,192,90543,128,0,90702:0:0:0:0:
64,192,90702,1,2,0:0:0:0:
320,192,90702,1,0,0:0:0:0:
320,192,90861,128,0,91020:0:0:0:0:
448,192,90861,1,0,0:0:0:0:
192,192,90941,128,0,91020:0:0:0:0:
64,192,91020,128,8,91100:0:0:0:0:
448,192,91020,128,0,91100:0:0:0:0:
192,192,91179,128,0,91259:0:0:0:0:
320,192,91179,128,0,91259:0:0:0:0:
64,192,91338,128,2,91418:0:0:0:0:
192,192,91338,128,0,91418:0:0:0:0:
320,192,91498,128,0,91577:0:0:0:0:
448,192,91498,128,0,91577:0:0:0:0:
64,192,91657,128,8,91736:0:0:0:0:
192,192,91657,128,0,91736:0:0:0:0:
64,192,91816,1,0,0:0:0:0:
448,192,91816,128,0,91975:0:0:0:0:
320,192,91896,128,0,91975:0:0:0:0:
64,192,91975,128,2,92055:0:0:0:0:
192,192,91975,128,0,92055:0:0:0:0:
320,192,92134,128,0,92214:0:0:0:0:
448,192,92134,128,0,92214:0:0:0:0:
64,192,92293,128,8,92930:0:0:0:0:
320,192,92293,1,0,0:0:0:0:
448,192,92293,1,0,0:0:0:0:
192,192,92453,128,0,92612:0:0:0:0:
320,192,92612,1,2,0:0:0:0:
448,192,92612,1,0,0:0:0:0:
192,192,92771,128,0,92930:0:0:0:0:
448,192,92930,1,0,0:0:0:0:
320,192,92970,1,0,0:0:0:0:
64,192,93010,1,0,0:0:0:0:
192,192,93049,1,0,0:0:0:0:
320,192,93089,1,0,0:0:0:0:
448,192,93129,1,0,0:0:0:0:
192,192,93169,1,0,0:0:0:0:
64,192,93208,1,0,0:0:0:0:
320,192,93248,1,2,0:0:0:0:
448,192,93248,1,0,0:0:0:0:
64,192,93328,1,2,0:0:0:0:
192,192,93328,1,0,0:0:0:0:
320,192,93407,1,2,0:0:0:0:
448,192,93407,1,0,0:0:0:0:
64,192,93487,1,2,0:0:0:0:
192,192,93487,1,0,0:0:0:0:
320,192,93567,128,8,93805:0:0:0:0:
448,192,93567,128,4,93805:0:0:0:0:
64,192,93726,1,0,0:0:0:0:
320,192,93885,128,2,94124:0:0:0:0:
448,192,93885,128,0,94124:0:0:0:0:
64,192,94044,1,0,0:0:0:0:
192,192,94203,128,8,94283:0:0:0:0:
320,192,94203,128,0,94283:0:0:0:0:
64,192,94362,128,0,94442:0:0:0:0:
192,192,94362,128,0,94442:0:0:0:0:
320,192,94521,128,2,94840:0:0:0:0:
448,192,94521,128,0,94840:0:0:0:0:
64,192,94681,1,0,0:0:0:0:
64,192,94840,128,8,95158:0:0:0:0:
192,192,94840,128,0,95158:0:0:0:0:
448,192,94999,1,0,0:0:0:0:
320,192,95158,128,2,95238:0:0:0:0:
448,192,95158,128,0,95238:0:0:0:0:
64,192,95317,128,0,95397:0:0:0:0:
192,192,95317,128,0,95397:0:0:0:0:
192,192,95476,128,8,95556:0:0:0:0:
320,192,95476,128,0,95556:0:0:0:0:
320,192,95636,128,0,96033:0:0:0:0:
448,192,95636,128,0,96033:0:0:0:0:
64,192,95795,1,2,0:0:0:0:
192,192,95795,1,0,0:0:0:0:
192,192,95954,1,0,0:0:0:0:
64,192,96113,1,8,0:0:0:0:
320,192,96113,1,0,0:0:0:0:
448,192,96113,1,0,0:0:0:0:
64,192,97068,1,2,0:0:0:0:
192,192,97068,1,0,0:0:0:0:
320,192,97147,1,2,0:0:0:0:
448,192,97147,1,0,0:0:0:0:
64,192,97227,1,2,0:0:0:0:
192,192,97227,1,0,0:0:0:0:
320,192,97307,1,2,0:0:0:0:
64,192,97386,128,4,97705:0:0:0:0:
192,192,97386,128,8,97466:0:0:0:0:
448,192,97386,1,0,0:0:0:0:
320,192,97545,128,0,97625:0:0:0:0:
320,192,97705,1,2,0:0:0:0:
448,192,97705,1,0,0:0:0:0:
64,192,97864,128,8,98023:0:0:0:0:
448,192,97864,1,0,0:0:0:0:
192,192,97943,128,0,98023:0:0:0:0:
320,192,98023,128,0,98102:0:0:0:0:
448,192,98023,128,0,98102:0:0:0:0:
320,192,98182,128,8,98262:0:0:0:0:
448,192,98182,128,0,98262:0:0:0:0:
64,192,98341,128,2,98659:0:0:0:0:
448,192,98341,128,0,98500:0:0:0:0:
192,192,98500,128,0,98659:0:0:0:0:
320,192,98659,128,8,98739:0:0:0:0:
448,192,98659,1,0,0:0:0:0:
192,192,98739,128,0,98819:0:0:0:0:
64,192,98819,128,0,98898:0:0:0:0:
64,192,98978,128,2,99137:0:0:0:0:
448,192,98978,1,0,0:0:0:0:
192,192,99057,128,0,99137:0:0:0:0:
320,192,99137,1,8,0:0:0:0:
448,192,99137,1,0,0:0:0:0:
64,192,99296,128,0,99376:0:0:0:0:
192,192,99296,128,0,99376:0:0:0:0:
64,192,99455,128,0,99535:0:0:0:0:
192,192,99455,128,0,99535:0:0:0:0:
64,192,99614,128,2,99694:0:0:0:0:
192,192,99614,128,0,99694:0:0:0:0:
448,192,99614,1,0,0:0:0:0:
64,192,99773,128,0,99853:0:0:0:0:
192,192,99773,128,0,99853:0:0:0:0:
64,192,99933,128,8,100251:0:0:0:0:
192,192,99933,1,0,0:0:0:0:
320,192,100251,1,2,0:0:0:0:
448,192,100251,128,0,100410:0:0:0:0:
64,192,100410,1,8,0:0:0:0:
192,192,100410,128,0,100728:0:0:0:0:
448,192,100569,1,0,0:0:0:0:
64,192,100728,128,8,100808:0:0:0:0:
320,192,100728,1,0,0:0:0:0:
192,192,100888,128,2,100967:0:0:0:0:
448,192,100888,1,0,0:0:0:0:
320,192,101047,128,0,101206:0:0:0:0:
64,192,101206,128,8,101285:0:0:0:0:
192,192,101206,1,0,0:0:0:0:
64,192,101365,128,8,101445:0:0:0:0:
192,192,101365,1,0,0:0:0:0:
320,192,101524,128,2,101604:0:0:0:0:
448,192,101524,128,0,101604:0:0:0:0:
320,192,101683,128,0,101763:0:0:0:0:
448,192,101683,128,0,101763:0:0:0:0:
64,192,101842,1,8,0:0:0:0:
320,192,101842,128,0,102161:0:0:0:0:
64,192,102002,1,8,0:0:0:0:
448,192,102002,128,0,102161:0:0:0:0:
64,192,102161,1,2,0:0:0:0:
192,192,102161,128,0,102479:0:0:0:0:
320,192,102320,128,0,102479:0:0:0:0:
64,192,102479,128,8,102559:0:0:0:0:
448,192,102479,128,0,102638:0:0:0:0:
64,192,102638,128,0,102718:0:0:0:0:
192,192,102638,128,0,102718:0:0:0:0:
320,192,102797,1,2,0:0:0:0:
448,192,102797,1,0,0:0:0:0:
320,192,102957,128,8,103036:0:0:0:0:
448,192,102957,1,0,0:0:0:0:
192,192,103036,128,0,103116:0:0:0:0:
64,192,103116,128,0,103195:0:0:0:0:
64,192,103275,1,8,0:0:0:0:
192,192,103275,128,0,103354:0:0:0:0:
320,192,103354,128,0,103434:0:0:0:0:
64,192,103434,128,2,103752:0:0:0:0:
448,192,103434,128,0,103593:0:0:0:0:
320,192,103593,128,0,103752:0:0:0:0:
192,192,103752,128,8,103832:0:0:0:0:
448,192,103752,1,0,0:0:0:0:
320,192,103832,128,0,103911:0:0:0:0:
448,192,103911,128,0,103991:0:0:0:0:
64,192,104071,1,2,0:0:0:0:
448,192,104071,128,0,104230:0:0:0:0:
320,192,104150,128,0,104230:0:0:0:0:
64,192,104230,1,8,0:0:0:0:
192,192,104230,1,0,0:0:0:0:
320,192,104389,128,0,104468:0:0:0:0:
448,192,104389,128,0,104468:0:0:0:0:
320,192,104548,128,0,104628:0:0:0:0:
448,192,104548,128,0,104628:0:0:0:0:
64,192,104707,1,2,0:0:0:0:
320,192,104707,128,0,104787:0:0:0:0:
448,192,104707,128,0,104787:0:0:0:0:
320,192,104866,128,0,104946:0:0:0:0:
448,192,104866,128,0,104946:0:0:0:0:
320,192,105025,1,8,0:0:0:0:
448,192,105025,128,0,105344:0:0:0:0:
192,192,105185,1,0,0:0:0:0:
64,192,105344,128,2,105503:0:0:0:0:
320,192,105344,1,0,0:0:0:0:
192,192,105423,1,0,0:0:0:0:
320,192,105503,128,8,105821:0:0:0:0:
448,192,105503,1,0,0:0:0:0:
64,192,105662,1,0,0:0:0:0:
192,192,105821,128,8,105901:0:0:0:0:
448,192,105821,1,0,0:0:0:0:
320,192,105980,128,2,106060:0:0:0:0:
448,192,105980,1,0,0:0:0:0:
192,192,106060,1,0,0:0:0:0:
64,192,106140,1,0,0:0:0:0:
448,192,106140,128,0,106219:0:0:0:0:
64,192,106299,128,8,106378:0:0:0:0:
320,192,106299,1,0,0:0:0:0:
64,192,106458,128,8,106537:0:0:0:0:
320,192,106458,1,0,0:0:0:0:
192,192,106617,128,2,106697:0:0:0:0:
448,192,106617,128,0,106697:0:0:0:0:
192,192,106776,128,0,106856:0:0:0:0:
448,192,106776,128,0,106856:0:0:0:0:
64,192,106935,128,2,107015:0:0:0:0:
192,192,106935,1,0,0:0:0:0:
320,192,107015,1,2,0:0:0:0:
448,192,107015,128,0,107094:0:0:0:0:
64,192,107094,1,2,0:0:0:0:
192,192,107094,128,0,107174:0:0:0:0:
320,192,107174,128,2,107254:0:0:0:0:
448,192,107174,1,0,0:0:0:0:
64,192,107254,128,0,107413:0:0:0:0:
192,192,107254,128,0,107413:0:0:0:0:
64,192,107572,1,8,0:0:0:0:
320,192,107572,128,4,107651:0:0:0:0:
448,192,107572,128,0,107890:0:0:0:0:
192,192,107731,128,0,107811:0:0:0:0:
192,192,107890,1,0,0:0:0:0:
64,192,108049,1,8,0:0:0:0:
448,192,108049,128,0,108208:0:0:0:0:
320,192,108129,128,0,108208:0:0:0:0:
64,192,108208,128,2,108288:0:0:0:0:
192,192,108208,128,0,108288:0:0:0:0:
64,192,108368,128,8,108447:0:0:0:0:
192,192,108368,128,0,108447:0:0:0:0:
64,192,108527,128,0,108686:0:0:0:0:
448,192,108527,128,0,108845:0:0:0:0:
320,192,108686,128,0,108845:0:0:0:0:
64,192,108845,1,8,0:0:0:0:
192,192,108845,128,0,108925:0:0:0:0:
320,192,108925,128,0,109004:0:0:0:0:
448,192,109004,128,0,109084:0:0:0:0:
64,192,109163,1,0,0:0:0:0:
448,192,109163,128,0,109323:0:0:0:0:
320,192,109243,128,0,109323:0:0:0:0:
64,192,109323,1,8,0:0:0:0:
192,192,109323,1,0,0:0:0:0:
320,192,109482,128,2,109561:0:0:0:0:
448,192,109482,128,0,109561:0:0:0:0:
320,192,109641,128,0,109720:0:0:0:0:
448,192,109641,128,0,109720:0:0:0:0:
320,192,109800,128,0,109880:0:0:0:0:
448,192,109800,128,0,109880:0:0:0:0:
320,192,109959,128,0,110039:0:0:0:0:
448,192,109959,128,0,110039:0:0:0:0:
320,192,110118,1,8,0:0:0:0:
448,192,110118,128,0,110437:0:0:0:0:
64,192,110437,128,0,110596:0:0:0:0:
192,192,110437,1,0,0:0:0:0:
320,192,110596,128,8,110914:0:0:0:0:
448,192,110596,1,0,0:0:0:0:
64,192,110755,1,2,0:0:0:0:
192,192,110755,1,0,0:0:0:0:
64,192,110914,1,8,0:0:0:0:
448,192,110914,128,0,110994:0:0:0:0:
320,192,111073,128,0,111153:0:0:0:0:
192,192,111232,128,0,111392:0:0:0:0:
320,192,111392,1,8,0:0:0:0:
448,192,111392,128,0,111471:0:0:0:0:
320,192,111551,1,8,0:0:0:0:
448,192,111551,128,0,111630:0:0:0:0:
64,192,111710,128,0,111789:0:0:0:0:
192,192,111710,128,0,111789:0:0:0:0:
64,192,111869,128,0,111949:0:0:0:0:
192,192,111869,128,0,111949:0:0:0:0:
192,192,112028,128,2,112346:0:0:0:0:
448,192,112028,1,0,0:0:0:0:
64,192,112187,128,8,112346:0:0:0:0:
448,192,112187,1,0,0:0:0:0:
320,192,112346,128,0,112665:0:0:0:0:
192,192,112506,128,0,112665:0:0:0:0:
64,192,112665,128,8,112824:0:0:0:0:
448,192,112665,128,0,112744:0:0:0:0:
320,192,112824,128,8,112903:0:0:0:0:
448,192,112824,128,0,112903:0:0:0:0:
64,192,112983,1,0,0:0:0:0:
64,192,113142,1,8,0:0:0:0:
192,192,113142,128,0,113222:0:0:0:0:
320,192,113222,128,0,113301:0:0:0:0:
448,192,113301,128,2,113381:0:0:0:0:
320,192,113460,128,8,113540:0:0:0:0:
448,192,113460,1,0,0:0:0:0:
192,192,113540,128,0,113620:0:0:0:0:
64,192,113620,128,0,113779:0:0:0:0:
448,192,113620,128,0,113938:0:0:0:0:
64,192,113938,1,8,0:0:0:0:
192,192,113938,128,0,114018:0:0:0:0:
448,192,114018,128,8,114097:0:0:0:0:
320,192,114018,1,0,0:0:0:0:
64,192,114097,128,8,114177:0:0:0:0:
192,192,114097,1,0,0:0:0:0:
64,192,114256,128,0,114415:0:0:0:0:
448,192,114256,1,0,0:0:0:0:
192,192,114336,128,0,114415:0:0:0:0:
320,192,114415,1,8,0:0:0:0:
448,192,114415,1,0,0:0:0:0:
64,192,114575,128,2,114654:0:0:0:0:
192,192,114575,128,0,114654:0:0:0:0:
64,192,114734,128,0,114813:0:0:0:0:
192,192,114734,128,0,114813:0:0:0:0:
64,192,114893,128,0,114972:0:0:0:0:
192,192,114893,128,0,114972:0:0:0:0:
64,192,115052,128,0,115132:0:0:0:0:
192,192,115052,128,0,115132:0:0:0:0:
64,192,115211,128,8,115529:0:0:0:0:
192,192,115211,1,0,0:0:0:0:
320,192,115370,1,0,0:0:0:0:
192,192,115529,1,0,0:0:0:0:
448,192,115529,128,0,115689:0:0:0:0:
320,192,115609,1,0,0:0:0:0:
64,192,115689,1,8,0:0:0:0:
192,192,115689,128,0,116007:0:0:0:0:
448,192,115848,1,2,0:0:0:0:
64,192,116007,1,8,0:0:0:0:
320,192,116007,128,0,116086:0:0:0:0:
64,192,116166,1,0,0:0:0:0:
192,192,116166,128,0,116246:0:0:0:0:
320,192,116246,1,0,0:0:0:0:
64,192,116325,128,0,116484:0:0:0:0:
448,192,116325,1,0,0:0:0:0:
192,192,116484,1,0,0:0:0:0:
448,192,116484,128,0,116564:0:0:0:0:
192,192,116644,1,0,0:0:0:0:
448,192,116644,128,0,116723:0:0:0:0:
64,192,116803,128,0,116882:0:0:0:0:
320,192,116803,128,0,116882:0:0:0:0:
64,192,116962,128,0,117041:0:0:0:0:
320,192,116962,128,0,117041:0:0:0:0:
448,192,117121,128,0,117280:0:0:0:0:
320,192,117201,128,0,117280:0:0:0:0:
64,192,117280,128,0,117439:0:0:0:0:
192,192,117360,128,0,117439:0:0:0:0:
320,192,117439,1,2,0:0:0:0:
448,192,117439,1,0,0:0:0:0:
64,192,117519,1,2,0:0:0:0:
192,192,117519,1,0,0:0:0:0:
320,192,117598,1,2,0:0:0:0:
448,192,117598,1,0,0:0:0:0:
192,192,117678,1,2,0:0:0:0:
64,192,117758,1,4,0:0:0:0:
320,192,117758,1,8,0:0:0:0:
448,192,117758,1,0,0:0:0:0:
