osu file format v14

[General]
AudioFilename: audio.mp3
AudioLeadIn: 0
PreviewTime: 12081
Countdown: 0
SampleSet: Normal
StackLeniency: 0.7
Mode: 3
LetterboxInBreaks: 0
SpecialStyle: 0
WidescreenStoryboard: 1

[Editor]
DistanceSpacing: 0.8
BeatDivisor: 4
GridSize: 16
TimelineZoom: 2.100001

[Metadata]
Title:Bwa !
TitleUnicode:Bwa !
Artist:Thaehan
ArtistUnicode:Thaehan
Creator:Voxa
Version:Normal !
Source:osu!
Tags:electronic chiptune fa featured artist instrumental loki mappers' guild mg
BeatmapID:2342045
BeatmapSetID:1120790

[Difficulty]
HPDrainRate:7
CircleSize:4
OverallDifficulty:7
ApproachRate:5
SliderMultiplier:1.4
SliderTickRate:1

[Events]
//Background and Video events
0,0,"stretched-1366-768-705445.jpg",0,0
//Break Periods
//Storyboard Layer 0 (Background)
//Storyboard Layer 1 (Fail)
//Storyboard Layer 2 (Pass)
//Storyboard Layer 3 (Foreground)
//Storyboard Layer 4 (Overlay)
//Storyboard Sound Samples

[TimingPoints]
1896,318.302387267905,4,1,1,10,1,0
5715,-100,4,1,1,20,0,0
6988,-100,4,1,1,30,0,0
8262,-100,4,1,1,40,0,0
9535,-100,4,1,1,50,0,0
12081,-100,4,1,1,50,0,1
31816,-100,4,1,1,50,0,0
61736,-100,4,1,1,40,0,0
62055,-100,4,1,1,30,0,0
62373,-100,4,1,1,20,0,0
62691,-100,4,1,1,15,0,0
63010,-100,4,1,1,50,0,0
63089,-100,4,1,1,15,0,0
66829,-100,4,1,1,20,0,0
68102,-100,4,1,1,30,0,0
69376,-100,4,1,1,40,0,0
70649,-100,4,1,1,50,0,0
73195,-100,4,1,1,50,0,1
92930,-100,4,1,1,50,0,0

[HitObjects]
64,192,1895,128,0,2532:0:0:0:0:
448,192,2532,128,0,3169:0:0:0:0:
192,192,3169,128,0,4124:0:0:0:0:
64,192,4124,1,0,0:0:0:0:
320,192,4442,128,8,5079:0:0:0:0:
448,192,4760,1,8,0:0:0:0:
64,192,5079,128,8,5715:0:0:0:0:
192,192,5397,1,8,0:0:0:0:
448,192,5715,128,8,6670:0:0:0:0:
64,192,6033,1,8,0:0:0:0:
192,192,6352,1,8,0:0:0:0:
320,192,6670,1,8,0:0:0:0:
64,192,6988,128,8,7625:0:0:0:0:
448,192,7307,1,8,0:0:0:0:
320,192,7625,128,8,8262:0:0:0:0:
64,192,7943,1,8,0:0:0:0:
192,192,8262,128,8,9216:0:0:0:0:
448,192,8580,1,8,0:0:0:0:
64,192,8898,1,8,0:0:0:0:
320,192,9216,1,8,0:0:0:0:
448,192,9535,1,8,0:0:0:0:
192,192,9694,1,8,0:0:0:0:
320,192,9853,1,8,0:0:0:0:
64,192,10012,1,8,0:0:0:0:
192,192,10171,1,8,0:0:0:0:
320,192,10331,1,8,0:0:0:0:
448,192,10490,1,8,0:0:0:0:
64,192,10649,1,8,0:0:0:0:
320,192,10808,1,8,0:0:0:0:
448,192,10808,1,0,0:0:0:0:
64,192,11445,128,0,11763:0:0:0:0:
192,192,11604,128,0,11763:0:0:0:0:
448,192,11763,1,2,0:0:0:0:
320,192,11922,1,2,0:0:0:0:
64,192,12081,1,8,0:0:0:0:
192,192,12081,1,4,0:0:0:0:
448,192,12240,1,0,0:0:0:0:
64,192,12399,1,2,0:0:0:0:
320,192,12399,1,0,0:0:0:0:
192,192,12559,1,0,0:0:0:0:
320,192,12718,1,8,0:0:0:0:
448,192,12718,128,0,13036:0:0:0:0:
64,192,13036,1,2,0:0:0:0:
192,192,13195,1,0,0:0:0:0:
320,192,13354,1,8,0:0:0:0:
448,192,13354,1,0,0:0:0:0:
64,192,13514,1,0,0:0:0:0:
192,192,13673,1,2,0:0:0:0:
320,192,13673,1,0,0:0:0:0:
448,192,13832,1,0,0:0:0:0:
64,192,13991,128,8,14309:0:0:0:0:
192,192,13991,1,0,0:0:0:0:
448,192,14309,1,2,0:0:0:0:
320,192,14468,1,0,0:0:0:0:
64,192,14628,1,8,0:0:0:0:
192,192,14628,1,0,0:0:0:0:
448,192,14787,1,0,0:0:0:0:
192,192,14946,1,2,0:0:0:0:
320,192,14946,1,0,0:0:0:0:
64,192,15105,1,0,0:0:0:0:
320,192,15264,1,8,0:0:0:0:
448,192,15264,1,0,0:0:0:0:
192,192,15423,1,0,0:0:0:0:
64,192,15583,1,2,0:0:0:0:
448,192,15583,1,0,0:0:0:0:
320,192,15742,1,0,0:0:0:0:
64,192,15901,128,8,16856:0:0:0:0:
192,192,15901,1,0,0:0:0:0:
448,192,16219,1,2,0:0:0:0:
192,192,16537,1,8,0:0:0:0:
448,192,16856,1,2,0:0:0:0:
320,192,17015,1,2,0:0:0:0:
64,192,17174,1,8,0:0:0:0:
192,192,17174,1,0,0:0:0:0:
448,192,17333,1,0,0:0:0:0:
64,192,17492,1,2,0:0:0:0:
320,192,17492,1,0,0:0:0:0:
192,192,17651,1,0,0:0:0:0:
320,192,17811,1,8,0:0:0:0:
448,192,17811,128,0,18129:0:0:0:0:
64,192,18129,1,2,0:0:0:0:
192,192,18288,1,0,0:0:0:0:
320,192,18447,1,8,0:0:0:0:
448,192,18447,1,0,0:0:0:0:
64,192,18606,1,0,0:0:0:0:
192,192,18766,1,2,0:0:0:0:
448,192,18766,1,0,0:0:0:0:
320,192,18925,1,0,0:0:0:0:
64,192,19084,128,8,19402:0:0:0:0:
192,192,19084,1,0,0:0:0:0:
448,192,19402,1,2,0:0:0:0:
320,192,19561,1,0,0:0:0:0:
64,192,19720,1,8,0:0:0:0:
192,192,19720,1,0,0:0:0:0:
320,192,19880,1,0,0:0:0:0:
64,192,20039,1,2,0:0:0:0:
448,192,20039,1,0,0:0:0:0:
192,192,20198,1,0,0:0:0:0:
320,192,20357,1,8,0:0:0:0:
448,192,20357,1,0,0:0:0:0:
64,192,20516,1,0,0:0:0:0:
192,192,20675,1,2,0:0:0:0:
320,192,20675,1,0,0:0:0:0:
448,192,20834,1,0,0:0:0:0:
64,192,20994,128,8,21630:0:0:0:0:
192,192,20994,1,0,0:0:0:0:
320,192,21312,1,2,0:0:0:0:
448,192,21630,128,2,21949:0:0:0:0:
320,192,21789,128,2,21949:0:0:0:0:
64,192,21949,1,2,0:0:0:0:
192,192,22108,1,2,0:0:0:0:
320,192,22267,1,8,0:0:0:0:
448,192,22267,1,4,0:0:0:0:
64,192,22426,1,0,0:0:0:0:
192,192,22585,1,2,0:0:0:0:
320,192,22585,1,0,0:0:0:0:
448,192,22744,1,0,0:0:0:0:
64,192,22903,128,8,23222:0:0:0:0:
192,192,22903,1,0,0:0:0:0:
448,192,23222,1,2,0:0:0:0:
320,192,23381,1,0,0:0:0:0:
64,192,23540,1,8,0:0:0:0:
192,192,23540,1,0,0:0:0:0:
448,192,23699,1,0,0:0:0:0:
192,192,23858,1,2,0:0:0:0:
320,192,23858,1,0,0:0:0:0:
64,192,24018,1,0,0:0:0:0:
320,192,24177,1,8,0:0:0:0:
448,192,24177,128,0,24495:0:0:0:0:
64,192,24495,1,2,0:0:0:0:
192,192,24654,1,0,0:0:0:0:
320,192,24813,1,8,0:0:0:0:
448,192,24813,1,0,0:0:0:0:
64,192,24972,1,0,0:0:0:0:
192,192,25132,1,2,0:0:0:0:
320,192,25132,1,0,0:0:0:0:
448,192,25291,1,0,0:0:0:0:
64,192,25450,1,8,0:0:0:0:
192,192,25450,1,0,0:0:0:0:
320,192,25609,1,0,0:0:0:0:
64,192,25768,1,2,0:0:0:0:
448,192,25768,1,0,0:0:0:0:
192,192,25927,1,0,0:0:0:0:
320,192,26086,1,8,0:0:0:0:
448,192,26086,128,0,27041:0:0:0:0:
64,192,26405,1,2,0:0:0:0:
320,192,26723,1,8,0:0:0:0:
64,192,27041,1,2,0:0:0:0:
192,192,27201,1,2,0:0:0:0:
320,192,27360,1,8,0:0:0:0:
448,192,27360,1,0,0:0:0:0:
192,192,27519,1,0,0:0:0:0:
64,192,27678,1,2,0:0:0:0:
448,192,27678,1,0,0:0:0:0:
320,192,27837,1,0,0:0:0:0:
64,192,27996,128,8,28315:0:0:0:0:
192,192,27996,1,0,0:0:0:0:
448,192,28315,1,2,0:0:0:0:
320,192,28474,1,0,0:0:0:0:
64,192,28633,1,8,0:0:0:0:
192,192,28633,1,0,0:0:0:0:
320,192,28792,1,0,0:0:0:0:
192,192,28951,1,2,0:0:0:0:
448,192,28951,1,0,0:0:0:0:
64,192,29110,1,0,0:0:0:0:
320,192,29270,1,8,0:0:0:0:
448,192,29270,128,0,29588:0:0:0:0:
64,192,29588,1,2,0:0:0:0:
192,192,29747,1,0,0:0:0:0:
320,192,29906,1,8,0:0:0:0:
448,192,29906,1,0,0:0:0:0:
192,192,30065,1,0,0:0:0:0:
64,192,30224,1,2,0:0:0:0:
448,192,30224,1,0,0:0:0:0:
320,192,30384,1,0,0:0:0:0:
64,192,30543,1,8,0:0:0:0:
192,192,30543,1,0,0:0:0:0:
320,192,30702,1,0,0:0:0:0:
64,192,30861,1,2,0:0:0:0:
448,192,30861,1,0,0:0:0:0:
192,192,31020,1,0,0:0:0:0:
320,192,31179,1,8,0:0:0:0:
448,192,31179,128,0,31816:0:0:0:0:
192,192,31498,1,2,0:0:0:0:
64,192,31816,128,0,32134:0:0:0:0:
192,192,31975,128,0,32134:0:0:0:0:
448,192,32134,1,2,0:0:0:0:
320,192,32293,1,2,0:0:0:0:
64,192,32453,1,8,0:0:0:0:
192,192,32453,1,4,0:0:0:0:
448,192,32612,1,0,0:0:0:0:
192,192,32930,1,8,0:0:0:0:
448,192,33089,1,0,0:0:0:0:
64,192,33248,1,8,0:0:0:0:
320,192,33407,1,2,0:0:0:0:
448,192,33407,1,0,0:0:0:0:
64,192,33726,1,8,0:0:0:0:
320,192,33885,1,0,0:0:0:0:
192,192,34044,1,2,0:0:0:0:
448,192,34203,1,8,0:0:0:0:
192,192,34362,1,0,0:0:0:0:
320,192,34521,1,0,0:0:0:0:
64,192,34681,1,2,0:0:0:0:
448,192,34681,1,0,0:0:0:0:
192,192,34840,1,0,0:0:0:0:
320,192,34999,1,8,0:0:0:0:
448,192,34999,128,0,35317:0:0:0:0:
64,192,35317,1,2,0:0:0:0:
192,192,35476,128,8,35795:0:0:0:0:
320,192,35476,1,0,0:0:0:0:
448,192,35795,1,8,0:0:0:0:
64,192,35954,1,2,0:0:0:0:
320,192,36113,1,0,0:0:0:0:
192,192,36272,1,8,0:0:0:0:
192,192,36431,1,8,0:0:0:0:
448,192,36590,1,2,0:0:0:0:
448,192,36750,1,0,0:0:0:0:
64,192,36909,1,8,0:0:0:0:
320,192,37068,1,8,0:0:0:0:
192,192,37227,1,2,0:0:0:0:
448,192,37386,1,0,0:0:0:0:
64,192,37545,1,8,0:0:0:0:
192,192,37545,1,0,0:0:0:0:
320,192,37705,1,0,0:0:0:0:
192,192,38023,1,8,0:0:0:0:
448,192,38182,1,0,0:0:0:0:
64,192,38341,1,8,0:0:0:0:
192,192,38500,1,2,0:0:0:0:
320,192,38500,1,0,0:0:0:0:
448,192,38819,1,8,0:0:0:0:
192,192,38978,1,0,0:0:0:0:
320,192,39137,1,2,0:0:0:0:
64,192,39296,1,8,0:0:0:0:
320,192,39455,1,0,0:0:0:0:
192,192,39614,1,0,0:0:0:0:
64,192,39773,1,2,0:0:0:0:
448,192,39773,1,0,0:0:0:0:
320,192,39933,1,0,0:0:0:0:
64,192,40092,128,8,40410:0:0:0:0:
192,192,40092,1,0,0:0:0:0:
448,192,40410,1,2,0:0:0:0:
192,192,40569,1,8,0:0:0:0:
320,192,40569,128,0,40888:0:0:0:0:
64,192,40888,1,8,0:0:0:0:
448,192,41047,1,2,0:0:0:0:
192,192,41206,1,0,0:0:0:0:
320,192,41365,1,8,0:0:0:0:
320,192,41524,1,8,0:0:0:0:
64,192,41683,1,2,0:0:0:0:
64,192,41842,1,0,0:0:0:0:
320,192,42002,1,2,0:0:0:0:
448,192,42002,1,0,0:0:0:0:
192,192,42161,1,2,0:0:0:0:
64,192,42320,1,0,0:0:0:0:
448,192,42320,1,0,0:0:0:0:
320,192,42638,1,8,0:0:0:0:
448,192,42638,1,4,0:0:0:0:
64,192,42797,1,0,0:0:0:0:
192,192,43116,1,8,0:0:0:0:
448,192,43275,1,2,0:0:0:0:
64,192,43434,1,8,0:0:0:0:
320,192,43593,1,0,0:0:0:0:
448,192,43593,1,0,0:0:0:0:
64,192,43911,1,8,0:0:0:0:
448,192,44071,1,0,0:0:0:0:
192,192,44230,1,0,0:0:0:0:
320,192,44389,1,8,0:0:0:0:
64,192,44548,1,2,0:0:0:0:
192,192,44548,1,0,0:0:0:0:
320,192,44707,1,0,0:0:0:0:
64,192,44866,1,0,0:0:0:0:
192,192,45025,1,0,0:0:0:0:
320,192,45185,1,8,0:0:0:0:
448,192,45185,128,0,45503:0:0:0:0:
64,192,45503,1,0,0:0:0:0:
192,192,45662,128,8,45980:0:0:0:0:
320,192,45662,1,0,0:0:0:0:
448,192,45980,1,8,0:0:0:0:
64,192,46140,1,0,0:0:0:0:
320,192,46299,1,0,0:0:0:0:
192,192,46458,1,8,0:0:0:0:
192,192,46617,1,8,0:0:0:0:
448,192,46776,1,0,0:0:0:0:
448,192,46935,1,0,0:0:0:0:
64,192,47094,1,2,0:0:0:0:
320,192,47254,1,8,0:0:0:0:
192,192,47413,1,0,0:0:0:0:
448,192,47572,1,0,0:0:0:0:
64,192,47731,1,8,0:0:0:0:
192,192,47731,1,0,0:0:0:0:
320,192,47890,1,8,0:0:0:0:
192,192,48208,1,8,0:0:0:0:
448,192,48368,1,2,0:0:0:0:
64,192,48527,1,8,0:0:0:0:
192,192,48686,1,0,0:0:0:0:
320,192,48686,1,0,0:0:0:0:
448,192,49004,1,8,0:0:0:0:
192,192,49163,1,8,0:0:0:0:
320,192,49323,1,0,0:0:0:0:
64,192,49482,1,8,0:0:0:0:
320,192,49641,1,2,0:0:0:0:
448,192,49641,1,0,0:0:0:0:
192,192,49800,1,0,0:0:0:0:
448,192,49959,1,0,0:0:0:0:
320,192,50118,1,0,0:0:0:0:
64,192,50277,128,8,50596:0:0:0:0:
192,192,50277,1,0,0:0:0:0:
448,192,50596,1,0,0:0:0:0:
192,192,50755,1,8,0:0:0:0:
320,192,50755,128,0,51073:0:0:0:0:
64,192,51073,1,8,0:0:0:0:
448,192,51232,1,0,0:0:0:0:
192,192,51392,1,0,0:0:0:0:
320,192,51551,1,0,0:0:0:0:
320,192,51710,1,0,0:0:0:0:
64,192,51869,1,0,0:0:0:0:
64,192,52028,1,0,0:0:0:0:
448,192,52187,128,0,52506:0:0:0:0:
320,192,52346,128,0,52506:0:0:0:0:
64,192,52506,128,0,52824:0:0:0:0:
192,192,52824,1,8,0:0:0:0:
320,192,52824,128,4,53142:0:0:0:0:
448,192,53142,1,2,0:0:0:0:
448,192,53301,1,8,0:0:0:0:
64,192,53460,1,0,0:0:0:0:
64,192,53620,1,8,0:0:0:0:
320,192,53779,1,2,0:0:0:0:
320,192,53938,1,0,0:0:0:0:
64,192,54097,128,8,54415:0:0:0:0:
192,192,54256,128,0,54415:0:0:0:0:
448,192,54415,1,2,0:0:0:0:
320,192,54575,1,8,0:0:0:0:
64,192,54734,128,0,55052:0:0:0:0:
192,192,54734,1,0,0:0:0:0:
320,192,55052,1,2,0:0:0:0:
448,192,55052,128,0,55370:0:0:0:0:
64,192,55370,1,8,0:0:0:0:
64,192,55529,1,0,0:0:0:0:
448,192,55689,128,2,56007:0:0:0:0:
320,192,55848,128,8,56007:0:0:0:0:
64,192,56007,128,0,56325:0:0:0:0:
192,192,56007,1,0,0:0:0:0:
320,192,56325,1,2,0:0:0:0:
448,192,56325,128,0,56644:0:0:0:0:
64,192,56644,1,8,0:0:0:0:
192,192,56803,1,8,0:0:0:0:
320,192,56962,1,2,0:0:0:0:
448,192,57121,1,0,0:0:0:0:
192,192,57280,1,8,0:0:0:0:
320,192,57439,1,8,0:0:0:0:
64,192,57598,1,2,0:0:0:0:
192,192,57758,1,0,0:0:0:0:
320,192,57917,128,8,58235:0:0:0:0:
448,192,57917,1,0,0:0:0:0:
64,192,58235,1,2,0:0:0:0:
64,192,58394,1,8,0:0:0:0:
448,192,58553,1,0,0:0:0:0:
448,192,58712,1,8,0:0:0:0:
192,192,58872,1,2,0:0:0:0:
192,192,59031,1,0,0:0:0:0:
448,192,59190,128,8,59508:0:0:0:0:
320,192,59349,128,0,59508:0:0:0:0:
64,192,59508,1,2,0:0:0:0:
192,192,59667,1,8,0:0:0:0:
320,192,59827,1,0,0:0:0:0:
448,192,59827,1,0,0:0:0:0:
64,192,59986,1,0,0:0:0:0:
192,192,60145,128,2,60463:0:0:0:0:
320,192,60145,1,0,0:0:0:0:
448,192,60463,1,8,0:0:0:0:
448,192,60622,1,0,0:0:0:0:
64,192,60781,128,2,61100:0:0:0:0:
192,192,60941,128,8,61100:0:0:0:0:
320,192,61100,1,0,0:0:0:0:
448,192,61100,128,0,61418:0:0:0:0:
64,192,61418,128,2,61736:0:0:0:0:
192,192,61418,1,0,0:0:0:0:
448,192,61736,1,0,0:0:0:0:
320,192,61896,1,0,0:0:0:0:
192,192,62055,1,0,0:0:0:0:
64,192,62214,1,0,0:0:0:0:
320,192,62373,1,0,0:0:0:0:
192,192,62532,1,0,0:0:0:0:
448,192,62691,1,0,0:0:0:0:
320,192,62850,1,0,0:0:0:0:
64,192,63010,128,4,63646:0:0:0:0:
192,192,63010,1,8,0:0:0:0:
448,192,63646,128,0,64283:0:0:0:0:
192,192,64283,128,0,65238:0:0:0:0:
64,192,65238,1,0,0:0:0:0:
320,192,65556,128,8,66193:0:0:0:0:
64,192,65874,1,8,0:0:0:0:
448,192,66193,128,8,66829:0:0:0:0:
192,192,66511,1,8,0:0:0:0:
64,192,66829,128,8,67784:0:0:0:0:
448,192,67147,1,8,0:0:0:0:
192,192,67466,1,8,0:0:0:0:
320,192,67784,1,8,0:0:0:0:
192,192,68102,128,8,68739:0:0:0:0:
64,192,68421,1,8,0:0:0:0:
448,192,68739,128,8,69376:0:0:0:0:
320,192,69057,1,8,0:0:0:0:
64,192,69376,128,8,70331:0:0:0:0:
320,192,69694,1,8,0:0:0:0:
448,192,70012,1,8,0:0:0:0:
192,192,70331,1,8,0:0:0:0:
320,192,70649,1,8,0:0:0:0:
448,192,70808,1,8,0:0:0:0:
192,192,70967,1,8,0:0:0:0:
320,192,71126,1,8,0:0:0:0:
64,192,71285,1,8,0:0:0:0:
192,192,71445,1,8,0:0:0:0:
448,192,71604,1,8,0:0:0:0:
320,192,71763,1,8,0:0:0:0:
64,192,71922,1,8,0:0:0:0:
192,192,71922,1,0,0:0:0:0:
64,192,72559,128,0,72877:0:0:0:0:
192,192,72718,128,0,72877:0:0:0:0:
448,192,72877,1,2,0:0:0:0:
320,192,73036,1,2,0:0:0:0:
64,192,73195,1,8,0:0:0:0:
192,192,73195,1,4,0:0:0:0:
448,192,73354,1,0,0:0:0:0:
64,192,73514,1,2,0:0:0:0:
320,192,73514,1,0,0:0:0:0:
192,192,73673,1,0,0:0:0:0:
320,192,73832,1,8,0:0:0:0:
448,192,73832,128,0,74150:0:0:0:0:
64,192,74150,1,2,0:0:0:0:
192,192,74309,1,0,0:0:0:0:
320,192,74468,1,8,0:0:0:0:
448,192,74468,1,0,0:0:0:0:
64,192,74628,1,0,0:0:0:0:
192,192,74787,1,2,0:0:0:0:
320,192,74787,1,0,0:0:0:0:
448,192,74946,1,0,0:0:0:0:
64,192,75105,128,8,75423:0:0:0:0:
192,192,75105,1,0,0:0:0:0:
448,192,75423,1,2,0:0:0:0:
320,192,75583,1,0,0:0:0:0:
64,192,75742,1,8,0:0:0:0:
192,192,75742,1,0,0:0:0:0:
448,192,75901,1,0,0:0:0:0:
192,192,76060,1,2,0:0:0:0:
320,192,76060,1,0,0:0:0:0:
64,192,76219,1,0,0:0:0:0:
320,192,76378,1,8,0:0:0:0:
448,192,76378,1,0,0:0:0:0:
192,192,76537,1,0,0:0:0:0:
64,192,76697,1,2,0:0:0:0:
448,192,76697,1,0,0:0:0:0:
320,192,76856,1,0,0:0:0:0:
64,192,77015,128,8,77970:0:0:0:0:
192,192,77015,1,0,0:0:0:0:
448,192,77333,1,2,0:0:0:0:
192,192,77651,1,8,0:0:0:0:
448,192,77970,1,2,0:0:0:0:
320,192,78129,1,2,0:0:0:0:
64,192,78288,1,8,0:0:0:0:
192,192,78288,1,0,0:0:0:0:
448,192,78447,1,0,0:0:0:0:
192,192,78606,1,2,0:0:0:0:
320,192,78606,1,0,0:0:0:0:
64,192,78766,1,0,0:0:0:0:
320,192,78925,1,8,0:0:0:0:
448,192,78925,128,0,79243:0:0:0:0:
64,192,79243,1,2,0:0:0:0:
192,192,79402,1,0,0:0:0:0:
320,192,79561,1,8,0:0:0:0:
448,192,79561,1,0,0:0:0:0:
64,192,79720,1,0,0:0:0:0:
192,192,79880,1,2,0:0:0:0:
448,192,79880,1,0,0:0:0:0:
320,192,80039,1,0,0:0:0:0:
64,192,80198,128,8,80516:0:0:0:0:
192,192,80198,1,0,0:0:0:0:
448,192,80516,1,2,0:0:0:0:
320,192,80675,1,0,0:0:0:0:
64,192,80834,1,8,0:0:0:0:
192,192,80834,1,0,0:0:0:0:
320,192,80994,1,0,0:0:0:0:
64,192,81153,1,2,0:0:0:0:
448,192,81153,1,0,0:0:0:0:
192,192,81312,1,0,0:0:0:0:
320,192,81471,1,8,0:0:0:0:
448,192,81471,1,0,0:0:0:0:
192,192,81630,1,0,0:0:0:0:
64,192,81789,1,2,0:0:0:0:
448,192,81789,1,0,0:0:0:0:
320,192,81949,1,0,0:0:0:0:
64,192,82108,128,8,82744:0:0:0:0:
192,192,82108,1,0,0:0:0:0:
320,192,82426,1,2,0:0:0:0:
448,192,82744,128,2,83063:0:0:0:0:
320,192,82903,128,2,83063:0:0:0:0:
64,192,83063,1,2,0:0:0:0:
192,192,83222,1,2,0:0:0:0:
320,192,83381,1,8,0:0:0:0:
448,192,83381,1,4,0:0:0:0:
64,192,83540,1,0,0:0:0:0:
192,192,83699,1,2,0:0:0:0:
320,192,83699,1,0,0:0:0:0:
448,192,83858,1,0,0:0:0:0:
64,192,84018,128,8,84336:0:0:0:0:
192,192,84018,1,0,0:0:0:0:
448,192,84336,1,2,0:0:0:0:
320,192,84495,1,0,0:0:0:0:
64,192,84654,1,8,0:0:0:0:
192,192,84654,1,0,0:0:0:0:
320,192,84813,1,0,0:0:0:0:
64,192,84972,1,2,0:0:0:0:
448,192,84972,1,0,0:0:0:0:
192,192,85132,1,0,0:0:0:0:
320,192,85291,1,8,0:0:0:0:
448,192,85291,128,0,85609:0:0:0:0:
64,192,85609,1,2,0:0:0:0:
192,192,85768,1,0,0:0:0:0:
320,192,85927,1,8,0:0:0:0:
448,192,85927,1,0,0:0:0:0:
64,192,86086,1,0,0:0:0:0:
192,192,86246,1,2,0:0:0:0:
448,192,86246,1,0,0:0:0:0:
320,192,86405,1,0,0:0:0:0:
64,192,86564,1,8,0:0:0:0:
192,192,86564,1,0,0:0:0:0:
320,192,86723,1,0,0:0:0:0:
64,192,86882,1,2,0:0:0:0:
448,192,86882,1,0,0:0:0:0:
192,192,87041,1,0,0:0:0:0:
320,192,87201,1,8,0:0:0:0:
448,192,87201,128,0,88155:0:0:0:0:
64,192,87519,1,2,0:0:0:0:
320,192,87837,1,8,0:0:0:0:
64,192,88155,1,2,0:0:0:0:
192,192,88315,1,2,0:0:0:0:
320,192,88474,1,8,0:0:0:0:
448,192,88474,1,0,0:0:0:0:
192,192,88633,1,0,0:0:0:0:
64,192,88792,1,2,0:0:0:0:
448,192,88792,1,0,0:0:0:0:
320,192,88951,1,0,0:0:0:0:
64,192,89110,128,8,89429:0:0:0:0:
192,192,89110,1,0,0:0:0:0:
448,192,89429,1,2,0:0:0:0:
320,192,89588,1,0,0:0:0:0:
64,192,89747,1,8,0:0:0:0:
192,192,89747,1,0,0:0:0:0:
320,192,89906,1,0,0:0:0:0:
64,192,90065,1,2,0:0:0:0:
448,192,90065,1,0,0:0:0:0:
192,192,90224,1,0,0:0:0:0:
320,192,90384,1,8,0:0:0:0:
448,192,90384,128,0,90702:0:0:0:0:
64,192,90702,1,2,0:0:0:0:
192,192,90861,1,0,0:0:0:0:
320,192,91020,1,8,0:0:0:0:
448,192,91020,1,0,0:0:0:0:
192,192,91179,1,0,0:0:0:0:
64,192,91338,1,2,0:0:0:0:
448,192,91338,1,0,0:0:0:0:
320,192,91498,1,0,0:0:0:0:
64,192,91657,1,8,0:0:0:0:
192,192,91657,1,0,0:0:0:0:
320,192,91816,1,0,0:0:0:0:
64,192,91975,1,2,0:0:0:0:
448,192,91975,1,0,0:0:0:0:
192,192,92134,1,0,0:0:0:0:
320,192,92293,1,8,0:0:0:0:
448,192,92293,128,0,92930:0:0:0:0:
192,192,92612,1,2,0:0:0:0:
64,192,92930,128,0,93248:0:0:0:0:
192,192,93089,128,0,93248:0:0:0:0:
448,192,93248,1,2,0:0:0:0:
320,192,93407,1,2,0:0:0:0:
64,192,93567,128,8,93885:0:0:0:0:
192,192,93567,1,4,0:0:0:0:
320,192,93885,1,2,0:0:0:0:
448,192,93885,128,0,94203:0:0:0:0:
64,192,94203,1,8,0:0:0:0:
320,192,94362,1,0,0:0:0:0:
64,192,94521,1,2,0:0:0:0:
192,192,94521,128,0,94840:0:0:0:0:
320,192,94840,128,8,95158:0:0:0:0:
448,192,94840,1,0,0:0:0:0:
64,192,95158,1,2,0:0:0:0:
192,192,95317,1,0,0:0:0:0:
448,192,95476,1,8,0:0:0:0:
320,192,95636,1,0,0:0:0:0:
64,192,95795,1,2,0:0:0:0:
192,192,95795,128,0,96113:0:0:0:0:
320,192,96113,1,8,0:0:0:0:
448,192,96113,1,0,0:0:0:0:
64,192,97068,1,2,0:0:0:0:
192,192,97227,1,2,0:0:0:0:
320,192,97386,1,4,0:0:0:0:
448,192,97386,1,8,0:0:0:0:
64,192,97545,1,0,0:0:0:0:
192,192,97864,1,8,0:0:0:0:
448,192,98023,1,0,0:0:0:0:
64,192,98182,1,8,0:0:0:0:
320,192,98341,1,2,0:0:0:0:
448,192,98341,1,0,0:0:0:0:
192,192,98659,1,8,0:0:0:0:
320,192,98819,1,0,0:0:0:0:
64,192,98978,1,2,0:0:0:0:
448,192,99137,1,8,0:0:0:0:
192,192,99296,1,0,0:0:0:0:
320,192,99455,1,0,0:0:0:0:
64,192,99614,1,2,0:0:0:0:
448,192,99614,1,0,0:0:0:0:
192,192,99773,1,0,0:0:0:0:
320,192,99933,1,8,0:0:0:0:
448,192,99933,128,0,100251:0:0:0:0:
64,192,100251,1,2,0:0:0:0:
192,192,100410,128,8,100728:0:0:0:0:
320,192,100410,1,0,0:0:0:0:
448,192,100728,1,8,0:0:0:0:
64,192,100888,1,2,0:0:0:0:
320,192,101047,1,0,0:0:0:0:
192,192,101206,1,8,0:0:0:0:
192,192,101365,1,8,0:0:0:0:
448,192,101524,1,2,0:0:0:0:
448,192,101683,1,0,0:0:0:0:
64,192,101842,1,8,0:0:0:0:
320,192,102002,1,8,0:0:0:0:
192,192,102161,1,2,0:0:0:0:
448,192,102320,1,0,0:0:0:0:
64,192,102479,1,8,0:0:0:0:
192,192,102479,1,0,0:0:0:0:
320,192,102638,1,0,0:0:0:0:
192,192,102957,1,8,0:0:0:0:
448,192,103116,1,0,0:0:0:0:
64,192,103275,1,8,0:0:0:0:
192,192,103434,1,2,0:0:0:0:
320,192,103434,1,0,0:0:0:0:
448,192,103752,1,8,0:0:0:0:
192,192,103911,1,0,0:0:0:0:
448,192,104071,1,2,0:0:0:0:
64,192,104230,1,8,0:0:0:0:
320,192,104389,1,0,0:0:0:0:
192,192,104548,1,0,0:0:0:0:
448,192,104707,1,2,0:0:0:0:
64,192,104707,1,0,0:0:0:0:
320,192,104866,1,0,0:0:0:0:
64,192,105025,128,8,105344:0:0:0:0:
192,192,105025,1,0,0:0:0:0:
448,192,105344,1,2,0:0:0:0:
192,192,105503,1,8,0:0:0:0:
320,192,105503,128,0,105821:0:0:0:0:
64,192,105821,1,8,0:0:0:0:
448,192,105980,1,2,0:0:0:0:
192,192,106140,1,0,0:0:0:0:
320,192,106299,1,8,0:0:0:0:
320,192,106458,1,8,0:0:0:0:
64,192,106617,1,2,0:0:0:0:
64,192,106776,1,0,0:0:0:0:
320,192,106935,1,2,0:0:0:0:
448,192,106935,1,0,0:0:0:0:
192,192,107094,1,2,0:0:0:0:
64,192,107254,1,0,0:0:0:0:
448,192,107254,1,0,0:0:0:0:
320,192,107572,1,8,0:0:0:0:
448,192,107572,1,4,0:0:0:0:
64,192,107731,1,0,0:0:0:0:
192,192,108049,1,8,0:0:0:0:
448,192,108208,1,2,0:0:0:0:
64,192,108368,1,8,0:0:0:0:
320,192,108527,1,0,0:0:0:0:
448,192,108527,1,0,0:0:0:0:
64,192,108845,1,8,0:0:0:0:
320,192,109004,1,0,0:0:0:0:
192,192,109163,1,0,0:0:0:0:
448,192,109323,1,8,0:0:0:0:
64,192,109482,1,2,0:0:0:0:
192,192,109482,1,0,0:0:0:0:
320,192,109641,1,0,0:0:0:0:
64,192,109800,1,0,0:0:0:0:
192,192,109959,1,0,0:0:0:0:
320,192,110118,1,8,0:0:0:0:
448,192,110118,128,0,110437:0:0:0:0:
64,192,110437,1,0,0:0:0:0:
192,192,110596,128,8,110914:0:0:0:0:
320,192,110596,1,0,0:0:0:0:
448,192,110914,1,8,0:0:0:0:
64,192,111073,1,0,0:0:0:0:
320,192,111232,1,0,0:0:0:0:
192,192,111392,1,8,0:0:0:0:
192,192,111551,1,8,0:0:0:0:
448,192,111710,1,0,0:0:0:0:
448,192,111869,1,0,0:0:0:0:
64,192,112028,1,2,0:0:0:0:
320,192,112187,1,8,0:0:0:0:
192,192,112346,1,0,0:0:0:0:
448,192,112506,1,0,0:0:0:0:
64,192,112665,1,8,0:0:0:0:
192,192,112665,1,0,0:0:0:0:
320,192,112824,1,8,0:0:0:0:
192,192,113142,1,8,0:0:0:0:
448,192,113301,1,2,0:0:0:0:
64,192,113460,1,8,0:0:0:0:
192,192,113620,1,0,0:0:0:0:
320,192,113620,1,0,0:0:0:0:
448,192,113938,1,8,0:0:0:0:
192,192,114097,1,8,0:0:0:0:
320,192,114256,1,0,0:0:0:0:
64,192,114415,1,8,0:0:0:0:
320,192,114575,1,2,0:0:0:0:
448,192,114575,1,0,0:0:0:0:
192,192,114734,1,0,0:0:0:0:
448,192,114893,1,0,0:0:0:0:
320,192,115052,1,0,0:0:0:0:
64,192,115211,128,8,115529:0:0:0:0:
192,192,115211,1,0,0:0:0:0:
448,192,115529,1,0,0:0:0:0:
192,192,115689,1,8,0:0:0:0:
320,192,115689,128,0,116007:0:0:0:0:
64,192,116007,1,8,0:0:0:0:
448,192,116166,1,0,0:0:0:0:
192,192,116325,1,0,0:0:0:0:
320,192,116484,1,0,0:0:0:0:
320,192,116644,1,0,0:0:0:0:
64,192,116803,1,0,0:0:0:0:
64,192,116962,1,0,0:0:0:0:
448,192,117121,128,0,117439:0:0:0:0:
320,192,117280,128,0,117439:0:0:0:0:
64,192,117439,1,2,0:0:0:0:
192,192,117598,1,2,0:0:0:0:
320,192,117758,1,4,0:0:0:0:
448,192,117758,1,8,0:0:0:0:
