osu file format v14

[General]
AudioFilename: audio.mp3
AudioLeadIn: 0
PreviewTime: 32291
Countdown: 0
SampleSet: Normal
StackLeniency: 0.7
Mode: 1
LetterboxInBreaks: 0
WidescreenStoryboard: 0

[Editor]
Bookmarks: 27039
DistanceSpacing: 0.8
BeatDivisor: 4
GridSize: 16
TimelineZoom: 1.5

[Metadata]
Title:Bwa !
TitleUnicode:Bwa !
Artist:Thaehan
ArtistUnicode:Thaehan
Creator:Jorkseljund
Version:Oni
Source:osu!
Tags:
BeatmapID:1695218
BeatmapSetID:807458

[Difficulty]
HPDrainRate:6
CircleSize:4
OverallDifficulty:6
ApproachRate:5
SliderMultiplier:1.2
SliderTickRate:1

[Events]
//Background and Video events
0,0,"citywallpaperhd.com-21.jpg",0,0
//Break Periods
//Storyboard Layer 0 (Background)
//Storyboard Layer 1 (Fail)
//Storyboard Layer 2 (Pass)
//Storyboard Layer 3 (Foreground)
//Storyboard Sound Samples

[TimingPoints]
1894,318.302387267905,4,1,0,40,1,0
4360,-100,4,1,0,60,0,0
6907,-100,4,1,0,80,0,0
9533,-83.3333333333333,4,1,0,80,0,0
10169,-71.4285714285714,4,1,0,80,0,0
10647,-62.5,4,1,0,80,0,0
11443,-62.5,4,1,0,80,0,0
11522,-64.5161290322581,4,1,0,80,0,0
11602,-66.6666666666667,4,1,0,80,0,0
11681,-68.9655172413793,4,1,0,80,0,0
11761,-71.4285714285714,4,1,0,80,0,0
11840,-74.0740740740741,4,1,0,80,0,0
11920,-76.9230769230769,4,1,0,80,0,0
12079,-76.9230769230769,4,1,0,100,0,1
22265,-76.9230769230769,4,1,0,100,0,0
65395,-100,4,1,0,20,0,0
68339,-100,4,1,0,40,0,0
70647,-83.3333333333333,4,1,0,40,0,0
71283,-71.4285714285714,4,1,0,40,0,0
71761,-62.5,4,1,0,40,0,0
72557,-62.5,4,1,0,40,0,0
72636,-64.5161290322581,4,1,0,40,0,0
72716,-66.6666666666667,4,1,0,40,0,0
72795,-68.9655172413793,4,1,0,40,0,0
72875,-71.4285714285714,4,1,0,40,0,0
72955,-74.0740740740741,4,1,0,40,0,0
73034,-76.9230769230769,4,1,0,40,0,0
73193,-76.9230769230769,4,1,0,100,0,1
83379,-76.9230769230769,4,1,0,100,0,0
93565,-76.9230769230769,4,1,0,100,0,1
96111,-76.9230769230769,4,1,0,100,0,0
97384,-76.9230769230769,4,1,0,100,0,1
107570,-76.9230769230769,4,1,0,100,0,0

[HitObjects]
174,157,1893,5,4,0:0:0:0:
277,148,2212,1,8,0:0:0:0:
328,144,2371,1,8,0:0:0:0:
328,144,2530,1,0,0:0:0:0:
184,204,2849,1,0,0:0:0:0:
115,125,3167,1,8,0:0:0:0:
81,85,3326,1,0,0:0:0:0:
129,89,3485,1,0,0:0:0:0:
179,93,3644,1,8,0:0:0:0:
217,127,3803,1,8,0:0:0:0:
186,169,3962,1,0,0:0:0:0:
155,211,4122,1,8,0:0:0:0:
125,254,4281,1,0,0:0:0:0:
125,254,4440,1,8,0:0:0:0:
198,180,4758,1,8,0:0:0:0:
235,143,4917,1,0,0:0:0:0:
273,107,5077,1,8,0:0:0:0:
204,185,5395,1,0,0:0:0:0:
167,87,5713,1,8,0:0:0:0:
167,87,5872,1,0,0:0:0:0:
167,87,6031,1,0,0:0:0:0:
167,87,6191,1,8,0:0:0:0:
167,87,6350,1,8,0:0:0:0:
126,61,6509,1,0,0:0:0:0:
196,129,6668,1,8,0:0:0:0:
173,135,6747,1,8,0:0:0:0:
226,171,6827,1,0,0:0:0:0:
226,171,6986,1,12,0:0:0:0:
271,77,7305,1,8,0:0:0:0:
271,77,7384,1,0,0:0:0:0:
271,77,7464,1,8,0:0:0:0:
220,90,7623,1,8,0:0:0:0:
129,141,7941,1,0,0:0:0:0:
231,161,8260,1,8,0:0:0:0:
281,173,8419,1,0,0:0:0:0:
285,121,8578,1,0,0:0:0:0:
285,121,8737,1,8,0:0:0:0:
285,121,8896,1,8,0:0:0:0:
285,121,9055,1,0,0:0:0:0:
285,121,9214,1,8,0:0:0:0:
285,121,9374,1,0,0:0:0:0:
283,43,9533,1,8,0:0:0:0:
213,90,9612,1,0,0:0:0:0:
213,90,9692,1,0,0:0:0:0:
213,90,9771,1,8,0:0:0:0:
213,90,9851,1,8,0:0:0:0:
191,137,10010,1,0,0:0:0:0:
174,186,10169,1,8,0:0:0:0:
166,211,10249,1,8,0:0:0:0:
157,235,10329,1,0,0:0:0:0:
149,259,10408,1,0,0:0:0:0:
149,259,10488,1,8,0:0:0:0:
164,238,10647,1,8,0:0:0:0:
149,216,10726,1,0,0:0:0:0:
189,241,10806,1,8,0:0:0:0:
384,88,11045,1,0,0:0:0:0:
384,88,11124,1,8,0:0:0:0:
308,160,11443,1,8,0:0:0:0:
308,160,11522,1,8,0:0:0:0:
308,160,11602,1,8,0:0:0:0:
308,160,11681,1,0,0:0:0:0:
308,160,11761,1,8,0:0:0:0:
308,160,11840,1,8,0:0:0:0:
308,160,11920,1,0,0:0:0:0:
308,160,12079,1,12,0:0:0:0:
319,79,12238,1,0,0:0:0:0:
319,79,12318,1,0,0:0:0:0:
319,79,12397,1,8,0:0:0:0:
288,103,12477,1,8,0:0:0:0:
195,94,12557,1,0,0:0:0:0:
195,94,12716,1,8,0:0:0:0:
275,32,13034,1,0,0:0:0:0:
442,58,13193,1,8,0:0:0:0:
442,58,13273,1,0,0:0:0:0:
442,58,13352,1,8,0:0:0:0:
403,65,13432,1,0,0:0:0:0:
364,72,13512,1,0,0:0:0:0:
393,188,13591,1,0,0:0:0:0:
393,188,13671,1,8,0:0:0:0:
354,64,13830,1,0,0:0:0:0:
354,64,13989,1,8,0:0:0:0:
296,72,14307,1,0,0:0:0:0:
239,71,14466,1,8,0:0:0:0:
239,71,14546,1,8,0:0:0:0:
239,71,14626,1,0,0:0:0:0:
409,155,14785,1,0,0:0:0:0:
409,155,14944,1,0,0:0:0:0:
409,155,15023,1,0,0:0:0:0:
409,155,15103,1,8,0:0:0:0:
362,61,15262,1,0,0:0:0:0:
253,202,15421,1,8,0:0:0:0:
253,202,15501,1,8,0:0:0:0:
253,202,15581,1,0,0:0:0:0:
216,188,15660,1,0,0:0:0:0:
336,86,15740,1,8,0:0:0:0:
285,87,15899,1,8,0:0:0:0:
411,181,16217,1,0,0:0:0:0:
411,181,16376,1,0,0:0:0:0:
285,198,16535,1,8,0:0:0:0:
285,198,16615,1,0,0:0:0:0:
285,198,16695,1,8,0:0:0:0:
372,54,16854,1,0,0:0:0:0:
372,54,17013,1,0,0:0:0:0:
287,34,17172,1,12,0:0:0:0:
328,117,17331,1,8,0:0:0:0:
328,117,17410,1,8,0:0:0:0:
328,117,17490,1,0,0:0:0:0:
257,145,17649,1,0,0:0:0:0:
257,145,17808,1,8,0:0:0:0:
359,234,17967,1,0,0:0:0:0:
205,68,18126,1,0,0:0:0:0:
205,68,18286,1,8,0:0:0:0:
205,68,18366,1,0,0:0:0:0:
400,46,18445,1,0,0:0:0:0:
473,157,18604,1,8,0:0:0:0:
473,157,18763,1,8,0:0:0:0:
433,156,18843,1,8,0:0:0:0:
273,128,18922,1,0,0:0:0:0:
332,64,19081,1,8,0:0:0:0:
373,148,19400,1,0,0:0:0:0:
295,147,19559,1,8,0:0:0:0:
255,146,19639,1,8,0:0:0:0:
323,204,19718,1,0,0:0:0:0:
232,77,19877,1,0,0:0:0:0:
232,77,20036,1,8,0:0:0:0:
232,77,20195,1,0,0:0:0:0:
377,37,20355,1,8,0:0:0:0:
283,82,20514,1,8,0:0:0:0:
283,82,20593,1,8,0:0:0:0:
283,82,20673,1,0,0:0:0:0:
389,162,20832,1,0,0:0:0:0:
391,86,20991,1,8,0:0:0:0:
471,113,21309,1,0,0:0:0:0:
338,82,21628,1,8,0:0:0:0:
293,71,21708,1,8,0:0:0:0:
353,115,21787,1,0,0:0:0:0:
346,125,21867,1,0,0:0:0:0:
339,134,21947,1,8,0:0:0:0:
339,134,22105,1,0,0:0:0:0:
138,119,22264,1,6,0:0:0:0:
265,191,22424,1,0,0:0:0:0:
265,191,22583,1,8,0:0:0:0:
265,191,22742,1,8,0:0:0:0:
265,191,22901,1,0,0:0:0:0:
110,166,23220,1,0,0:0:0:0:
231,119,23379,1,0,0:0:0:0:
231,119,23458,1,0,0:0:0:0:
231,119,23538,1,8,0:0:0:0:
373,128,23697,1,0,0:0:0:0:
295,119,23856,1,0,0:0:0:0:
256,114,23936,1,0,0:0:0:0:
215,40,24016,1,8,0:0:0:0:
254,60,24175,1,8,0:0:0:0:
326,149,24493,1,0,0:0:0:0:
392,50,24652,1,8,0:0:0:0:
392,50,24732,1,8,0:0:0:0:
392,50,24811,1,0,0:0:0:0:
128,188,24970,1,0,0:0:0:0:
128,188,25130,1,8,0:0:0:0:
128,188,25289,1,0,0:0:0:0:
251,92,25448,1,8,0:0:0:0:
355,54,25607,1,8,0:0:0:0:
355,54,25687,1,8,0:0:0:0:
355,54,25766,1,0,0:0:0:0:
376,157,25925,1,0,0:0:0:0:
376,157,26084,1,8,0:0:0:0:
288,140,26403,1,0,0:0:0:0:
288,140,26721,1,0,0:0:0:0:
257,37,26801,1,0,0:0:0:0:
288,140,26880,1,0,0:0:0:0:
188,80,27039,1,0,0:0:0:0:
188,80,27199,1,0,0:0:0:0:
355,67,27358,1,8,0:0:0:0:
323,89,27517,1,0,0:0:0:0:
323,89,27676,1,0,0:0:0:0:
323,89,27835,1,8,0:0:0:0:
320,198,27994,1,8,0:0:0:0:
165,172,28313,1,0,0:0:0:0:
264,152,28472,1,0,0:0:0:0:
264,152,28551,1,8,0:0:0:0:
264,152,28631,1,0,0:0:0:0:
180,124,28790,1,0,0:0:0:0:
413,83,28949,1,8,0:0:0:0:
373,81,29029,1,8,0:0:0:0:
346,117,29108,1,0,0:0:0:0:
346,117,29268,1,8,0:0:0:0:
268,59,29586,1,0,0:0:0:0:
350,31,29745,1,8,0:0:0:0:
350,31,29825,1,8,0:0:0:0:
350,31,29904,1,0,0:0:0:0:
241,194,30063,1,0,0:0:0:0:
372,133,30222,1,0,0:0:0:0:
301,113,30382,1,8,0:0:0:0:
301,113,30541,1,8,0:0:0:0:
156,71,30700,1,8,0:0:0:0:
135,103,30779,1,8,0:0:0:0:
156,71,30859,1,0,0:0:0:0:
237,50,31018,1,0,0:0:0:0:
328,46,31177,1,8,0:0:0:0:
328,46,31496,1,0,0:0:0:0:
255,160,31814,1,8,0:0:0:0:
231,198,31894,1,8,0:0:0:0:
353,115,31973,1,0,0:0:0:0:
346,125,32053,1,0,0:0:0:0:
339,134,32132,1,8,0:0:0:0:
339,134,32291,1,0,0:0:0:0:
272,148,32451,1,12,0:0:0:0:
84,128,32610,1,0,0:0:0:0:
255,80,32928,1,0,0:0:0:0:
255,80,33008,1,0,0:0:0:0:
255,80,33087,1,8,0:0:0:0:
140,138,33246,1,8,0:0:0:0:
361,148,33405,1,0,0:0:0:0:
361,148,33565,1,0,0:0:0:0:
347,37,33724,1,8,0:0:0:0:
347,37,33803,1,8,0:0:0:0:
314,36,33883,1,0,0:0:0:0:
272,88,34042,1,8,0:0:0:0:
272,88,34122,1,0,0:0:0:0:
272,88,34201,1,0,0:0:0:0:
272,232,34360,1,8,0:0:0:0:
272,232,34520,1,8,0:0:0:0:
134,123,34679,1,8,0:0:0:0:
134,123,34838,1,8,0:0:0:0:
256,103,34997,1,0,0:0:0:0:
256,103,35156,1,0,0:0:0:0:
256,103,35315,1,8,0:0:0:0:
256,103,35474,1,0,0:0:0:0:
401,49,35793,1,8,0:0:0:0:
401,49,35872,1,8,0:0:0:0:
401,49,35952,1,0,0:0:0:0:
419,118,36031,1,0,0:0:0:0:
379,120,36111,1,8,0:0:0:0:
419,118,36270,1,8,0:0:0:0:
367,123,36429,1,0,0:0:0:0:
289,117,36588,1,8,0:0:0:0:
312,58,36748,1,8,0:0:0:0:
303,49,36907,1,8,0:0:0:0:
303,49,36986,1,8,0:0:0:0:
303,49,37066,1,0,0:0:0:0:
269,200,37225,1,0,0:0:0:0:
269,200,37384,1,8,0:0:0:0:
225,66,37543,1,0,0:0:0:0:
225,66,37703,1,8,0:0:0:0:
339,106,38021,1,8,0:0:0:0:
339,106,38100,1,8,0:0:0:0:
339,106,38180,1,0,0:0:0:0:
297,154,38339,1,0,0:0:0:0:
268,192,38419,1,8,0:0:0:0:
268,192,38498,1,8,0:0:0:0:
323,53,38657,1,0,0:0:0:0:
323,53,38817,1,8,0:0:0:0:
323,53,38896,1,8,0:0:0:0:
323,53,38976,1,0,0:0:0:0:
236,92,39134,1,8,0:0:0:0:
236,92,39214,1,0,0:0:0:0:
236,92,39293,1,0,0:0:0:0:
349,147,39453,1,8,0:0:0:0:
464,77,39612,1,8,0:0:0:0:
464,77,39771,1,8,0:0:0:0:
464,77,39931,1,8,0:0:0:0:
256,103,40090,1,0,0:0:0:0:
256,103,40249,1,0,0:0:0:0:
256,103,40408,1,8,0:0:0:0:
256,103,40567,1,0,0:0:0:0:
401,49,40886,1,8,0:0:0:0:
401,49,40965,1,0,0:0:0:0:
401,49,41045,1,8,0:0:0:0:
419,118,41204,1,0,0:0:0:0:
419,118,41363,1,8,0:0:0:0:
367,123,41522,1,8,0:0:0:0:
312,58,41841,1,0,0:0:0:0:
303,49,42000,1,0,0:0:0:0:
303,49,42079,1,0,0:0:0:0:
303,49,42159,1,8,0:0:0:0:
451,85,42238,1,0,0:0:0:0:
451,85,42318,1,8,0:0:0:0:
403,185,42477,1,0,0:0:0:0:
272,148,42636,1,12,0:0:0:0:
84,128,42795,1,0,0:0:0:0:
255,80,43113,1,0,0:0:0:0:
255,80,43193,1,0,0:0:0:0:
255,80,43272,1,8,0:0:0:0:
140,138,43431,1,8,0:0:0:0:
361,148,43590,1,0,0:0:0:0:
361,148,43750,1,0,0:0:0:0:
347,37,43909,1,8,0:0:0:0:
347,37,43988,1,8,0:0:0:0:
314,36,44068,1,0,0:0:0:0:
272,88,44227,1,8,0:0:0:0:
272,88,44307,1,0,0:0:0:0:
272,88,44386,1,0,0:0:0:0:
272,232,44545,1,8,0:0:0:0:
272,232,44705,1,8,0:0:0:0:
134,123,44864,1,8,0:0:0:0:
134,123,45023,1,8,0:0:0:0:
256,103,45182,1,0,0:0:0:0:
256,103,45341,1,0,0:0:0:0:
256,103,45500,1,8,0:0:0:0:
256,103,45659,1,0,0:0:0:0:
401,49,45978,1,8,0:0:0:0:
401,49,46057,1,8,0:0:0:0:
401,49,46137,1,0,0:0:0:0:
419,118,46216,1,0,0:0:0:0:
379,120,46296,1,8,0:0:0:0:
419,118,46455,1,8,0:0:0:0:
367,123,46614,1,0,0:0:0:0:
289,117,46773,1,8,0:0:0:0:
312,58,46933,1,8,0:0:0:0:
303,49,47092,1,8,0:0:0:0:
303,49,47171,1,8,0:0:0:0:
303,49,47251,1,0,0:0:0:0:
269,200,47410,1,0,0:0:0:0:
269,200,47569,1,8,0:0:0:0:
225,66,47728,1,0,0:0:0:0:
225,66,47888,1,8,0:0:0:0:
339,106,48206,1,8,0:0:0:0:
339,106,48285,1,8,0:0:0:0:
339,106,48365,1,0,0:0:0:0:
297,154,48524,1,0,0:0:0:0:
268,192,48604,1,8,0:0:0:0:
268,192,48683,1,8,0:0:0:0:
323,53,48842,1,0,0:0:0:0:
323,53,49002,1,8,0:0:0:0:
323,53,49081,1,8,0:0:0:0:
323,53,49161,1,0,0:0:0:0:
236,92,49321,1,8,0:0:0:0:
236,92,49401,1,0,0:0:0:0:
236,92,49480,1,0,0:0:0:0:
349,147,49638,1,8,0:0:0:0:
464,77,49797,1,8,0:0:0:0:
464,77,49956,1,8,0:0:0:0:
464,77,50116,1,8,0:0:0:0:
256,103,50275,1,0,0:0:0:0:
256,103,50434,1,0,0:0:0:0:
256,103,50593,1,8,0:0:0:0:
256,103,50752,1,0,0:0:0:0:
401,49,51071,1,8,0:0:0:0:
401,49,51150,1,0,0:0:0:0:
401,49,51230,1,8,0:0:0:0:
419,118,51389,1,0,0:0:0:0:
419,118,51548,1,8,0:0:0:0:
367,123,51707,1,8,0:0:0:0:
312,58,52026,1,0,0:0:0:0:
303,49,52185,1,0,0:0:0:0:
303,49,52264,1,0,0:0:0:0:
303,49,52344,1,8,0:0:0:0:
451,85,52423,1,0,0:0:0:0:
451,85,52503,1,8,0:0:0:0:
403,185,52662,1,0,0:0:0:0:
272,148,52821,1,12,0:0:0:0:
257,149,53140,1,0,0:0:0:0:
257,149,53299,1,0,0:0:0:0:
257,149,53458,1,8,0:0:0:0:
257,149,53618,1,8,0:0:0:0:
268,60,53777,1,0,0:0:0:0:
403,48,53936,1,0,0:0:0:0:
418,166,54095,1,0,0:0:0:0:
363,177,54175,1,0,0:0:0:0:
340,131,54254,1,8,0:0:0:0:
340,131,54334,1,0,0:0:0:0:
340,131,54413,1,8,0:0:0:0:
171,164,54573,1,0,0:0:0:0:
171,164,54732,1,4,0:0:0:0:
171,164,55050,1,4,0:0:0:0:
288,108,55368,1,0,0:0:0:0:
288,108,55527,1,8,0:0:0:0:
355,228,55687,1,8,0:0:0:0:
355,228,55766,1,8,0:0:0:0:
355,228,55846,1,0,0:0:0:0:
355,228,55925,1,0,0:0:0:0:
355,228,56005,1,8,0:0:0:0:
189,102,56164,1,0,0:0:0:0:
189,102,56323,1,8,0:0:0:0:
276,79,56642,1,8,0:0:0:0:
276,79,56721,1,8,0:0:0:0:
276,79,56801,1,0,0:0:0:0:
276,79,56880,1,0,0:0:0:0:
276,79,56960,1,8,0:0:0:0:
276,79,57039,1,8,0:0:0:0:
276,79,57119,1,0,0:0:0:0:
261,172,57278,1,8,0:0:0:0:
261,172,57358,1,8,0:0:0:0:
261,172,57437,1,0,0:0:0:0:
261,172,57517,1,0,0:0:0:0:
261,172,57596,1,8,0:0:0:0:
223,161,57676,1,8,0:0:0:0:
305,23,57756,1,0,0:0:0:0:
267,33,57835,1,0,0:0:0:0:
226,76,57915,1,0,0:0:0:0:
257,149,58233,1,0,0:0:0:0:
257,149,58392,1,0,0:0:0:0:
257,149,58551,1,8,0:0:0:0:
257,149,58711,1,8,0:0:0:0:
268,60,58870,1,0,0:0:0:0:
403,48,59029,1,0,0:0:0:0:
418,166,59188,1,0,0:0:0:0:
363,177,59268,1,0,0:0:0:0:
340,131,59347,1,8,0:0:0:0:
340,131,59427,1,0,0:0:0:0:
340,131,59506,1,8,0:0:0:0:
171,164,59666,1,0,0:0:0:0:
171,164,59825,1,12,0:0:0:0:
145,90,59984,1,4,0:0:0:0:
171,164,60143,1,12,0:0:0:0:
288,108,60461,1,0,0:0:0:0:
288,108,60620,1,8,0:0:0:0:
355,228,60780,1,8,0:0:0:0:
355,228,60859,1,8,0:0:0:0:
355,228,60939,1,0,0:0:0:0:
355,228,61018,1,0,0:0:0:0:
355,228,61098,1,8,0:0:0:0:
189,102,61257,1,0,0:0:0:0:
189,102,61416,1,8,0:0:0:0:
276,79,61735,1,8,0:0:0:0:
276,79,61814,1,8,0:0:0:0:
276,79,61894,1,0,0:0:0:0:
276,79,61973,1,0,0:0:0:0:
276,79,62053,1,8,0:0:0:0:
276,79,62132,1,8,0:0:0:0:
276,79,62212,1,0,0:0:0:0:
276,79,62292,1,0,0:0:0:0:
261,172,62371,1,8,0:0:0:0:
261,172,62530,1,8,0:0:0:0:
261,172,62689,1,0,0:0:0:0:
305,23,62849,1,0,0:0:0:0:
397,108,63008,1,4,0:0:0:0:
125,254,65554,1,0,0:0:0:0:
198,180,65872,1,8,0:0:0:0:
235,143,66031,1,0,0:0:0:0:
273,107,66191,1,8,0:0:0:0:
204,185,66509,1,0,0:0:0:0:
167,87,66827,1,8,0:0:0:0:
167,87,66986,1,0,0:0:0:0:
167,87,67145,1,0,0:0:0:0:
167,87,67305,1,8,0:0:0:0:
167,87,67464,1,8,0:0:0:0:
196,129,67623,1,0,0:0:0:0:
226,171,67782,1,8,0:0:0:0:
250,170,67862,1,8,0:0:0:0:
226,171,67941,1,0,0:0:0:0:
226,171,68100,1,12,0:0:0:0:
271,77,68419,1,8,0:0:0:0:
271,77,68498,1,0,0:0:0:0:
271,77,68578,1,8,0:0:0:0:
220,90,68737,1,8,0:0:0:0:
129,141,69055,1,0,0:0:0:0:
231,161,69374,1,8,0:0:0:0:
281,173,69533,1,0,0:0:0:0:
285,121,69692,1,0,0:0:0:0:
285,121,69851,1,8,0:0:0:0:
285,121,70010,1,8,0:0:0:0:
285,121,70169,1,0,0:0:0:0:
285,121,70328,1,8,0:0:0:0:
285,121,70488,1,0,0:0:0:0:
283,43,70647,1,8,0:0:0:0:
213,90,70726,1,0,0:0:0:0:
213,90,70806,1,0,0:0:0:0:
213,90,70885,1,8,0:0:0:0:
213,90,70965,1,8,0:0:0:0:
191,137,71124,1,0,0:0:0:0:
174,186,71283,1,8,0:0:0:0:
166,211,71363,1,8,0:0:0:0:
157,235,71443,1,0,0:0:0:0:
149,259,71522,1,0,0:0:0:0:
149,259,71602,1,8,0:0:0:0:
164,238,71761,1,8,0:0:0:0:
149,216,71840,1,0,0:0:0:0:
189,241,71920,1,8,0:0:0:0:
384,88,72159,1,0,0:0:0:0:
384,88,72238,1,8,0:0:0:0:
308,160,72557,1,8,0:0:0:0:
308,160,72636,1,8,0:0:0:0:
308,160,72716,1,8,0:0:0:0:
308,160,72795,1,0,0:0:0:0:
308,160,72875,1,8,0:0:0:0:
308,160,72955,1,8,0:0:0:0:
308,160,73034,1,0,0:0:0:0:
308,160,73193,1,12,0:0:0:0:
319,79,73352,1,0,0:0:0:0:
319,79,73432,1,0,0:0:0:0:
319,79,73511,1,8,0:0:0:0:
288,103,73591,1,8,0:0:0:0:
195,94,73671,1,0,0:0:0:0:
195,94,73830,1,8,0:0:0:0:
275,32,74148,1,0,0:0:0:0:
442,58,74307,1,8,0:0:0:0:
442,58,74387,1,0,0:0:0:0:
442,58,74466,1,8,0:0:0:0:
403,65,74546,1,0,0:0:0:0:
364,72,74626,1,0,0:0:0:0:
393,188,74705,1,0,0:0:0:0:
393,188,74785,1,8,0:0:0:0:
354,64,74944,1,0,0:0:0:0:
354,64,75103,1,8,0:0:0:0:
296,72,75421,1,0,0:0:0:0:
239,71,75580,1,8,0:0:0:0:
239,71,75660,1,8,0:0:0:0:
239,71,75740,1,0,0:0:0:0:
409,155,75899,1,0,0:0:0:0:
409,155,76058,1,0,0:0:0:0:
409,155,76137,1,0,0:0:0:0:
409,155,76217,1,8,0:0:0:0:
362,61,76376,1,0,0:0:0:0:
253,202,76535,1,8,0:0:0:0:
253,202,76615,1,8,0:0:0:0:
253,202,76695,1,0,0:0:0:0:
216,188,76774,1,0,0:0:0:0:
336,86,76854,1,8,0:0:0:0:
285,87,77013,1,8,0:0:0:0:
411,181,77331,1,0,0:0:0:0:
411,181,77490,1,0,0:0:0:0:
285,198,77649,1,8,0:0:0:0:
285,198,77729,1,0,0:0:0:0:
285,198,77809,1,8,0:0:0:0:
372,54,77968,1,0,0:0:0:0:
372,54,78127,1,0,0:0:0:0:
287,34,78286,1,12,0:0:0:0:
328,117,78445,1,8,0:0:0:0:
328,117,78524,1,8,0:0:0:0:
328,117,78604,1,0,0:0:0:0:
257,145,78763,1,0,0:0:0:0:
257,145,78922,1,8,0:0:0:0:
359,234,79081,1,0,0:0:0:0:
205,68,79240,1,0,0:0:0:0:
205,68,79400,1,8,0:0:0:0:
205,68,79480,1,0,0:0:0:0:
400,46,79559,1,0,0:0:0:0:
473,157,79718,1,8,0:0:0:0:
473,157,79877,1,8,0:0:0:0:
433,156,79957,1,8,0:0:0:0:
273,128,80036,1,0,0:0:0:0:
332,64,80195,1,8,0:0:0:0:
373,148,80514,1,0,0:0:0:0:
295,147,80673,1,8,0:0:0:0:
255,146,80753,1,8,0:0:0:0:
323,204,80832,1,0,0:0:0:0:
232,77,80991,1,0,0:0:0:0:
232,77,81150,1,8,0:0:0:0:
232,77,81309,1,0,0:0:0:0:
377,37,81469,1,8,0:0:0:0:
283,82,81628,1,8,0:0:0:0:
283,82,81707,1,8,0:0:0:0:
283,82,81787,1,0,0:0:0:0:
389,162,81946,1,0,0:0:0:0:
391,86,82105,1,8,0:0:0:0:
471,113,82423,1,0,0:0:0:0:
343,159,82742,1,8,0:0:0:0:
299,173,82822,1,8,0:0:0:0:
353,115,82901,1,0,0:0:0:0:
346,125,82981,1,0,0:0:0:0:
339,134,83061,1,8,0:0:0:0:
339,134,83219,1,0,0:0:0:0:
138,119,83378,1,12,0:0:0:0:
265,191,83538,1,0,0:0:0:0:
265,191,83697,1,8,0:0:0:0:
265,191,83856,1,8,0:0:0:0:
265,191,84015,1,0,0:0:0:0:
110,166,84334,1,0,0:0:0:0:
231,119,84493,1,0,0:0:0:0:
231,119,84572,1,0,0:0:0:0:
231,119,84652,1,8,0:0:0:0:
373,128,84811,1,0,0:0:0:0:
295,119,84970,1,0,0:0:0:0:
256,114,85050,1,0,0:0:0:0:
215,40,85130,1,8,0:0:0:0:
254,60,85289,1,8,0:0:0:0:
326,149,85607,1,0,0:0:0:0:
392,50,85766,1,8,0:0:0:0:
392,50,85846,1,8,0:0:0:0:
392,50,85925,1,0,0:0:0:0:
128,188,86084,1,0,0:0:0:0:
128,188,86244,1,8,0:0:0:0:
128,188,86403,1,0,0:0:0:0:
251,92,86562,1,8,0:0:0:0:
355,54,86721,1,8,0:0:0:0:
355,54,86801,1,8,0:0:0:0:
355,54,86880,1,0,0:0:0:0:
376,157,87039,1,0,0:0:0:0:
376,157,87198,1,8,0:0:0:0:
288,140,87517,1,0,0:0:0:0:
288,140,87835,1,0,0:0:0:0:
257,37,87915,1,0,0:0:0:0:
288,140,87994,1,0,0:0:0:0:
188,80,88153,1,0,0:0:0:0:
188,80,88313,1,0,0:0:0:0:
355,67,88472,1,8,0:0:0:0:
323,89,88631,1,0,0:0:0:0:
323,89,88790,1,0,0:0:0:0:
323,89,88949,1,8,0:0:0:0:
320,198,89108,1,8,0:0:0:0:
165,172,89427,1,0,0:0:0:0:
264,152,89586,1,0,0:0:0:0:
264,152,89665,1,8,0:0:0:0:
264,152,89745,1,0,0:0:0:0:
180,124,89904,1,0,0:0:0:0:
413,83,90063,1,8,0:0:0:0:
373,81,90143,1,8,0:0:0:0:
346,117,90222,1,0,0:0:0:0:
346,117,90382,1,8,0:0:0:0:
268,59,90700,1,0,0:0:0:0:
350,31,90859,1,8,0:0:0:0:
350,31,90939,1,8,0:0:0:0:
350,31,91018,1,0,0:0:0:0:
241,194,91177,1,0,0:0:0:0:
372,133,91336,1,0,0:0:0:0:
301,113,91496,1,8,0:0:0:0:
301,113,91655,1,8,0:0:0:0:
156,71,91814,1,8,0:0:0:0:
135,103,91893,1,8,0:0:0:0:
156,71,91973,1,0,0:0:0:0:
237,50,92132,1,0,0:0:0:0:
328,46,92291,1,8,0:0:0:0:
328,46,92610,1,0,0:0:0:0:
192,47,92928,1,8,0:0:0:0:
146,47,93008,1,8,0:0:0:0:
353,115,93087,1,0,0:0:0:0:
346,125,93167,1,0,0:0:0:0:
339,134,93246,1,8,0:0:0:0:
339,134,93405,1,0,0:0:0:0:
202,124,93565,1,6,0:0:0:0:
202,124,93883,1,6,0:0:0:0:
247,53,94042,1,0,0:0:0:0:
247,53,94201,1,8,0:0:0:0:
247,53,94360,1,8,0:0:0:0:
247,53,94519,1,0,0:0:0:0:
289,102,94838,1,0,0:0:0:0:
256,94,94917,1,0,0:0:0:0:
210,172,94997,1,0,0:0:0:0:
210,172,95077,1,0,0:0:0:0:
210,172,95156,1,8,0:0:0:0:
101,105,95315,1,0,0:0:0:0:
101,105,95474,1,8,0:0:0:0:
101,105,95634,1,0,0:0:0:0:
285,114,96111,1,4,0:0:0:0:
18,34,97066,1,0,0:0:0:0:
18,34,97145,1,0,0:0:0:0:
18,34,97225,1,0,0:0:0:0:
18,34,97305,1,0,0:0:0:0:
272,148,97384,1,12,0:0:0:0:
84,128,97543,1,0,0:0:0:0:
255,80,97861,1,0,0:0:0:0:
255,80,97941,1,0,0:0:0:0:
255,80,98020,1,8,0:0:0:0:
140,138,98179,1,8,0:0:0:0:
361,148,98338,1,0,0:0:0:0:
361,148,98498,1,0,0:0:0:0:
347,37,98657,1,8,0:0:0:0:
347,37,98736,1,8,0:0:0:0:
314,36,98816,1,0,0:0:0:0:
272,88,98975,1,8,0:0:0:0:
272,88,99055,1,0,0:0:0:0:
272,88,99134,1,0,0:0:0:0:
272,232,99293,1,8,0:0:0:0:
272,232,99453,1,8,0:0:0:0:
134,123,99612,1,8,0:0:0:0:
134,123,99771,1,8,0:0:0:0:
256,103,99930,1,0,0:0:0:0:
256,103,100089,1,0,0:0:0:0:
256,103,100248,1,8,0:0:0:0:
256,103,100407,1,0,0:0:0:0:
401,49,100726,1,8,0:0:0:0:
401,49,100805,1,8,0:0:0:0:
401,49,100885,1,0,0:0:0:0:
419,118,100964,1,0,0:0:0:0:
379,120,101044,1,8,0:0:0:0:
419,118,101203,1,8,0:0:0:0:
367,123,101362,1,0,0:0:0:0:
289,117,101521,1,8,0:0:0:0:
312,58,101681,1,8,0:0:0:0:
303,49,101840,1,8,0:0:0:0:
303,49,101919,1,8,0:0:0:0:
303,49,101999,1,0,0:0:0:0:
269,200,102158,1,0,0:0:0:0:
269,200,102317,1,8,0:0:0:0:
225,66,102476,1,0,0:0:0:0:
225,66,102636,1,8,0:0:0:0:
339,106,102954,1,8,0:0:0:0:
339,106,103033,1,8,0:0:0:0:
339,106,103113,1,0,0:0:0:0:
297,154,103272,1,0,0:0:0:0:
268,192,103352,1,8,0:0:0:0:
268,192,103431,1,8,0:0:0:0:
323,53,103590,1,0,0:0:0:0:
323,53,103750,1,8,0:0:0:0:
323,53,103830,1,8,0:0:0:0:
323,53,103909,1,0,0:0:0:0:
236,92,104069,1,8,0:0:0:0:
236,92,104149,1,0,0:0:0:0:
236,92,104228,1,0,0:0:0:0:
349,147,104386,1,8,0:0:0:0:
464,77,104545,1,8,0:0:0:0:
464,77,104704,1,8,0:0:0:0:
464,77,104864,1,8,0:0:0:0:
256,103,105023,1,0,0:0:0:0:
256,103,105182,1,0,0:0:0:0:
256,103,105341,1,8,0:0:0:0:
256,103,105500,1,0,0:0:0:0:
401,49,105819,1,8,0:0:0:0:
401,49,105898,1,0,0:0:0:0:
401,49,105978,1,8,0:0:0:0:
419,118,106137,1,0,0:0:0:0:
419,118,106296,1,8,0:0:0:0:
367,123,106455,1,8,0:0:0:0:
312,58,106774,1,0,0:0:0:0:
303,49,106933,1,0,0:0:0:0:
303,49,107012,1,0,0:0:0:0:
303,49,107092,1,8,0:0:0:0:
451,85,107171,1,0,0:0:0:0:
451,85,107251,1,8,0:0:0:0:
403,185,107411,1,0,0:0:0:0:
272,148,107569,1,12,0:0:0:0:
84,128,107728,1,0,0:0:0:0:
255,80,108046,1,0,0:0:0:0:
255,80,108126,1,0,0:0:0:0:
255,80,108205,1,8,0:0:0:0:
140,138,108366,1,8,0:0:0:0:
361,148,108525,1,0,0:0:0:0:
361,148,108683,1,0,0:0:0:0:
347,37,108842,1,8,0:0:0:0:
347,37,108923,1,8,0:0:0:0:
314,36,109001,1,0,0:0:0:0:
272,88,109160,1,8,0:0:0:0:
272,88,109240,1,0,0:0:0:0:
272,88,109321,1,0,0:0:0:0:
272,232,109480,1,8,0:0:0:0:
272,232,109639,1,8,0:0:0:0:
134,123,109797,1,8,0:0:0:0:
134,123,109956,1,8,0:0:0:0:
256,103,110115,1,0,0:0:0:0:
256,103,110274,1,0,0:0:0:0:
256,103,110435,1,8,0:0:0:0:
256,103,110594,1,0,0:0:0:0:
401,49,110911,1,8,0:0:0:0:
401,49,110992,1,8,0:0:0:0:
401,49,111071,1,0,0:0:0:0:
419,118,111151,1,0,0:0:0:0:
379,120,111229,1,8,0:0:0:0:
419,118,111390,1,8,0:0:0:0:
367,123,111549,1,0,0:0:0:0:
289,117,111708,1,8,0:0:0:0:
312,58,111866,1,8,0:0:0:0:
303,49,112025,1,8,0:0:0:0:
303,49,112106,1,8,0:0:0:0:
303,49,112184,1,0,0:0:0:0:
269,200,112343,1,0,0:0:0:0:
269,200,112504,1,8,0:0:0:0:
225,66,112663,1,0,0:0:0:0:
225,66,112821,1,8,0:0:0:0:
339,106,113139,1,8,0:0:0:0:
339,106,113220,1,8,0:0:0:0:
339,106,113298,1,0,0:0:0:0:
297,154,113457,1,0,0:0:0:0:
268,192,113537,1,8,0:0:0:0:
268,192,113618,1,8,0:0:0:0:
323,53,113777,1,0,0:0:0:0:
323,53,113935,1,8,0:0:0:0:
323,53,114016,1,8,0:0:0:0:
323,53,114094,1,0,0:0:0:0:
236,92,114256,1,8,0:0:0:0:
236,92,114334,1,0,0:0:0:0:
236,92,114415,1,0,0:0:0:0:
349,147,114573,1,8,0:0:0:0:
464,77,114732,1,8,0:0:0:0:
464,77,114891,1,8,0:0:0:0:
464,77,115049,1,8,0:0:0:0:
256,103,115208,1,0,0:0:0:0:
256,103,115367,1,0,0:0:0:0:
256,103,115526,1,8,0:0:0:0:
256,103,115687,1,0,0:0:0:0:
401,49,116004,1,8,0:0:0:0:
401,49,116083,1,0,0:0:0:0:
401,49,116163,1,8,0:0:0:0:
419,118,116322,1,0,0:0:0:0:
419,118,116481,1,8,0:0:0:0:
367,123,116642,1,8,0:0:0:0:
312,58,116959,1,0,0:0:0:0:
303,49,117118,1,0,0:0:0:0:
303,49,117199,1,0,0:0:0:0:
303,49,117277,1,8,0:0:0:0:
451,85,117358,1,0,0:0:0:0:
451,85,117436,1,8,0:0:0:0:
406,92,117517,1,8,0:0:0:0:
383,95,117596,1,0,0:0:0:0:
360,98,117676,1,0,0:0:0:0:
272,148,117756,1,8,0:0:0:0:
