osu file format v14

[General]
AudioFilename: audio.mp3
AudioLeadIn: 0
PreviewTime: 32291
Countdown: 0
SampleSet: Normal
StackLeniency: 0.7
Mode: 1
LetterboxInBreaks: 0
WidescreenStoryboard: 0

[Editor]
DistanceSpacing: 0.8
BeatDivisor: 4
GridSize: 16
TimelineZoom: 1.1

[Metadata]
Title:Bwa !
TitleUnicode:Bwa !
Artist:Thaehan
ArtistUnicode:Thaehan
Creator:Jorkseljund
Version:Muzukashii
Source:osu!
Tags:
BeatmapID:1696507
BeatmapSetID:807458

[Difficulty]
HPDrainRate:6
CircleSize:5
OverallDifficulty:5
ApproachRate:5
SliderMultiplier:1.4
SliderTickRate:1

[Events]
//Background and Video events
0,0,"citywallpaperhd.com-21.jpg",0,0
//Break Periods
//Storyboard Layer 0 (Background)
//Storyboard Layer 1 (Fail)
//Storyboard Layer 2 (Pass)
//Storyboard Layer 3 (Foreground)
//Storyboard Sound Samples

[TimingPoints]
1894,318.302387267905,4,1,0,40,1,0
4360,-100,4,1,0,60,0,0
6907,-100,4,1,0,80,0,0
12079,-100,4,1,0,100,0,1
22265,-100,4,1,0,100,0,0
65395,-100,4,1,0,20,0,0
68339,-100,4,1,0,40,0,0
70647,-100,4,1,0,50,0,0
70965,-100,4,1,0,60,0,0
71283,-100,4,1,0,70,0,0
71602,-100,4,1,0,80,0,0
73193,-100,4,1,0,100,0,1
83379,-100,4,1,0,100,0,0
93565,-100,4,1,0,100,0,1
96111,-100,4,1,0,100,0,0
97384,-100,4,1,0,100,0,1
107252,-100,4,1,0,100,0,0

[HitObjects]
346,162,1893,5,0,0:0:0:0:
242,205,2212,1,8,0:0:0:0:
190,227,2371,1,8,0:0:0:0:
241,205,2530,1,0,0:0:0:0:
338,149,2848,1,0,0:0:0:0:
399,54,3167,1,0,0:0:0:0:
399,54,3326,1,0,0:0:0:0:
417,106,3485,1,8,0:0:0:0:
436,158,3644,1,8,0:0:0:0:
417,105,3803,1,0,0:0:0:0:
436,157,3962,1,8,0:0:0:0:
385,131,4122,1,0,0:0:0:0:
285,80,4440,1,0,0:0:0:0:
258,188,4758,1,8,0:0:0:0:
244,242,4917,1,8,0:0:0:0:
244,242,5077,1,0,0:0:0:0:
314,154,5395,1,0,0:0:0:0:
422,127,5713,1,8,0:0:0:0:
367,140,5872,1,0,0:0:0:0:
367,140,6031,1,8,0:0:0:0:
367,140,6191,1,8,0:0:0:0:
388,191,6350,1,0,0:0:0:0:
427,230,6509,1,8,0:0:0:0:
427,230,6588,1,8,0:0:0:0:
427,230,6668,1,8,0:0:0:0:
427,230,6827,1,0,0:0:0:0:
427,230,6986,1,12,0:0:0:0:
328,175,7305,1,8,0:0:0:0:
272,182,7464,1,0,0:0:0:0:
161,198,7623,1,8,0:0:0:0:
105,207,7941,1,0,0:0:0:0:
210,169,8260,1,8,0:0:0:0:
262,150,8419,1,0,0:0:0:0:
314,131,8578,1,0,0:0:0:0:
367,114,8737,1,8,0:0:0:0:
321,81,8896,1,8,0:0:0:0:
275,48,9055,1,0,0:0:0:0:
275,48,9214,1,8,0:0:0:0:
275,48,9374,1,0,0:0:0:0:
327,65,9533,1,8,0:0:0:0:
379,83,9692,1,0,0:0:0:0:
431,100,9851,1,8,0:0:0:0:
431,100,10010,1,8,0:0:0:0:
431,100,10169,1,0,0:0:0:0:
431,100,10329,1,0,0:0:0:0:
431,100,10488,1,8,0:0:0:0:
431,100,10647,1,0,0:0:0:0:
431,100,10806,1,12,0:0:0:0:
319,106,11124,1,0,0:0:0:0:
216,59,11443,1,8,0:0:0:0:
215,50,12079,1,12,0:0:0:0:
245,96,12238,1,0,0:0:0:0:
275,142,12397,1,8,0:0:0:0:
305,189,12557,1,8,0:0:0:0:
305,189,12716,1,0,0:0:0:0:
149,192,13193,1,0,0:0:0:0:
149,192,13352,1,8,0:0:0:0:
149,192,13512,1,0,0:0:0:0:
149,192,13671,1,8,0:0:0:0:
149,192,13830,1,8,0:0:0:0:
173,141,13989,1,0,0:0:0:0:
269,84,14626,1,8,0:0:0:0:
269,84,14785,1,0,0:0:0:0:
269,84,14944,1,8,0:0:0:0:
269,84,15103,1,8,0:0:0:0:
269,84,15262,1,0,0:0:0:0:
269,84,15421,1,0,0:0:0:0:
243,94,15501,1,0,0:0:0:0:
217,105,15581,1,0,0:0:0:0:
271,116,15740,1,0,0:0:0:0:
322,138,15899,1,8,0:0:0:0:
227,198,16217,1,0,0:0:0:0:
133,259,16535,1,8,0:0:0:0:
180,228,16695,1,8,0:0:0:0:
180,228,16854,1,0,0:0:0:0:
214,121,17172,1,12,0:0:0:0:
268,108,17331,1,0,0:0:0:0:
322,95,17490,1,8,0:0:0:0:
322,95,17649,1,8,0:0:0:0:
322,95,17809,1,0,0:0:0:0:
196,206,18286,1,0,0:0:0:0:
296,157,18445,1,0,0:0:0:0:
246,181,18604,1,8,0:0:0:0:
347,134,18764,1,8,0:0:0:0:
296,157,18923,1,8,0:0:0:0:
347,134,19082,1,0,0:0:0:0:
127,86,19718,1,0,0:0:0:0:
182,97,19878,1,8,0:0:0:0:
182,97,20037,1,0,0:0:0:0:
237,96,20196,1,8,0:0:0:0:
292,96,20355,1,8,0:0:0:0:
292,96,20514,1,8,0:0:0:0:
295,68,20594,1,8,0:0:0:0:
295,68,20673,1,8,0:0:0:0:
347,167,20992,1,0,0:0:0:0:
391,64,21310,1,0,0:0:0:0:
469,144,21628,1,8,0:0:0:0:
469,144,21787,1,8,0:0:0:0:
425,180,21947,1,0,0:0:0:0:
425,180,22106,1,0,0:0:0:0:
365,168,22265,1,12,0:0:0:0:
309,159,22424,1,0,0:0:0:0:
253,155,22583,1,8,0:0:0:0:
197,152,22742,1,0,0:0:0:0:
141,150,22901,1,0,0:0:0:0:
300,95,23379,1,0,0:0:0:0:
353,77,23538,1,8,0:0:0:0:
353,77,23697,1,0,0:0:0:0:
353,77,23856,1,8,0:0:0:0:
353,77,24016,1,8,0:0:0:0:
353,77,24175,1,0,0:0:0:0:
193,127,24652,1,0,0:0:0:0:
139,142,24811,1,8,0:0:0:0:
85,158,24970,1,0,0:0:0:0:
138,139,25130,1,8,0:0:0:0:
190,120,25289,1,8,0:0:0:0:
242,101,25448,1,0,0:0:0:0:
295,84,25607,1,0,0:0:0:0:
322,76,25687,1,0,0:0:0:0:
348,68,25766,1,0,0:0:0:0:
397,93,25925,1,0,0:0:0:0:
397,93,26084,1,8,0:0:0:0:
335,150,26403,1,0,0:0:0:0:
223,145,26721,1,0,0:0:0:0:
111,142,27039,1,0,0:0:0:0:
221,56,27358,1,8,0:0:0:0:
276,59,27517,1,0,0:0:0:0:
331,63,27676,1,8,0:0:0:0:
386,67,27835,1,8,0:0:0:0:
386,67,27994,1,0,0:0:0:0:
251,168,28472,1,8,0:0:0:0:
251,168,28631,1,0,0:0:0:0:
251,168,28790,1,0,0:0:0:0:
251,168,28949,1,8,0:0:0:0:
251,168,29108,1,8,0:0:0:0:
251,168,29268,1,0,0:0:0:0:
302,92,29904,1,8,0:0:0:0:
356,102,30063,1,0,0:0:0:0:
300,92,30222,1,8,0:0:0:0:
355,102,30382,1,8,0:0:0:0:
299,92,30541,1,0,0:0:0:0:
252,123,30700,1,8,0:0:0:0:
228,138,30779,1,8,0:0:0:0:
205,154,30859,1,8,0:0:0:0:
159,122,31018,1,0,0:0:0:0:
113,90,31177,1,8,0:0:0:0:
138,199,31496,1,0,0:0:0:0:
247,221,31814,1,8,0:0:0:0:
301,232,31973,1,8,0:0:0:0:
355,243,32132,1,0,0:0:0:0:
355,243,32291,1,0,0:0:0:0:
315,202,32451,1,12,0:0:0:0:
276,161,32610,1,0,0:0:0:0:
170,122,32928,1,8,0:0:0:0:
143,112,33008,1,8,0:0:0:0:
143,112,33087,1,8,0:0:0:0:
251,86,33405,1,0,0:0:0:0:
360,61,33724,1,8,0:0:0:0:
304,55,33883,1,8,0:0:0:0:
251,34,34042,1,0,0:0:0:0:
251,34,34201,1,0,0:0:0:0:
280,81,34360,1,8,0:0:0:0:
309,128,34519,1,8,0:0:0:0:
338,175,34679,1,8,0:0:0:0:
367,222,34838,1,8,0:0:0:0:
312,211,34997,1,0,0:0:0:0:
202,190,35315,1,8,0:0:0:0:
146,179,35474,1,0,0:0:0:0:
245,126,35793,1,0,0:0:0:0:
294,100,35952,1,8,0:0:0:0:
343,74,36111,1,8,0:0:0:0:
343,74,36270,1,0,0:0:0:0:
343,74,36429,1,0,0:0:0:0:
193,151,36907,1,8,0:0:0:0:
243,125,37066,1,8,0:0:0:0:
284,162,37225,1,0,0:0:0:0:
242,124,37384,1,8,0:0:0:0:
296,111,37543,1,0,0:0:0:0:
350,98,37703,1,8,0:0:0:0:
432,173,38021,1,8,0:0:0:0:
473,210,38180,1,0,0:0:0:0:
242,124,38339,1,8,0:0:0:0:
242,124,38419,1,8,0:0:0:0:
242,124,38498,1,8,0:0:0:0:
190,223,38817,1,8,0:0:0:0:
164,273,38976,1,8,0:0:0:0:
190,223,39135,1,0,0:0:0:0:
164,273,39294,1,0,0:0:0:0:
200,230,39453,1,8,0:0:0:0:
236,187,39612,1,8,0:0:0:0:
272,144,39771,1,8,0:0:0:0:
308,101,39931,1,8,0:0:0:0:
356,73,40090,1,0,0:0:0:0:
455,21,40408,1,8,0:0:0:0:
405,47,40567,1,0,0:0:0:0:
245,126,40886,1,0,0:0:0:0:
294,100,41045,1,8,0:0:0:0:
343,74,41204,1,8,0:0:0:0:
343,74,41363,1,0,0:0:0:0:
343,74,41522,1,0,0:0:0:0:
231,72,42000,1,0,0:0:0:0:
174,72,42160,1,0,0:0:0:0:
174,72,42319,1,8,0:0:0:0:
315,202,42636,1,12,0:0:0:0:
276,161,42795,1,0,0:0:0:0:
170,122,43113,1,8,0:0:0:0:
143,112,43193,1,8,0:0:0:0:
143,112,43272,1,8,0:0:0:0:
251,86,43590,1,0,0:0:0:0:
360,61,43909,1,8,0:0:0:0:
304,55,44068,1,8,0:0:0:0:
251,34,44227,1,0,0:0:0:0:
251,34,44386,1,0,0:0:0:0:
280,81,44545,1,8,0:0:0:0:
309,128,44704,1,8,0:0:0:0:
338,175,44864,1,8,0:0:0:0:
367,222,45023,1,8,0:0:0:0:
312,211,45182,1,0,0:0:0:0:
202,190,45500,1,8,0:0:0:0:
146,179,45659,1,0,0:0:0:0:
245,126,45978,1,0,0:0:0:0:
294,100,46137,1,8,0:0:0:0:
343,74,46296,1,8,0:0:0:0:
343,74,46455,1,0,0:0:0:0:
343,74,46614,1,0,0:0:0:0:
193,151,47092,1,8,0:0:0:0:
243,125,47251,1,8,0:0:0:0:
284,162,47410,1,0,0:0:0:0:
242,124,47569,1,8,0:0:0:0:
296,111,47728,1,0,0:0:0:0:
350,98,47888,1,8,0:0:0:0:
432,173,48206,1,8,0:0:0:0:
473,210,48365,1,0,0:0:0:0:
242,124,48524,1,8,0:0:0:0:
242,124,48604,1,8,0:0:0:0:
242,124,48683,1,8,0:0:0:0:
190,223,49002,1,8,0:0:0:0:
164,273,49161,1,8,0:0:0:0:
190,223,49320,1,0,0:0:0:0:
164,273,49479,1,0,0:0:0:0:
200,230,49638,1,8,0:0:0:0:
236,187,49797,1,8,0:0:0:0:
272,144,49956,1,8,0:0:0:0:
308,101,50116,1,8,0:0:0:0:
356,73,50275,1,0,0:0:0:0:
455,21,50593,1,8,0:0:0:0:
405,47,50752,1,0,0:0:0:0:
245,126,51071,1,0,0:0:0:0:
294,100,51230,1,8,0:0:0:0:
343,74,51389,1,8,0:0:0:0:
343,74,51548,1,0,0:0:0:0:
343,74,51707,1,0,0:0:0:0:
231,72,52185,1,0,0:0:0:0:
174,72,52345,1,0,0:0:0:0:
174,72,52504,1,8,0:0:0:0:
102,157,52822,1,12,0:0:0:0:
213,143,53140,1,0,0:0:0:0:
268,136,53299,1,0,0:0:0:0:
323,129,53458,1,8,0:0:0:0:
323,129,53618,1,8,0:0:0:0:
369,97,53777,1,0,0:0:0:0:
416,67,53936,1,0,0:0:0:0:
360,57,54095,1,0,0:0:0:0:
332,52,54175,1,0,0:0:0:0:
304,47,54254,1,0,0:0:0:0:
216,118,54413,1,8,0:0:0:0:
271,111,54573,1,0,0:0:0:0:
326,105,54732,1,8,0:0:0:0:
215,120,55050,1,8,0:0:0:0:
291,38,55368,1,0,0:0:0:0:
293,93,55527,1,0,0:0:0:0:
295,149,55687,1,8,0:0:0:0:
292,204,55846,1,8,0:0:0:0:
292,204,56005,1,0,0:0:0:0:
292,204,56164,1,0,0:0:0:0:
243,175,56323,1,8,0:0:0:0:
308,83,56642,1,0,0:0:0:0:
308,83,56960,1,8,0:0:0:0:
384,164,57278,1,8,0:0:0:0:
384,164,57437,1,8,0:0:0:0:
328,173,57596,1,0,0:0:0:0:
272,183,57756,1,0,0:0:0:0:
231,144,57915,1,0,0:0:0:0:
213,143,58233,1,0,0:0:0:0:
268,136,58392,1,0,0:0:0:0:
323,129,58551,1,8,0:0:0:0:
323,129,58711,1,8,0:0:0:0:
369,97,58870,1,0,0:0:0:0:
416,67,59029,1,0,0:0:0:0:
360,57,59188,1,0,0:0:0:0:
332,52,59268,1,0,0:0:0:0:
304,47,59347,1,0,0:0:0:0:
216,118,59506,1,8,0:0:0:0:
271,111,59666,1,0,0:0:0:0:
326,105,59825,1,0,0:0:0:0:
381,110,59984,1,8,0:0:0:0:
215,120,60143,1,0,0:0:0:0:
291,38,60461,1,0,0:0:0:0:
293,93,60620,1,0,0:0:0:0:
295,149,60780,1,8,0:0:0:0:
292,204,60939,1,8,0:0:0:0:
292,204,61098,1,0,0:0:0:0:
292,204,61257,1,0,0:0:0:0:
243,175,61416,1,8,0:0:0:0:
308,83,61735,1,0,0:0:0:0:
308,83,62053,1,8,0:0:0:0:
384,164,62371,1,8,0:0:0:0:
384,164,62530,1,8,0:0:0:0:
328,173,62689,1,0,0:0:0:0:
272,183,62849,1,0,0:0:0:0:
239,137,63008,1,4,0:0:0:0:
285,80,65554,1,0,0:0:0:0:
258,188,65872,1,8,0:0:0:0:
244,242,66031,1,8,0:0:0:0:
244,242,66191,1,0,0:0:0:0:
314,154,66509,1,0,0:0:0:0:
422,127,66827,1,8,0:0:0:0:
367,140,66986,1,0,0:0:0:0:
367,140,67145,1,8,0:0:0:0:
367,140,67305,1,8,0:0:0:0:
388,191,67464,1,0,0:0:0:0:
427,230,67623,1,8,0:0:0:0:
427,230,67702,1,8,0:0:0:0:
427,230,67782,1,8,0:0:0:0:
427,230,67941,1,0,0:0:0:0:
427,230,68100,1,4,0:0:0:0:
328,175,68419,1,8,0:0:0:0:
272,182,68578,1,0,0:0:0:0:
161,198,68737,1,8,0:0:0:0:
105,207,69055,1,0,0:0:0:0:
210,169,69374,1,8,0:0:0:0:
262,150,69533,1,0,0:0:0:0:
314,131,69692,1,0,0:0:0:0:
367,114,69851,1,8,0:0:0:0:
321,81,70010,1,8,0:0:0:0:
275,48,70169,1,0,0:0:0:0:
275,48,70328,1,8,0:0:0:0:
275,48,70488,1,0,0:0:0:0:
327,65,70647,1,8,0:0:0:0:
379,83,70806,1,0,0:0:0:0:
431,100,70965,1,8,0:0:0:0:
431,100,71124,1,8,0:0:0:0:
431,100,71283,1,0,0:0:0:0:
431,100,71443,1,0,0:0:0:0:
431,100,71602,1,8,0:0:0:0:
431,100,71761,1,0,0:0:0:0:
431,100,71920,1,12,0:0:0:0:
319,106,72238,1,0,0:0:0:0:
216,59,72557,1,8,0:0:0:0:
215,50,73193,1,12,0:0:0:0:
245,96,73352,1,0,0:0:0:0:
275,142,73511,1,8,0:0:0:0:
305,189,73671,1,8,0:0:0:0:
305,189,73830,1,0,0:0:0:0:
149,192,74307,1,0,0:0:0:0:
149,192,74466,1,8,0:0:0:0:
149,192,74626,1,0,0:0:0:0:
149,192,74785,1,8,0:0:0:0:
149,192,74944,1,8,0:0:0:0:
173,141,75103,1,0,0:0:0:0:
269,84,75740,1,8,0:0:0:0:
269,84,75899,1,0,0:0:0:0:
269,84,76058,1,8,0:0:0:0:
269,84,76217,1,8,0:0:0:0:
269,84,76376,1,0,0:0:0:0:
269,84,76535,1,0,0:0:0:0:
243,94,76615,1,0,0:0:0:0:
217,105,76695,1,0,0:0:0:0:
271,116,76854,1,0,0:0:0:0:
322,138,77013,1,8,0:0:0:0:
133,259,77649,1,8,0:0:0:0:
180,228,77809,1,8,0:0:0:0:
180,228,77968,1,0,0:0:0:0:
214,121,78286,1,12,0:0:0:0:
268,108,78445,1,0,0:0:0:0:
322,95,78604,1,8,0:0:0:0:
322,95,78763,1,8,0:0:0:0:
322,95,78923,1,0,0:0:0:0:
196,206,79400,1,0,0:0:0:0:
296,157,79559,1,0,0:0:0:0:
246,181,79718,1,8,0:0:0:0:
347,134,79878,1,8,0:0:0:0:
296,157,80037,1,8,0:0:0:0:
347,134,80196,1,0,0:0:0:0:
237,110,80514,1,0,0:0:0:0:
127,86,80832,1,0,0:0:0:0:
182,97,80992,1,8,0:0:0:0:
182,97,81151,1,0,0:0:0:0:
237,96,81310,1,8,0:0:0:0:
292,96,81469,1,8,0:0:0:0:
292,96,81628,1,8,0:0:0:0:
295,68,81708,1,8,0:0:0:0:
295,68,81787,1,8,0:0:0:0:
347,167,82106,1,0,0:0:0:0:
391,64,82424,1,0,0:0:0:0:
469,144,82742,1,8,0:0:0:0:
469,144,82901,1,8,0:0:0:0:
425,180,83061,1,0,0:0:0:0:
425,180,83220,1,0,0:0:0:0:
365,168,83379,1,12,0:0:0:0:
309,159,83538,1,0,0:0:0:0:
253,155,83697,1,8,0:0:0:0:
197,152,83856,1,0,0:0:0:0:
141,150,84015,1,0,0:0:0:0:
300,95,84493,1,0,0:0:0:0:
353,77,84652,1,8,0:0:0:0:
353,77,84811,1,0,0:0:0:0:
353,77,84970,1,8,0:0:0:0:
353,77,85130,1,8,0:0:0:0:
353,77,85289,1,0,0:0:0:0:
193,127,85766,1,0,0:0:0:0:
139,142,85925,1,8,0:0:0:0:
85,158,86084,1,0,0:0:0:0:
138,139,86244,1,8,0:0:0:0:
190,120,86403,1,8,0:0:0:0:
242,101,86562,1,0,0:0:0:0:
295,84,86721,1,0,0:0:0:0:
322,76,86801,1,0,0:0:0:0:
348,68,86880,1,0,0:0:0:0:
397,93,87039,1,0,0:0:0:0:
397,93,87198,1,8,0:0:0:0:
335,150,87517,1,0,0:0:0:0:
223,145,87835,1,0,0:0:0:0:
111,142,88153,1,0,0:0:0:0:
221,56,88472,1,8,0:0:0:0:
276,59,88631,1,0,0:0:0:0:
331,63,88790,1,8,0:0:0:0:
386,67,88949,1,8,0:0:0:0:
386,67,89108,1,0,0:0:0:0:
251,168,89586,1,0,0:0:0:0:
251,168,89745,1,8,0:0:0:0:
251,168,89904,1,0,0:0:0:0:
251,168,90063,1,8,0:0:0:0:
251,168,90222,1,8,0:0:0:0:
251,168,90382,1,0,0:0:0:0:
192,72,90700,1,0,0:0:0:0:
302,92,91018,1,8,0:0:0:0:
356,102,91177,1,0,0:0:0:0:
300,92,91336,1,8,0:0:0:0:
355,102,91496,1,8,0:0:0:0:
299,92,91655,1,0,0:0:0:0:
252,123,91814,1,8,0:0:0:0:
228,138,91893,1,8,0:0:0:0:
205,154,91973,1,8,0:0:0:0:
159,122,92132,1,0,0:0:0:0:
113,90,92291,1,8,0:0:0:0:
138,199,92610,1,0,0:0:0:0:
247,221,92928,1,0,0:0:0:0:
301,232,93087,1,0,0:0:0:0:
355,243,93246,1,8,0:0:0:0:
341,188,93565,1,6,0:0:0:0:
320,106,93883,1,6,0:0:0:0:
222,160,94201,1,0,0:0:0:0:
173,187,94360,1,0,0:0:0:0:
173,187,94519,1,8,0:0:0:0:
173,74,94838,1,0,0:0:0:0:
282,96,95156,1,0,0:0:0:0:
282,96,95315,1,0,0:0:0:0:
282,96,95474,1,8,0:0:0:0:
282,96,95634,1,0,0:0:0:0:
115,74,96111,1,4,0:0:0:0:
109,255,96907,1,0,0:0:0:0:
315,202,97384,1,12,0:0:0:0:
276,161,97543,1,0,0:0:0:0:
170,122,97861,1,8,0:0:0:0:
143,112,97941,1,8,0:0:0:0:
143,112,98020,1,8,0:0:0:0:
251,86,98338,1,0,0:0:0:0:
360,61,98657,1,8,0:0:0:0:
304,55,98816,1,8,0:0:0:0:
251,34,98975,1,0,0:0:0:0:
251,34,99134,1,0,0:0:0:0:
280,81,99293,1,8,0:0:0:0:
309,128,99452,1,8,0:0:0:0:
338,175,99612,1,8,0:0:0:0:
367,222,99771,1,8,0:0:0:0:
312,211,99930,1,0,0:0:0:0:
202,190,100248,1,8,0:0:0:0:
146,179,100407,1,0,0:0:0:0:
245,126,100726,1,0,0:0:0:0:
294,100,100885,1,8,0:0:0:0:
343,74,101044,1,8,0:0:0:0:
343,74,101203,1,0,0:0:0:0:
343,74,101362,1,0,0:0:0:0:
193,151,101840,1,8,0:0:0:0:
243,125,101999,1,8,0:0:0:0:
284,162,102158,1,0,0:0:0:0:
242,124,102317,1,8,0:0:0:0:
296,111,102476,1,0,0:0:0:0:
350,98,102636,1,8,0:0:0:0:
432,173,102954,1,8,0:0:0:0:
473,210,103113,1,0,0:0:0:0:
242,124,103272,1,8,0:0:0:0:
242,124,103352,1,8,0:0:0:0:
242,124,103431,1,8,0:0:0:0:
190,223,103750,1,8,0:0:0:0:
164,273,103909,1,8,0:0:0:0:
190,223,104068,1,0,0:0:0:0:
164,273,104227,1,0,0:0:0:0:
200,230,104386,1,8,0:0:0:0:
236,187,104545,1,8,0:0:0:0:
272,144,104704,1,8,0:0:0:0:
308,101,104864,1,8,0:0:0:0:
356,73,105023,1,0,0:0:0:0:
455,21,105341,1,8,0:0:0:0:
405,47,105500,1,0,0:0:0:0:
245,126,105819,1,0,0:0:0:0:
294,100,105978,1,8,0:0:0:0:
343,74,106137,1,8,0:0:0:0:
343,74,106296,1,0,0:0:0:0:
343,74,106455,1,0,0:0:0:0:
231,72,106933,1,0,0:0:0:0:
174,72,107093,1,0,0:0:0:0:
174,72,107252,1,8,0:0:0:0:
315,202,107569,1,12,0:0:0:0:
276,161,107728,1,0,0:0:0:0:
170,122,108046,1,8,0:0:0:0:
143,112,108126,1,8,0:0:0:0:
143,112,108205,1,8,0:0:0:0:
251,86,108525,1,0,0:0:0:0:
360,61,108842,1,8,0:0:0:0:
304,55,109001,1,8,0:0:0:0:
251,34,109160,1,0,0:0:0:0:
251,34,109321,1,0,0:0:0:0:
280,81,109480,1,8,0:0:0:0:
309,128,109639,1,8,0:0:0:0:
338,175,109797,1,8,0:0:0:0:
367,222,109956,1,8,0:0:0:0:
312,211,110115,1,0,0:0:0:0:
202,190,110435,1,8,0:0:0:0:
146,179,110594,1,0,0:0:0:0:
245,126,110911,1,0,0:0:0:0:
294,100,111070,1,8,0:0:0:0:
343,74,111229,1,8,0:0:0:0:
343,74,111390,1,0,0:0:0:0:
343,74,111549,1,0,0:0:0:0:
193,151,112025,1,8,0:0:0:0:
243,125,112184,1,8,0:0:0:0:
284,162,112343,1,0,0:0:0:0:
242,124,112504,1,8,0:0:0:0:
296,111,112663,1,0,0:0:0:0:
350,98,112821,1,8,0:0:0:0:
432,173,113139,1,8,0:0:0:0:
473,210,113298,1,0,0:0:0:0:
242,124,113457,1,8,0:0:0:0:
242,124,113537,1,8,0:0:0:0:
242,124,113618,1,8,0:0:0:0:
190,223,113935,1,8,0:0:0:0:
164,273,114094,1,8,0:0:0:0:
190,223,114253,1,0,0:0:0:0:
164,273,114412,1,0,0:0:0:0:
200,230,114573,1,8,0:0:0:0:
236,187,114732,1,8,0:0:0:0:
272,144,114891,1,8,0:0:0:0:
308,101,115049,1,8,0:0:0:0:
356,73,115208,1,0,0:0:0:0:
455,21,115526,1,8,0:0:0:0:
405,47,115687,1,0,0:0:0:0:
245,126,116005,1,0,0:0:0:0:
294,100,116163,1,8,0:0:0:0:
343,74,116322,1,8,0:0:0:0:
343,74,116481,1,0,0:0:0:0:
343,74,116642,1,0,0:0:0:0:
231,72,117118,1,0,0:0:0:0:
174,72,117278,1,0,0:0:0:0:
174,72,117437,1,8,0:0:0:0:
102,157,117755,1,12,0:0:0:0:
