osu file format v14

[General]
AudioFilename: audio.mp3
AudioLeadIn: 0
PreviewTime: 32291
Countdown: 0
SampleSet: Normal
StackLeniency: 0.7
Mode: 1
LetterboxInBreaks: 0
WidescreenStoryboard: 0

[Editor]
Bookmarks: 27039,60779
DistanceSpacing: 0.8
BeatDivisor: 4
GridSize: 16
TimelineZoom: 1.6

[Metadata]
Title:Bwa !
TitleUnicode:Bwa !
Artist:Thaehan
ArtistUnicode:Thaehan
Creator:Jorkseljund
Version:Inner Oni
Source:osu!
Tags:
BeatmapID:1813864
BeatmapSetID:807458

[Difficulty]
HPDrainRate:5
CircleSize:4
OverallDifficulty:7
ApproachRate:5
SliderMultiplier:1.2
SliderTickRate:1

[Events]
//Background and Video events
0,0,"citywallpaperhd.com-21.jpg",0,0
//Break Periods
//Storyboard Layer 0 (Background)
//Storyboard Layer 1 (Fail)
//Storyboard Layer 2 (Pass)
//Storyboard Layer 3 (Foreground)
//Storyboard Sound Samples

[TimingPoints]
1894,318.302387267905,4,1,0,40,1,0
4360,-100,4,1,0,60,0,0
6907,-100,4,1,0,80,0,0
9533,-95.2380952380952,4,1,0,80,0,0
9612,-90.9090909090909,4,1,0,80,0,0
9692,-86.9565217391304,4,1,0,80,0,0
9771,-83.3333333333333,4,1,0,80,0,0
9851,-80,4,1,0,80,0,0
9931,-76.9230769230769,4,1,0,80,0,0
10010,-74.0740740740741,4,1,0,80,0,0
10090,-71.4285714285714,4,1,0,80,0,0
10169,-68.9655172413793,4,1,0,80,0,0
10249,-66.6666666666667,4,1,0,80,0,0
10329,-64.5161290322581,4,1,0,80,0,0
10408,-62.5,4,1,0,80,0,0
10488,-60.6060606060606,4,1,0,80,0,0
10567,-58.8235294117647,4,1,0,80,0,0
10647,-57.1428571428571,4,1,0,80,0,0
10726,-55.5555555555556,4,1,0,80,0,0
10806,-54.054054054054,4,1,0,80,0,0
11443,-55.5555555555556,4,1,0,80,0,0
11522,-57.1428571428571,4,1,0,80,0,0
11602,-58.8235294117647,4,1,0,80,0,0
11681,-60.6060606060606,4,1,0,80,0,0
11761,-62.5,4,1,0,80,0,0
11840,-64.5161290322581,4,1,0,80,0,0
11920,-66.6666666666667,4,1,0,80,0,0
12000,-68.9655172413793,4,1,0,80,0,0
12079,-71.4285714285714,4,1,0,100,0,1
12238,-76.9230769230769,4,1,0,100,0,1
22265,-76.9230769230769,4,1,0,100,0,0
63087,-100,4,1,0,20,0,0
68339,-100,4,1,0,40,0,0
70647,-95.2380952380952,4,1,0,40,0,0
70726,-90.9090909090909,4,1,0,40,0,0
70806,-86.9565217391304,4,1,0,40,0,0
70886,-83.3333333333333,4,1,0,40,0,0
70965,-80,4,1,0,40,0,0
71045,-76.9230769230769,4,1,0,40,0,0
71124,-74.0740740740741,4,1,0,40,0,0
71204,-71.4285714285714,4,1,0,40,0,0
71283,-68.9655172413793,4,1,0,40,0,0
71363,-66.6666666666667,4,1,0,40,0,0
71443,-64.5161290322581,4,1,0,40,0,0
71522,-62.5,4,1,0,40,0,0
71602,-60.6060606060606,4,1,0,40,0,0
71681,-58.8235294117647,4,1,0,40,0,0
71761,-57.1428571428571,4,1,0,40,0,0
71840,-55.5555555555556,4,1,0,40,0,0
71920,-54.054054054054,4,1,0,40,0,0
72557,-55.5555555555556,4,1,0,40,0,0
72636,-57.1428571428571,4,1,0,40,0,0
72716,-58.8235294117647,4,1,0,40,0,0
72795,-60.6060606060606,4,1,0,40,0,0
72875,-62.5,4,1,0,40,0,0
72955,-64.5161290322581,4,1,0,40,0,0
73034,-66.6666666666667,4,1,0,40,0,0
73114,-68.9655172413793,4,1,0,40,0,0
73193,-71.4285714285714,4,1,0,100,0,1
73352,-76.9230769230769,4,1,0,100,0,1
83379,-76.9230769230769,4,1,0,100,0,0
93565,-76.9230769230769,4,1,0,100,0,1
96111,-76.9230769230769,4,1,0,100,0,0
97384,-76.9230769230769,4,1,0,100,0,1
107570,-76.9230769230769,4,1,0,100,0,0

[HitObjects]
174,157,1893,5,4,0:0:0:0:
277,148,2212,1,8,0:0:0:0:
328,144,2371,1,8,0:0:0:0:
328,144,2530,1,0,0:0:0:0:
184,204,2849,1,0,0:0:0:0:
115,125,3167,1,8,0:0:0:0:
81,85,3326,1,0,0:0:0:0:
129,89,3485,1,0,0:0:0:0:
179,93,3644,1,8,0:0:0:0:
217,127,3803,1,8,0:0:0:0:
186,169,3962,1,0,0:0:0:0:
155,211,4122,1,8,0:0:0:0:
125,254,4281,1,0,0:0:0:0:
125,254,4440,1,8,0:0:0:0:
198,180,4758,1,8,0:0:0:0:
235,143,4917,1,0,0:0:0:0:
273,107,5077,1,8,0:0:0:0:
204,185,5395,1,0,0:0:0:0:
167,87,5713,1,8,0:0:0:0:
167,87,5872,1,0,0:0:0:0:
167,87,6031,1,0,0:0:0:0:
167,87,6191,1,8,0:0:0:0:
167,87,6350,1,8,0:0:0:0:
196,129,6509,1,8,0:0:0:0:
226,171,6588,1,8,0:0:0:0:
226,171,6668,1,0,0:0:0:0:
237,149,6748,1,0,0:0:0:0:
238,125,6827,1,8,0:0:0:0:
226,171,6986,1,12,0:0:0:0:
126,103,7305,1,8,0:0:0:0:
148,94,7384,1,8,0:0:0:0:
126,103,7464,1,0,0:0:0:0:
148,94,7543,1,0,0:0:0:0:
126,103,7623,1,8,0:0:0:0:
221,93,7941,1,0,0:0:0:0:
209,188,8260,1,8,0:0:0:0:
204,235,8419,1,0,0:0:0:0:
199,282,8578,1,0,0:0:0:0:
199,282,8737,1,8,0:0:0:0:
199,282,8896,1,8,0:0:0:0:
199,282,9055,1,0,0:0:0:0:
199,282,9214,1,8,0:0:0:0:
199,282,9374,1,0,0:0:0:0:
100,109,9533,1,8,0:0:0:0:
123,103,9612,1,8,0:0:0:0:
146,97,9692,1,0,0:0:0:0:
169,92,9771,1,0,0:0:0:0:
192,87,9851,1,8,0:0:0:0:
215,82,9931,1,8,0:0:0:0:
238,77,10010,1,0,0:0:0:0:
261,72,10090,1,0,0:0:0:0:
284,67,10169,1,8,0:0:0:0:
284,67,10249,1,8,0:0:0:0:
284,67,10329,1,0,0:0:0:0:
284,67,10408,1,0,0:0:0:0:
284,67,10488,1,8,0:0:0:0:
284,67,10567,1,0,0:0:0:0:
284,67,10647,1,8,0:0:0:0:
284,67,10726,1,8,0:0:0:0:
296,77,10806,1,0,0:0:0:0:
204,119,11045,1,0,0:0:0:0:
124,172,11124,1,8,0:0:0:0:
220,175,11443,1,8,0:0:0:0:
243,175,11522,1,8,0:0:0:0:
267,175,11602,1,0,0:0:0:0:
259,152,11681,1,0,0:0:0:0:
252,128,11761,1,8,0:0:0:0:
245,105,11840,1,8,0:0:0:0:
238,81,11920,1,0,0:0:0:0:
272,91,12000,1,0,0:0:0:0:
207,88,12079,1,12,0:0:0:0:
160,45,12238,1,0,0:0:0:0:
160,45,12318,1,0,0:0:0:0:
160,45,12398,1,8,0:0:0:0:
160,45,12477,1,8,0:0:0:0:
160,45,12557,1,0,0:0:0:0:
160,45,12636,1,0,0:0:0:0:
160,45,12716,1,8,0:0:0:0:
198,163,13034,1,0,0:0:0:0:
221,142,13114,1,0,0:0:0:0:
259,152,13193,1,0,0:0:0:0:
256,120,13273,1,0,0:0:0:0:
254,89,13352,1,8,0:0:0:0:
316,95,13512,1,0,0:0:0:0:
346,98,13591,1,0,0:0:0:0:
377,102,13671,1,8,0:0:0:0:
394,161,13830,1,0,0:0:0:0:
411,220,13989,1,8,0:0:0:0:
287,199,14307,1,0,0:0:0:0:
256,193,14387,1,0,0:0:0:0:
225,188,14466,1,0,0:0:0:0:
166,166,14626,1,8,0:0:0:0:
220,134,14785,1,8,0:0:0:0:
247,118,14864,1,0,0:0:0:0:
274,103,14944,1,8,0:0:0:0:
325,137,15103,1,0,0:0:0:0:
376,171,15262,1,8,0:0:0:0:
394,111,15421,1,8,0:0:0:0:
403,81,15501,1,0,0:0:0:0:
413,51,15581,1,8,0:0:0:0:
413,51,15660,1,0,0:0:0:0:
413,51,15740,1,0,0:0:0:0:
413,51,15819,1,0,0:0:0:0:
413,51,15899,1,8,0:0:0:0:
297,98,16217,1,0,0:0:0:0:
181,145,16535,1,8,0:0:0:0:
195,172,16615,1,0,0:0:0:0:
209,199,16695,1,8,0:0:0:0:
66,194,16854,1,0,0:0:0:0:
128,193,17013,1,0,0:0:0:0:
172,149,17172,1,8,0:0:0:0:
231,129,17331,1,0,0:0:0:0:
260,119,17411,1,0,0:0:0:0:
289,110,17490,1,8,0:0:0:0:
289,110,17570,1,8,0:0:0:0:
289,110,17649,1,0,0:0:0:0:
235,77,17809,1,8,0:0:0:0:
301,182,18127,1,0,0:0:0:0:
334,234,18286,1,0,0:0:0:0:
304,224,18366,1,0,0:0:0:0:
274,214,18445,1,8,0:0:0:0:
222,179,18604,1,8,0:0:0:0:
195,161,18684,1,8,0:0:0:0:
168,143,18764,1,0,0:0:0:0:
142,126,18843,1,0,0:0:0:0:
115,108,18923,1,8,0:0:0:0:
176,114,19082,1,8,0:0:0:0:
122,226,19400,1,0,0:0:0:0:
182,210,19559,1,0,0:0:0:0:
171,180,19639,1,0,0:0:0:0:
242,194,19718,1,8,0:0:0:0:
276,141,19878,1,8,0:0:0:0:
293,115,19957,1,8,0:0:0:0:
310,89,20037,1,0,0:0:0:0:
344,141,20196,1,0,0:0:0:0:
379,192,20355,1,8,0:0:0:0:
318,178,20514,1,8,0:0:0:0:
287,171,20594,1,0,0:0:0:0:
256,164,20673,1,8,0:0:0:0:
225,157,20753,1,0,0:0:0:0:
194,150,20832,1,0,0:0:0:0:
132,137,20992,1,8,0:0:0:0:
246,88,21310,1,0,0:0:0:0:
234,212,21628,1,8,0:0:0:0:
234,212,21708,1,0,0:0:0:0:
234,212,21787,1,8,0:0:0:0:
260,195,21867,1,8,0:0:0:0:
286,178,21947,1,0,0:0:0:0:
312,162,22026,1,0,0:0:0:0:
339,147,22106,1,8,0:0:0:0:
339,147,22185,1,0,0:0:0:0:
318,142,22265,1,12,0:0:0:0:
243,96,22424,1,0,0:0:0:0:
273,41,22583,1,8,0:0:0:0:
286,20,22742,1,8,0:0:0:0:
286,20,22901,1,0,0:0:0:0:
183,92,23220,1,0,0:0:0:0:
157,110,23299,1,0,0:0:0:0:
131,128,23379,1,0,0:0:0:0:
131,128,23538,1,8,0:0:0:0:
193,130,23697,1,0,0:0:0:0:
255,132,23856,1,8,0:0:0:0:
286,134,23936,1,0,0:0:0:0:
286,134,24016,1,8,0:0:0:0:
230,105,24175,1,8,0:0:0:0:
326,149,24493,1,0,0:0:0:0:
392,50,24652,1,8,0:0:0:0:
392,50,24732,1,8,0:0:0:0:
392,50,24811,1,0,0:0:0:0:
128,188,24970,1,0,0:0:0:0:
128,188,25130,1,8,0:0:0:0:
156,200,25209,1,8,0:0:0:0:
128,188,25289,1,0,0:0:0:0:
156,200,25368,1,0,0:0:0:0:
251,92,25448,1,8,0:0:0:0:
355,54,25607,1,8,0:0:0:0:
355,54,25687,1,8,0:0:0:0:
355,54,25766,1,8,0:0:0:0:
323,52,25846,1,0,0:0:0:0:
376,157,25925,1,0,0:0:0:0:
376,157,26084,1,8,0:0:0:0:
288,140,26403,1,0,0:0:0:0:
288,140,26721,1,0,0:0:0:0:
257,37,26801,1,0,0:0:0:0:
288,140,26880,1,0,0:0:0:0:
188,80,27039,1,0,0:0:0:0:
188,80,27199,1,0,0:0:0:0:
355,67,27358,1,8,0:0:0:0:
323,89,27517,1,0,0:0:0:0:
292,83,27596,1,0,0:0:0:0:
323,89,27676,1,8,0:0:0:0:
292,80,27756,1,8,0:0:0:0:
323,89,27835,1,0,0:0:0:0:
320,198,27994,1,8,0:0:0:0:
165,172,28313,1,0,0:0:0:0:
151,144,28392,1,0,0:0:0:0:
264,152,28472,1,0,0:0:0:0:
264,152,28551,1,0,0:0:0:0:
264,152,28631,1,8,0:0:0:0:
180,124,28790,1,0,0:0:0:0:
152,108,28870,1,0,0:0:0:0:
413,83,28949,1,8,0:0:0:0:
373,81,29029,1,8,0:0:0:0:
346,117,29108,1,0,0:0:0:0:
346,117,29268,1,8,0:0:0:0:
268,59,29586,1,0,0:0:0:0:
350,31,29745,1,8,0:0:0:0:
350,31,29825,1,8,0:0:0:0:
350,31,29904,1,0,0:0:0:0:
241,194,30063,1,0,0:0:0:0:
372,133,30222,1,0,0:0:0:0:
343,146,30302,1,0,0:0:0:0:
301,113,30382,1,8,0:0:0:0:
301,113,30541,1,8,0:0:0:0:
156,71,30700,1,8,0:0:0:0:
135,103,30779,1,8,0:0:0:0:
156,71,30859,1,8,0:0:0:0:
141,98,30939,1,0,0:0:0:0:
237,50,31018,1,0,0:0:0:0:
328,46,31177,1,8,0:0:0:0:
328,46,31496,1,0,0:0:0:0:
217,191,31814,1,8,0:0:0:0:
217,191,31894,1,0,0:0:0:0:
217,191,31973,1,8,0:0:0:0:
243,174,32053,1,8,0:0:0:0:
269,157,32132,1,0,0:0:0:0:
295,141,32212,1,0,0:0:0:0:
322,126,32292,1,8,0:0:0:0:
322,126,32371,1,0,0:0:0:0:
301,121,32451,1,12,0:0:0:0:
238,122,32610,1,0,0:0:0:0:
150,32,32928,1,0,0:0:0:0:
150,32,33008,1,0,0:0:0:0:
150,32,33087,1,8,0:0:0:0:
211,43,33246,1,8,0:0:0:0:
272,54,33405,1,0,0:0:0:0:
272,54,33565,1,0,0:0:0:0:
288,114,33724,1,8,0:0:0:0:
295,143,33803,1,0,0:0:0:0:
295,143,33883,1,8,0:0:0:0:
261,195,34042,1,8,0:0:0:0:
244,221,34122,1,8,0:0:0:0:
244,221,34201,1,0,0:0:0:0:
89,152,34360,1,8,0:0:0:0:
89,152,34413,1,8,0:0:0:0:
151,137,34519,1,8,0:0:0:0:
182,130,34573,1,8,0:0:0:0:
182,130,34679,1,8,0:0:0:0:
182,130,34732,1,8,0:0:0:0:
182,130,34838,1,8,0:0:0:0:
182,130,34891,1,8,0:0:0:0:
221,116,34997,1,0,0:0:0:0:
279,96,35156,1,0,0:0:0:0:
309,87,35236,1,0,0:0:0:0:
309,87,35315,1,8,0:0:0:0:
246,81,35474,1,8,0:0:0:0:
255,205,35793,1,8,0:0:0:0:
257,235,35872,1,8,0:0:0:0:
257,235,35952,1,0,0:0:0:0:
257,235,36031,1,0,0:0:0:0:
257,235,36111,1,8,0:0:0:0:
223,182,36270,1,8,0:0:0:0:
189,129,36429,1,0,0:0:0:0:
242,96,36588,1,8,0:0:0:0:
295,63,36748,1,8,0:0:0:0:
232,67,36907,1,8,0:0:0:0:
201,69,36986,1,0,0:0:0:0:
169,71,37066,1,8,0:0:0:0:
192,91,37145,1,8,0:0:0:0:
215,111,37225,1,0,0:0:0:0:
238,131,37305,1,0,0:0:0:0:
261,151,37384,1,8,0:0:0:0:
284,171,37464,1,0,0:0:0:0:
255,159,37543,1,8,0:0:0:0:
199,187,37703,1,0,0:0:0:0:
103,106,38021,1,8,0:0:0:0:
103,106,38100,1,8,0:0:0:0:
103,106,38180,1,0,0:0:0:0:
165,108,38339,1,0,0:0:0:0:
196,109,38419,1,8,0:0:0:0:
226,110,38498,1,8,0:0:0:0:
282,84,38657,1,0,0:0:0:0:
339,58,38817,1,8,0:0:0:0:
339,58,38896,1,8,0:0:0:0:
339,58,38976,1,0,0:0:0:0:
339,58,39135,1,8,0:0:0:0:
339,58,39214,1,0,0:0:0:0:
339,58,39294,1,8,0:0:0:0:
89,152,39453,1,8,0:0:0:0:
89,152,39506,1,8,0:0:0:0:
151,137,39612,1,8,0:0:0:0:
182,130,39665,1,8,0:0:0:0:
182,130,39772,1,8,0:0:0:0:
182,130,39825,1,8,0:0:0:0:
182,130,39931,1,8,0:0:0:0:
182,130,39984,1,8,0:0:0:0:
221,116,40090,1,0,0:0:0:0:
279,96,40249,1,0,0:0:0:0:
309,87,40329,1,0,0:0:0:0:
309,87,40408,1,8,0:0:0:0:
246,81,40567,1,8,0:0:0:0:
255,205,40886,1,8,0:0:0:0:
257,235,40965,1,8,0:0:0:0:
257,235,41045,1,0,0:0:0:0:
257,235,41124,1,0,0:0:0:0:
257,235,41204,1,8,0:0:0:0:
223,182,41363,1,8,0:0:0:0:
189,129,41522,1,8,0:0:0:0:
130,149,41681,1,0,0:0:0:0:
295,63,41841,1,8,0:0:0:0:
232,67,42000,1,0,0:0:0:0:
201,69,42079,1,0,0:0:0:0:
169,71,42159,1,8,0:0:0:0:
192,91,42238,1,0,0:0:0:0:
215,111,42318,1,8,0:0:0:0:
261,151,42477,1,0,0:0:0:0:
284,171,42557,1,0,0:0:0:0:
301,121,42636,1,12,0:0:0:0:
238,122,42795,1,0,0:0:0:0:
150,32,43113,1,0,0:0:0:0:
150,32,43193,1,0,0:0:0:0:
150,32,43272,1,8,0:0:0:0:
211,43,43431,1,8,0:0:0:0:
272,54,43590,1,0,0:0:0:0:
272,54,43750,1,0,0:0:0:0:
288,114,43909,1,8,0:0:0:0:
295,143,43988,1,0,0:0:0:0:
295,143,44068,1,8,0:0:0:0:
261,195,44227,1,8,0:0:0:0:
244,221,44307,1,8,0:0:0:0:
244,221,44386,1,0,0:0:0:0:
89,152,44546,1,8,0:0:0:0:
89,152,44599,1,8,0:0:0:0:
151,137,44704,1,8,0:0:0:0:
182,130,44758,1,8,0:0:0:0:
182,130,44864,1,8,0:0:0:0:
182,130,44917,1,8,0:0:0:0:
182,130,45023,1,8,0:0:0:0:
182,130,45077,1,8,0:0:0:0:
221,116,45182,1,0,0:0:0:0:
279,96,45341,1,0,0:0:0:0:
309,87,45421,1,0,0:0:0:0:
309,87,45500,1,8,0:0:0:0:
246,81,45659,1,8,0:0:0:0:
255,205,45978,1,8,0:0:0:0:
257,235,46057,1,8,0:0:0:0:
257,235,46137,1,0,0:0:0:0:
257,235,46216,1,0,0:0:0:0:
257,235,46296,1,8,0:0:0:0:
223,182,46455,1,8,0:0:0:0:
189,129,46614,1,0,0:0:0:0:
242,96,46773,1,8,0:0:0:0:
295,63,46933,1,8,0:0:0:0:
232,67,47092,1,8,0:0:0:0:
201,69,47171,1,0,0:0:0:0:
169,71,47251,1,8,0:0:0:0:
192,91,47330,1,8,0:0:0:0:
215,111,47410,1,0,0:0:0:0:
238,131,47490,1,0,0:0:0:0:
261,151,47569,1,8,0:0:0:0:
284,171,47649,1,0,0:0:0:0:
255,159,47728,1,8,0:0:0:0:
199,187,47888,1,0,0:0:0:0:
103,106,48206,1,8,0:0:0:0:
103,106,48285,1,8,0:0:0:0:
103,106,48365,1,0,0:0:0:0:
165,108,48524,1,0,0:0:0:0:
196,109,48604,1,8,0:0:0:0:
226,110,48683,1,8,0:0:0:0:
282,84,48842,1,0,0:0:0:0:
339,58,49002,1,8,0:0:0:0:
339,58,49081,1,8,0:0:0:0:
339,58,49161,1,0,0:0:0:0:
339,58,49320,1,8,0:0:0:0:
339,58,49399,1,0,0:0:0:0:
339,58,49479,1,8,0:0:0:0:
89,152,49639,1,8,0:0:0:0:
89,152,49692,1,8,0:0:0:0:
151,137,49798,1,8,0:0:0:0:
182,130,49851,1,8,0:0:0:0:
182,130,49957,1,8,0:0:0:0:
182,130,50010,1,8,0:0:0:0:
182,130,50117,1,8,0:0:0:0:
182,130,50169,1,8,0:0:0:0:
221,116,50275,1,0,0:0:0:0:
279,96,50434,1,0,0:0:0:0:
309,87,50514,1,0,0:0:0:0:
309,87,50593,1,8,0:0:0:0:
246,81,50752,1,8,0:0:0:0:
255,205,51071,1,8,0:0:0:0:
257,235,51150,1,8,0:0:0:0:
257,235,51230,1,0,0:0:0:0:
257,235,51309,1,0,0:0:0:0:
257,235,51389,1,8,0:0:0:0:
223,182,51548,1,8,0:0:0:0:
189,129,51708,1,0,0:0:0:0:
130,149,51866,1,8,0:0:0:0:
295,63,52026,1,8,0:0:0:0:
232,67,52185,1,0,0:0:0:0:
201,69,52264,1,0,0:0:0:0:
169,71,52344,1,8,0:0:0:0:
192,91,52424,1,0,0:0:0:0:
215,111,52504,1,8,0:0:0:0:
226,81,52583,1,8,0:0:0:0:
261,151,52662,1,0,0:0:0:0:
284,171,52742,1,0,0:0:0:0:
255,159,52821,1,12,0:0:0:0:
89,152,53140,1,0,0:0:0:0:
89,152,53193,1,0,0:0:0:0:
151,137,53299,1,0,0:0:0:0:
182,130,53352,1,0,0:0:0:0:
182,130,53458,1,8,0:0:0:0:
182,130,53512,1,8,0:0:0:0:
182,130,53618,1,8,0:0:0:0:
182,130,53671,1,8,0:0:0:0:
89,152,53777,1,0,0:0:0:0:
89,152,53830,1,0,0:0:0:0:
151,137,53936,1,0,0:0:0:0:
182,130,53989,1,0,0:0:0:0:
221,119,54095,1,0,0:0:0:0:
261,107,54175,1,0,0:0:0:0:
321,91,54254,1,8,0:0:0:0:
289,87,54334,1,0,0:0:0:0:
341,86,54413,1,8,0:0:0:0:
337,148,54573,1,0,0:0:0:0:
171,164,54732,1,4,0:0:0:0:
171,164,55050,1,4,0:0:0:0:
288,108,55368,1,0,0:0:0:0:
257,102,55448,1,0,0:0:0:0:
288,108,55527,1,8,0:0:0:0:
355,228,55687,1,8,0:0:0:0:
355,228,55766,1,0,0:0:0:0:
355,228,55846,1,8,0:0:0:0:
355,228,55925,1,0,0:0:0:0:
355,228,56005,1,8,0:0:0:0:
324,230,56084,1,8,0:0:0:0:
189,102,56164,1,0,0:0:0:0:
188,133,56244,1,0,0:0:0:0:
189,102,56323,1,8,0:0:0:0:
276,79,56642,1,0,0:0:0:0:
276,79,56721,1,0,0:0:0:0:
276,79,56801,1,8,0:0:0:0:
276,79,56880,1,0,0:0:0:0:
276,79,56960,1,8,0:0:0:0:
276,79,57039,1,8,0:0:0:0:
276,79,57119,1,0,0:0:0:0:
244,81,57199,1,0,0:0:0:0:
261,172,57278,1,8,0:0:0:0:
261,172,57358,1,0,0:0:0:0:
261,172,57437,1,8,0:0:0:0:
261,172,57517,1,0,0:0:0:0:
261,172,57596,1,8,0:0:0:0:
223,161,57676,1,8,0:0:0:0:
305,23,57756,1,0,0:0:0:0:
267,33,57835,1,0,0:0:0:0:
226,76,57915,1,8,0:0:0:0:
257,149,58233,1,0,0:0:0:0:
89,152,58286,1,0,0:0:0:0:
151,137,58392,1,0,0:0:0:0:
182,130,58445,1,0,0:0:0:0:
257,149,58551,1,8,0:0:0:0:
182,130,58604,1,8,0:0:0:0:
182,130,58710,1,8,0:0:0:0:
145,99,58764,1,8,0:0:0:0:
89,152,58870,1,0,0:0:0:0:
89,152,58923,1,0,0:0:0:0:
151,137,59029,1,0,0:0:0:0:
182,130,59082,1,0,0:0:0:0:
221,119,59188,1,0,0:0:0:0:
261,107,59268,1,0,0:0:0:0:
321,91,59347,1,8,0:0:0:0:
289,87,59427,1,0,0:0:0:0:
341,86,59506,1,8,0:0:0:0:
337,148,59666,1,0,0:0:0:0:
171,164,59825,1,12,0:0:0:0:
129,117,59984,1,4,0:0:0:0:
171,164,60143,1,12,0:0:0:0:
288,108,60461,1,0,0:0:0:0:
257,102,60541,1,0,0:0:0:0:
288,108,60620,1,8,0:0:0:0:
355,228,60779,1,8,0:0:0:0:
355,228,60858,1,0,0:0:0:0:
355,228,60938,1,8,0:0:0:0:
355,228,61017,1,0,0:0:0:0:
355,228,61097,1,8,0:0:0:0:
324,230,61176,1,8,0:0:0:0:
189,102,61256,1,0,0:0:0:0:
188,133,61336,1,0,0:0:0:0:
189,102,61415,1,8,0:0:0:0:
276,79,61735,1,0,0:0:0:0:
276,79,61814,1,0,0:0:0:0:
276,79,61894,1,8,0:0:0:0:
276,79,61973,1,0,0:0:0:0:
276,79,62053,1,8,0:0:0:0:
276,79,62132,1,8,0:0:0:0:
276,79,62212,1,0,0:0:0:0:
244,81,62292,1,0,0:0:0:0:
261,172,62371,1,8,0:0:0:0:
261,172,62451,1,0,0:0:0:0:
261,172,62530,1,8,0:0:0:0:
261,172,62610,1,0,0:0:0:0:
261,172,62689,1,8,0:0:0:0:
223,161,62769,1,8,0:0:0:0:
305,23,62849,1,0,0:0:0:0:
267,33,62928,1,0,0:0:0:0:
226,76,63008,1,8,0:0:0:0:
177,140,64281,1,0,0:0:0:0:
125,254,65554,1,0,0:0:0:0:
198,180,65872,1,8,0:0:0:0:
235,143,66031,1,0,0:0:0:0:
273,107,66191,1,8,0:0:0:0:
204,185,66509,1,0,0:0:0:0:
167,87,66827,1,8,0:0:0:0:
167,87,66986,1,0,0:0:0:0:
167,87,67145,1,0,0:0:0:0:
167,87,67305,1,8,0:0:0:0:
167,87,67464,1,8,0:0:0:0:
196,129,67623,1,8,0:0:0:0:
226,171,67703,1,8,0:0:0:0:
226,171,67782,1,0,0:0:0:0:
237,149,67862,1,0,0:0:0:0:
242,125,67941,1,8,0:0:0:0:
226,171,68100,1,12,0:0:0:0:
126,103,68419,1,0,0:0:0:0:
126,103,68578,1,0,0:0:0:0:
126,103,68737,1,8,0:0:0:0:
221,93,69055,1,0,0:0:0:0:
316,82,69374,1,8,0:0:0:0:
363,77,69533,1,0,0:0:0:0:
410,72,69692,1,0,0:0:0:0:
410,72,69851,1,8,0:0:0:0:
410,72,70010,1,8,0:0:0:0:
410,72,70169,1,0,0:0:0:0:
410,72,70329,1,8,0:0:0:0:
410,72,70488,1,0,0:0:0:0:
100,109,70647,1,8,0:0:0:0:
123,103,70726,1,8,0:0:0:0:
146,97,70806,1,0,0:0:0:0:
169,92,70886,1,0,0:0:0:0:
192,87,70965,1,8,0:0:0:0:
215,82,71045,1,8,0:0:0:0:
238,77,71124,1,0,0:0:0:0:
261,72,71204,1,0,0:0:0:0:
284,67,71283,1,8,0:0:0:0:
284,67,71363,1,8,0:0:0:0:
284,67,71443,1,0,0:0:0:0:
284,67,71522,1,0,0:0:0:0:
284,67,71602,1,8,0:0:0:0:
284,67,71681,1,0,0:0:0:0:
284,67,71761,1,8,0:0:0:0:
284,67,71840,1,8,0:0:0:0:
284,67,71920,1,0,0:0:0:0:
204,119,72159,1,0,0:0:0:0:
124,172,72238,1,8,0:0:0:0:
220,175,72557,1,8,0:0:0:0:
243,175,72636,1,8,0:0:0:0:
267,175,72716,1,0,0:0:0:0:
259,152,72795,1,0,0:0:0:0:
252,128,72875,1,8,0:0:0:0:
245,105,72955,1,8,0:0:0:0:
238,81,73034,1,0,0:0:0:0:
274,84,73114,1,0,0:0:0:0:
207,88,73193,1,12,0:0:0:0:
160,45,73352,1,0,0:0:0:0:
160,45,73432,1,0,0:0:0:0:
160,45,73512,1,8,0:0:0:0:
160,45,73591,1,8,0:0:0:0:
160,45,73671,1,0,0:0:0:0:
160,45,73750,1,0,0:0:0:0:
160,45,73830,1,8,0:0:0:0:
198,163,74148,1,0,0:0:0:0:
221,142,74228,1,0,0:0:0:0:
259,152,74307,1,0,0:0:0:0:
256,120,74387,1,0,0:0:0:0:
254,89,74466,1,8,0:0:0:0:
316,95,74626,1,0,0:0:0:0:
346,98,74705,1,0,0:0:0:0:
377,102,74785,1,8,0:0:0:0:
394,161,74944,1,0,0:0:0:0:
411,220,75103,1,8,0:0:0:0:
287,199,75421,1,0,0:0:0:0:
256,193,75501,1,0,0:0:0:0:
225,188,75580,1,0,0:0:0:0:
166,166,75740,1,8,0:0:0:0:
220,134,75899,1,8,0:0:0:0:
247,118,75978,1,0,0:0:0:0:
274,103,76058,1,8,0:0:0:0:
325,137,76217,1,0,0:0:0:0:
376,171,76376,1,8,0:0:0:0:
394,111,76535,1,8,0:0:0:0:
403,81,76615,1,0,0:0:0:0:
413,51,76695,1,8,0:0:0:0:
413,51,76774,1,0,0:0:0:0:
413,51,76854,1,0,0:0:0:0:
413,51,76933,1,0,0:0:0:0:
413,51,77013,1,8,0:0:0:0:
297,98,77331,1,0,0:0:0:0:
181,145,77649,1,8,0:0:0:0:
195,172,77729,1,0,0:0:0:0:
209,199,77809,1,8,0:0:0:0:
66,194,77968,1,0,0:0:0:0:
128,193,78127,1,0,0:0:0:0:
172,149,78286,1,8,0:0:0:0:
231,129,78445,1,0,0:0:0:0:
260,119,78525,1,0,0:0:0:0:
289,110,78604,1,8,0:0:0:0:
289,110,78684,1,8,0:0:0:0:
289,110,78763,1,0,0:0:0:0:
235,77,78923,1,8,0:0:0:0:
301,182,79241,1,0,0:0:0:0:
334,234,79400,1,0,0:0:0:0:
304,224,79480,1,0,0:0:0:0:
274,214,79559,1,8,0:0:0:0:
222,179,79718,1,8,0:0:0:0:
195,161,79798,1,8,0:0:0:0:
168,143,79878,1,0,0:0:0:0:
142,126,79957,1,0,0:0:0:0:
115,108,80037,1,8,0:0:0:0:
176,114,80196,1,8,0:0:0:0:
122,226,80514,1,0,0:0:0:0:
182,210,80673,1,0,0:0:0:0:
171,180,80753,1,0,0:0:0:0:
242,194,80832,1,8,0:0:0:0:
276,141,80992,1,8,0:0:0:0:
293,115,81071,1,8,0:0:0:0:
310,89,81151,1,0,0:0:0:0:
344,141,81310,1,0,0:0:0:0:
379,192,81469,1,8,0:0:0:0:
318,178,81628,1,8,0:0:0:0:
287,171,81708,1,0,0:0:0:0:
256,164,81787,1,8,0:0:0:0:
225,157,81867,1,0,0:0:0:0:
194,150,81946,1,0,0:0:0:0:
132,137,82106,1,8,0:0:0:0:
246,88,82424,1,0,0:0:0:0:
234,212,82742,1,8,0:0:0:0:
234,212,82822,1,0,0:0:0:0:
234,212,82901,1,8,0:0:0:0:
260,195,82981,1,8,0:0:0:0:
286,178,83061,1,0,0:0:0:0:
312,162,83140,1,0,0:0:0:0:
339,147,83220,1,8,0:0:0:0:
339,147,83299,1,0,0:0:0:0:
318,142,83379,1,12,0:0:0:0:
243,96,83538,1,0,0:0:0:0:
273,41,83697,1,8,0:0:0:0:
286,20,83856,1,8,0:0:0:0:
286,20,84015,1,0,0:0:0:0:
183,92,84334,1,0,0:0:0:0:
157,110,84413,1,0,0:0:0:0:
131,128,84493,1,0,0:0:0:0:
131,128,84652,1,8,0:0:0:0:
193,130,84811,1,0,0:0:0:0:
255,132,84970,1,8,0:0:0:0:
286,134,85050,1,0,0:0:0:0:
286,134,85130,1,8,0:0:0:0:
230,105,85289,1,8,0:0:0:0:
326,149,85607,1,0,0:0:0:0:
392,50,85766,1,8,0:0:0:0:
392,50,85846,1,8,0:0:0:0:
392,50,85925,1,0,0:0:0:0:
128,188,86084,1,0,0:0:0:0:
128,188,86244,1,8,0:0:0:0:
156,200,86323,1,8,0:0:0:0:
128,188,86403,1,0,0:0:0:0:
156,200,86482,1,0,0:0:0:0:
251,92,86562,1,8,0:0:0:0:
355,54,86721,1,8,0:0:0:0:
355,54,86801,1,8,0:0:0:0:
355,54,86880,1,8,0:0:0:0:
323,55,86960,1,0,0:0:0:0:
376,157,87039,1,0,0:0:0:0:
376,157,87198,1,8,0:0:0:0:
288,140,87517,1,0,0:0:0:0:
288,140,87835,1,0,0:0:0:0:
257,37,87915,1,0,0:0:0:0:
288,140,87994,1,0,0:0:0:0:
188,80,88153,1,0,0:0:0:0:
188,80,88313,1,0,0:0:0:0:
355,67,88472,1,8,0:0:0:0:
323,89,88631,1,0,0:0:0:0:
292,83,88710,1,0,0:0:0:0:
323,89,88790,1,8,0:0:0:0:
292,80,88870,1,8,0:0:0:0:
323,89,88949,1,0,0:0:0:0:
320,198,89108,1,8,0:0:0:0:
165,172,89427,1,0,0:0:0:0:
151,144,89506,1,0,0:0:0:0:
264,152,89586,1,0,0:0:0:0:
264,152,89665,1,0,0:0:0:0:
264,152,89745,1,8,0:0:0:0:
180,124,89904,1,0,0:0:0:0:
152,108,89984,1,0,0:0:0:0:
413,83,90063,1,8,0:0:0:0:
373,81,90143,1,8,0:0:0:0:
346,117,90222,1,0,0:0:0:0:
346,117,90382,1,8,0:0:0:0:
268,59,90700,1,0,0:0:0:0:
350,31,90859,1,8,0:0:0:0:
350,31,90939,1,8,0:0:0:0:
350,31,91018,1,0,0:0:0:0:
241,194,91177,1,0,0:0:0:0:
372,133,91336,1,0,0:0:0:0:
343,146,91416,1,0,0:0:0:0:
301,113,91496,1,8,0:0:0:0:
301,113,91655,1,8,0:0:0:0:
156,71,91814,1,8,0:0:0:0:
135,103,91893,1,8,0:0:0:0:
156,71,91973,1,0,0:0:0:0:
141,98,92053,1,0,0:0:0:0:
237,50,92132,1,0,0:0:0:0:
328,46,92291,1,8,0:0:0:0:
328,46,92610,1,0,0:0:0:0:
217,191,92928,1,8,0:0:0:0:
217,191,93008,1,0,0:0:0:0:
217,191,93087,1,8,0:0:0:0:
243,174,93167,1,8,0:0:0:0:
269,157,93246,1,0,0:0:0:0:
295,141,93326,1,8,0:0:0:0:
322,126,93406,1,8,0:0:0:0:
322,126,93485,1,0,0:0:0:0:
301,121,93565,1,12,0:0:0:0:
176,113,93883,1,12,0:0:0:0:
206,58,94042,1,0,0:0:0:0:
237,4,94201,1,8,0:0:0:0:
221,31,94281,1,8,0:0:0:0:
221,31,94360,1,0,0:0:0:0:
221,31,94440,1,0,0:0:0:0:
221,31,94519,1,8,0:0:0:0:
193,87,94838,1,0,0:0:0:0:
245,120,94997,1,0,0:0:0:0:
271,137,95077,1,0,0:0:0:0:
296,153,95156,1,8,0:0:0:0:
235,168,95315,1,0,0:0:0:0:
174,184,95474,1,8,0:0:0:0:
143,192,95554,1,0,0:0:0:0:
112,200,95634,1,8,0:0:0:0:
252,75,96111,1,4,0:0:0:0:
92,132,97066,1,0,0:0:0:0:
132,128,97145,1,0,0:0:0:0:
152,126,97225,1,0,0:0:0:0:
192,123,97305,1,0,0:0:0:0:
212,122,97384,1,12,0:0:0:0:
238,122,97543,1,0,0:0:0:0:
150,32,97861,1,0,0:0:0:0:
150,32,97941,1,0,0:0:0:0:
150,32,98020,1,8,0:0:0:0:
211,43,98179,1,8,0:0:0:0:
272,54,98338,1,0,0:0:0:0:
272,54,98498,1,0,0:0:0:0:
288,114,98657,1,8,0:0:0:0:
295,143,98736,1,0,0:0:0:0:
295,143,98816,1,8,0:0:0:0:
261,195,98975,1,8,0:0:0:0:
244,221,99055,1,8,0:0:0:0:
244,221,99134,1,0,0:0:0:0:
89,152,99294,1,8,0:0:0:0:
89,152,99347,1,8,0:0:0:0:
151,137,99453,1,8,0:0:0:0:
182,130,99506,1,8,0:0:0:0:
182,130,99612,1,8,0:0:0:0:
182,130,99665,1,8,0:0:0:0:
182,130,99771,1,8,0:0:0:0:
182,130,99825,1,8,0:0:0:0:
221,116,99930,1,0,0:0:0:0:
279,96,100089,1,0,0:0:0:0:
309,87,100169,1,0,0:0:0:0:
309,87,100248,1,0,0:0:0:0:
246,81,100407,1,8,0:0:0:0:
255,205,100726,1,8,0:0:0:0:
257,235,100805,1,8,0:0:0:0:
257,235,100885,1,0,0:0:0:0:
257,235,100964,1,0,0:0:0:0:
257,235,101044,1,8,0:0:0:0:
223,182,101203,1,8,0:0:0:0:
189,129,101362,1,0,0:0:0:0:
242,96,101521,1,8,0:0:0:0:
295,63,101681,1,8,0:0:0:0:
232,67,101840,1,8,0:0:0:0:
201,69,101919,1,0,0:0:0:0:
169,71,101999,1,8,0:0:0:0:
192,91,102078,1,8,0:0:0:0:
215,111,102158,1,0,0:0:0:0:
238,131,102238,1,0,0:0:0:0:
261,151,102317,1,8,0:0:0:0:
284,171,102397,1,0,0:0:0:0:
255,159,102476,1,8,0:0:0:0:
199,187,102636,1,0,0:0:0:0:
103,106,102954,1,8,0:0:0:0:
103,106,103033,1,8,0:0:0:0:
103,106,103113,1,0,0:0:0:0:
165,108,103272,1,0,0:0:0:0:
196,109,103352,1,8,0:0:0:0:
226,110,103431,1,8,0:0:0:0:
282,84,103590,1,0,0:0:0:0:
339,58,103750,1,8,0:0:0:0:
339,58,103829,1,8,0:0:0:0:
339,58,103909,1,0,0:0:0:0:
339,58,104068,1,8,0:0:0:0:
339,58,104147,1,0,0:0:0:0:
339,58,104227,1,8,0:0:0:0:
89,152,104386,1,8,0:0:0:0:
89,152,104440,1,8,0:0:0:0:
151,137,104545,1,8,0:0:0:0:
182,130,104599,1,8,0:0:0:0:
182,130,104705,1,8,0:0:0:0:
182,130,104758,1,8,0:0:0:0:
182,130,104864,1,8,0:0:0:0:
182,130,104917,1,8,0:0:0:0:
221,116,105023,1,0,0:0:0:0:
279,96,105182,1,0,0:0:0:0:
309,87,105262,1,0,0:0:0:0:
309,87,105341,1,8,0:0:0:0:
246,81,105500,1,8,0:0:0:0:
255,205,105819,1,8,0:0:0:0:
257,235,105898,1,8,0:0:0:0:
257,235,105978,1,0,0:0:0:0:
257,235,106057,1,0,0:0:0:0:
257,235,106137,1,8,0:0:0:0:
223,182,106296,1,8,0:0:0:0:
189,129,106455,1,8,0:0:0:0:
130,149,106614,1,0,0:0:0:0:
295,63,106774,1,8,0:0:0:0:
232,67,106933,1,0,0:0:0:0:
201,69,107012,1,0,0:0:0:0:
169,71,107092,1,8,0:0:0:0:
192,91,107171,1,0,0:0:0:0:
215,111,107251,1,8,0:0:0:0:
261,151,107410,1,0,0:0:0:0:
284,171,107490,1,0,0:0:0:0:
301,121,107569,1,12,0:0:0:0:
238,122,107729,1,0,0:0:0:0:
150,32,108047,1,0,0:0:0:0:
150,32,108127,1,0,0:0:0:0:
150,32,108206,1,8,0:0:0:0:
211,43,108365,1,8,0:0:0:0:
272,54,108524,1,0,0:0:0:0:
272,54,108684,1,0,0:0:0:0:
288,114,108843,1,8,0:0:0:0:
295,143,108922,1,0,0:0:0:0:
295,143,109002,1,8,0:0:0:0:
261,195,109161,1,8,0:0:0:0:
244,221,109241,1,8,0:0:0:0:
244,221,109320,1,0,0:0:0:0:
89,152,109479,1,8,0:0:0:0:
89,152,109533,1,8,0:0:0:0:
151,137,109639,1,8,0:0:0:0:
182,130,109692,1,8,0:0:0:0:
182,130,109798,1,8,0:0:0:0:
182,130,109851,1,8,0:0:0:0:
182,130,109957,1,8,0:0:0:0:
182,130,110010,1,8,0:0:0:0:
221,116,110116,1,0,0:0:0:0:
279,96,110275,1,0,0:0:0:0:
309,87,110355,1,0,0:0:0:0:
309,87,110434,1,0,0:0:0:0:
246,81,110593,1,8,0:0:0:0:
255,205,110912,1,8,0:0:0:0:
257,235,110991,1,8,0:0:0:0:
257,235,111071,1,0,0:0:0:0:
257,235,111150,1,0,0:0:0:0:
257,235,111230,1,8,0:0:0:0:
223,182,111389,1,8,0:0:0:0:
189,129,111548,1,0,0:0:0:0:
242,96,111707,1,8,0:0:0:0:
295,63,111867,1,8,0:0:0:0:
232,67,112026,1,8,0:0:0:0:
201,69,112105,1,0,0:0:0:0:
169,71,112185,1,8,0:0:0:0:
192,91,112264,1,8,0:0:0:0:
215,111,112344,1,0,0:0:0:0:
238,131,112424,1,0,0:0:0:0:
261,151,112503,1,8,0:0:0:0:
284,171,112583,1,0,0:0:0:0:
255,159,112662,1,8,0:0:0:0:
199,187,112822,1,0,0:0:0:0:
103,106,113140,1,8,0:0:0:0:
103,106,113219,1,8,0:0:0:0:
103,106,113299,1,0,0:0:0:0:
165,108,113458,1,0,0:0:0:0:
196,109,113538,1,8,0:0:0:0:
226,110,113617,1,8,0:0:0:0:
282,84,113776,1,0,0:0:0:0:
339,58,113936,1,8,0:0:0:0:
339,58,114015,1,8,0:0:0:0:
339,58,114095,1,0,0:0:0:0:
339,58,114254,1,8,0:0:0:0:
339,58,114333,1,0,0:0:0:0:
339,58,114413,1,8,0:0:0:0:
89,152,114573,1,8,0:0:0:0:
89,152,114626,1,8,0:0:0:0:
151,137,114732,1,8,0:0:0:0:
182,130,114785,1,8,0:0:0:0:
182,130,114891,1,8,0:0:0:0:
182,130,114944,1,8,0:0:0:0:
182,130,115050,1,8,0:0:0:0:
182,130,115103,1,8,0:0:0:0:
221,116,115209,1,0,0:0:0:0:
279,96,115368,1,0,0:0:0:0:
309,87,115448,1,0,0:0:0:0:
309,87,115527,1,8,0:0:0:0:
246,81,115686,1,8,0:0:0:0:
255,205,116005,1,8,0:0:0:0:
257,235,116084,1,8,0:0:0:0:
257,235,116164,1,0,0:0:0:0:
257,235,116243,1,0,0:0:0:0:
257,235,116323,1,8,0:0:0:0:
223,182,116482,1,8,0:0:0:0:
189,129,116641,1,8,0:0:0:0:
130,149,116800,1,0,0:0:0:0:
295,63,116960,1,8,0:0:0:0:
232,67,117119,1,0,0:0:0:0:
201,69,117198,1,0,0:0:0:0:
169,71,117278,1,8,0:0:0:0:
192,91,117357,1,0,0:0:0:0:
215,111,117437,1,8,0:0:0:0:
187,126,117517,1,8,0:0:0:0:
261,151,117596,1,0,0:0:0:0:
284,171,117676,1,0,0:0:0:0:
301,121,117755,1,8,0:0:0:0:
