osu file format v14

[General]
AudioFilename: audio.mp3
AudioLeadIn: 0
PreviewTime: 32291
Countdown: 0
SampleSet: Normal
StackLeniency: 0.7
Mode: 1
LetterboxInBreaks: 0
WidescreenStoryboard: 0

[Editor]
DistanceSpacing: 0.8
BeatDivisor: 2
GridSize: 16
TimelineZoom: 1

[Metadata]
Title:Bwa !
TitleUnicode:Bwa !
Artist:Thaehan
ArtistUnicode:Thaehan
Creator:Jorkseljund
Version:Futsuu
Source:osu!
Tags:
BeatmapID:1694719
BeatmapSetID:807458

[Difficulty]
HPDrainRate:7
CircleSize:4
OverallDifficulty:4
ApproachRate:5
SliderMultiplier:1.4
SliderTickRate:1

[Events]
//Background and Video events
0,0,"citywallpaperhd.com-21.jpg",0,0
//Break Periods
//Storyboard Layer 0 (Background)
//Storyboard Layer 1 (Fail)
//Storyboard Layer 2 (Pass)
//Storyboard Layer 3 (Foreground)
//Storyboard Sound Samples

[TimingPoints]
1894,318.302387267905,4,1,0,40,1,0
4360,-100,4,1,0,60,0,0
6907,-100,4,1,0,80,0,0
12079,-100,4,1,0,100,0,1
22265,-100,4,1,0,100,0,0
65395,-100,4,1,0,20,0,0
68419,-100,4,1,0,40,0,0
70647,-100,4,1,0,50,0,0
70965,-100,4,1,0,60,0,0
71283,-100,4,1,0,70,0,0
71602,-100,4,1,0,80,0,0
73193,-100,4,1,0,100,0,1
83379,-100,4,1,0,100,0,0
93565,-100,4,1,0,100,0,1
96111,-100,4,1,0,100,0,0
97384,-100,4,1,0,100,0,1
107252,-100,4,1,0,100,0,0

[HitObjects]
304,167,1893,5,0,0:0:0:0:
97,78,2530,1,8,0:0:0:0:
304,163,3167,1,0,0:0:0:0:
83,127,3803,1,8,0:0:0:0:
193,145,4122,1,0,0:0:0:0:
82,126,4440,1,0,0:0:0:0:
295,57,5077,1,8,0:0:0:0:
101,170,5713,1,0,0:0:0:0:
312,96,6350,1,0,0:0:0:0:
203,124,6668,1,8,0:0:0:0:
92,138,6986,1,0,0:0:0:0:
203,124,7623,1,8,0:0:0:0:
422,80,8260,1,0,0:0:0:0:
238,148,8896,1,8,0:0:0:0:
126,134,9214,1,0,0:0:0:0:
14,120,9533,1,0,0:0:0:0:
122,94,9851,1,8,0:0:0:0:
231,72,10169,1,0,0:0:0:0:
120,94,10488,1,8,0:0:0:0:
202,169,10806,1,8,0:0:0:0:
184,115,10965,1,0,0:0:0:0:
298,112,11124,1,8,0:0:0:0:
218,184,12079,1,12,0:0:0:0:
324,149,12397,1,0,0:0:0:0:
269,134,12557,1,0,0:0:0:0:
225,203,12716,1,8,0:0:0:0:
339,10,13352,1,0,0:0:0:0:
238,59,13671,1,8,0:0:0:0:
233,48,13830,1,0,0:0:0:0:
200,177,13989,1,8,0:0:0:0:
415,238,14626,1,0,0:0:0:0:
305,214,14944,1,8,0:0:0:0:
294,158,15103,1,8,0:0:0:0:
195,191,15262,1,8,0:0:0:0:
304,215,15581,1,0,0:0:0:0:
194,191,15899,1,0,0:0:0:0:
193,191,16535,1,0,0:0:0:0:
232,119,17172,1,0,0:0:0:0:
128,160,17490,1,0,0:0:0:0:
91,117,17649,1,8,0:0:0:0:
128,160,17809,1,8,0:0:0:0:
347,115,18445,1,0,0:0:0:0:
236,135,18764,1,8,0:0:0:0:
196,95,18923,1,0,0:0:0:0:
126,156,19082,1,8,0:0:0:0:
347,126,19718,1,0,0:0:0:0:
234,130,20037,1,8,0:0:0:0:
122,135,20355,1,8,0:0:0:0:
233,130,20673,1,0,0:0:0:0:
207,80,20832,1,0,0:0:0:0:
120,135,20992,1,0,0:0:0:0:
342,159,21628,1,8,0:0:0:0:
120,135,21787,1,8,0:0:0:0:
141,82,21947,1,0,0:0:0:0:
120,135,22265,1,12,0:0:0:0:
231,130,22583,1,0,0:0:0:0:
186,163,22742,1,8,0:0:0:0:
119,126,22901,1,8,0:0:0:0:
338,173,23538,1,0,0:0:0:0:
227,158,23856,1,8,0:0:0:0:
227,158,24015,1,0,0:0:0:0:
181,125,24174,1,8,0:0:0:0:
227,91,24811,1,0,0:0:0:0:
227,91,25130,1,8,0:0:0:0:
280,106,25289,1,8,0:0:0:0:
227,91,25448,1,8,0:0:0:0:
116,106,25766,1,0,0:0:0:0:
226,91,26084,1,0,0:0:0:0:
211,314,26721,1,0,0:0:0:0:
252,210,27039,1,0,0:0:0:0:
279,100,27358,1,0,0:0:0:0:
181,154,27676,1,8,0:0:0:0:
182,98,27835,1,0,0:0:0:0:
279,100,27994,1,8,0:0:0:0:
270,323,28631,1,0,0:0:0:0:
274,211,28949,1,8,0:0:0:0:
281,99,29268,1,8,0:0:0:0:
214,312,29904,1,0,0:0:0:0:
247,205,30222,1,8,0:0:0:0:
282,98,30541,1,8,0:0:0:0:
264,151,30859,1,0,0:0:0:0:
209,137,31018,1,0,0:0:0:0:
264,151,31177,1,0,0:0:0:0:
42,116,31814,1,8,0:0:0:0:
95,100,31973,1,0,0:0:0:0:
152,133,32132,1,0,0:0:0:0:
262,152,32451,1,12,0:0:0:0:
264,96,32610,1,0,0:0:0:0:
154,75,32928,1,0,0:0:0:0:
103,144,33087,1,8,0:0:0:0:
192,76,33405,1,0,0:0:0:0:
327,139,33724,1,8,0:0:0:0:
215,149,34042,1,0,0:0:0:0:
252,43,34360,1,8,0:0:0:0:
254,98,34519,1,8,0:0:0:0:
215,149,34679,1,8,0:0:0:0:
269,136,34838,1,8,0:0:0:0:
252,43,34997,1,0,0:0:0:0:
169,118,35315,1,0,0:0:0:0:
280,208,35474,1,8,0:0:0:0:
252,42,35952,1,8,0:0:0:0:
160,106,36270,1,0,0:0:0:0:
118,143,36429,1,0,0:0:0:0:
328,254,36907,1,8,0:0:0:0:
232,195,37225,1,0,0:0:0:0:
136,137,37543,1,0,0:0:0:0:
98,179,37703,1,8,0:0:0:0:
2,238,38021,1,0,0:0:0:0:
255,122,38180,1,8,0:0:0:0:
318,30,38498,1,8,0:0:0:0:
270,131,38817,1,8,0:0:0:0:
293,84,39135,1,0,0:0:0:0:
193,134,39453,1,8,0:0:0:0:
145,104,39612,1,8,0:0:0:0:
98,194,39771,1,8,0:0:0:0:
153,184,39931,1,8,0:0:0:0:
293,84,40090,1,0,0:0:0:0:
181,83,40408,1,0,0:0:0:0:
164,192,40567,1,8,0:0:0:0:
293,84,41045,1,8,0:0:0:0:
207,156,41363,1,0,0:0:0:0:
169,114,41522,1,0,0:0:0:0:
412,245,42000,1,0,0:0:0:0:
306,207,42318,1,8,0:0:0:0:
262,152,42636,1,12,0:0:0:0:
264,96,42795,1,0,0:0:0:0:
154,75,43113,1,0,0:0:0:0:
103,144,43272,1,8,0:0:0:0:
192,76,43590,1,0,0:0:0:0:
327,139,43909,1,8,0:0:0:0:
215,149,44227,1,0,0:0:0:0:
252,43,44545,1,8,0:0:0:0:
254,98,44704,1,8,0:0:0:0:
215,149,44864,1,8,0:0:0:0:
269,137,45023,1,8,0:0:0:0:
252,43,45182,1,0,0:0:0:0:
169,118,45500,1,0,0:0:0:0:
280,208,45659,1,8,0:0:0:0:
252,42,46137,1,8,0:0:0:0:
160,106,46455,1,0,0:0:0:0:
118,143,46614,1,0,0:0:0:0:
328,254,47092,1,8,0:0:0:0:
232,195,47410,1,0,0:0:0:0:
136,137,47728,1,0,0:0:0:0:
98,179,47888,1,8,0:0:0:0:
2,238,48206,1,0,0:0:0:0:
255,122,48365,1,8,0:0:0:0:
318,30,48683,1,8,0:0:0:0:
270,131,49002,1,8,0:0:0:0:
293,84,49320,1,0,0:0:0:0:
193,134,49638,1,8,0:0:0:0:
145,104,49797,1,8,0:0:0:0:
98,194,49956,1,8,0:0:0:0:
99,137,50116,1,8,0:0:0:0:
293,84,50275,1,0,0:0:0:0:
181,83,50593,1,0,0:0:0:0:
164,192,50752,1,8,0:0:0:0:
293,84,51230,1,8,0:0:0:0:
207,156,51548,1,0,0:0:0:0:
169,114,51707,1,0,0:0:0:0:
412,245,52185,1,0,0:0:0:0:
306,207,52503,1,8,0:0:0:0:
261,103,52822,1,4,0:0:0:0:
196,194,53140,1,8,0:0:0:0:
133,286,53458,1,8,0:0:0:0:
217,212,53777,1,0,0:0:0:0:
177,172,53936,1,0,0:0:0:0:
302,139,54095,1,0,0:0:0:0:
193,113,54413,1,0,0:0:0:0:
82,182,54732,1,8,0:0:0:0:
191,160,55050,1,8,0:0:0:0:
285,99,55368,1,0,0:0:0:0:
174,116,55687,1,8,0:0:0:0:
284,99,56005,1,8,0:0:0:0:
233,74,56164,1,0,0:0:0:0:
173,118,56323,1,8,0:0:0:0:
271,63,56642,1,0,0:0:0:0:
317,164,56960,1,0,0:0:0:0:
271,64,57278,1,8,0:0:0:0:
172,117,57596,1,8,0:0:0:0:
284,120,57915,1,0,0:0:0:0:
247,225,58233,1,0,0:0:0:0:
284,119,58551,1,8,0:0:0:0:
339,119,58710,1,8,0:0:0:0:
248,225,58870,1,8,0:0:0:0:
176,139,59188,1,0,0:0:0:0:
263,68,59506,1,0,0:0:0:0:
176,139,59825,1,0,0:0:0:0:
137,64,59984,1,8,0:0:0:0:
192,63,60143,1,0,0:0:0:0:
233,121,60461,1,0,0:0:0:0:
233,121,60779,1,8,0:0:0:0:
233,121,61098,1,8,0:0:0:0:
227,176,61257,1,0,0:0:0:0:
233,121,61416,1,8,0:0:0:0:
299,31,61734,1,0,0:0:0:0:
345,133,62053,1,0,0:0:0:0:
298,31,62371,1,8,0:0:0:0:
233,122,62689,1,8,0:0:0:0:
299,31,63008,1,4,0:0:0:0:
82,126,65554,1,0,0:0:0:0:
295,57,66191,1,8,0:0:0:0:
101,170,66827,1,0,0:0:0:0:
312,96,67464,1,0,0:0:0:0:
203,124,67782,1,8,0:0:0:0:
92,138,68100,1,0,0:0:0:0:
203,124,68737,1,8,0:0:0:0:
422,80,69374,1,0,0:0:0:0:
238,148,70010,1,8,0:0:0:0:
126,134,70328,1,0,0:0:0:0:
14,120,70647,1,0,0:0:0:0:
122,94,70965,1,8,0:0:0:0:
231,72,71283,1,0,0:0:0:0:
120,94,71602,1,8,0:0:0:0:
202,169,71920,1,8,0:0:0:0:
194,113,72079,1,0,0:0:0:0:
131,255,72238,1,12,0:0:0:0:
218,184,73193,1,12,0:0:0:0:
324,149,73512,1,0,0:0:0:0:
269,134,73672,1,0,0:0:0:0:
225,203,73831,1,8,0:0:0:0:
339,10,74467,1,0,0:0:0:0:
238,59,74786,1,8,0:0:0:0:
233,48,74945,1,0,0:0:0:0:
200,177,75104,1,8,0:0:0:0:
415,238,75741,1,0,0:0:0:0:
305,214,76059,1,8,0:0:0:0:
294,158,76218,1,8,0:0:0:0:
195,191,76377,1,8,0:0:0:0:
304,215,76696,1,0,0:0:0:0:
194,191,77014,1,0,0:0:0:0:
193,191,77650,1,0,0:0:0:0:
232,119,78287,1,0,0:0:0:0:
128,160,78605,1,0,0:0:0:0:
91,117,78764,1,8,0:0:0:0:
128,160,78924,1,8,0:0:0:0:
347,115,79560,1,0,0:0:0:0:
236,135,79879,1,8,0:0:0:0:
196,95,80038,1,0,0:0:0:0:
126,156,80197,1,8,0:0:0:0:
347,126,80833,1,0,0:0:0:0:
234,130,81152,1,8,0:0:0:0:
122,135,81470,1,8,0:0:0:0:
233,130,81788,1,0,0:0:0:0:
207,80,81947,1,0,0:0:0:0:
120,135,82107,1,0,0:0:0:0:
342,159,82743,1,8,0:0:0:0:
120,135,82902,1,8,0:0:0:0:
141,82,83062,1,0,0:0:0:0:
120,135,83379,1,12,0:0:0:0:
231,130,83697,1,0,0:0:0:0:
186,163,83856,1,8,0:0:0:0:
119,126,84015,1,8,0:0:0:0:
338,173,84652,1,0,0:0:0:0:
227,158,84970,1,8,0:0:0:0:
227,158,85129,1,0,0:0:0:0:
181,125,85288,1,8,0:0:0:0:
227,91,85925,1,0,0:0:0:0:
227,91,86244,1,8,0:0:0:0:
280,106,86403,1,8,0:0:0:0:
227,91,86562,1,8,0:0:0:0:
116,106,86880,1,0,0:0:0:0:
226,91,87198,1,0,0:0:0:0:
211,314,87835,1,0,0:0:0:0:
252,210,88153,1,0,0:0:0:0:
279,100,88472,1,0,0:0:0:0:
181,154,88790,1,8,0:0:0:0:
182,98,88949,1,0,0:0:0:0:
279,100,89108,1,8,0:0:0:0:
270,323,89745,1,0,0:0:0:0:
274,211,90063,1,8,0:0:0:0:
281,99,90382,1,8,0:0:0:0:
214,312,91018,1,0,0:0:0:0:
247,205,91336,1,8,0:0:0:0:
282,98,91655,1,8,0:0:0:0:
264,151,91973,1,0,0:0:0:0:
209,137,92132,1,0,0:0:0:0:
264,151,92291,1,0,0:0:0:0:
42,116,92928,1,0,0:0:0:0:
95,100,93087,1,0,0:0:0:0:
152,133,93246,1,8,0:0:0:0:
258,97,93565,1,6,0:0:0:0:
152,133,93883,1,6,0:0:0:0:
257,95,94201,1,8,0:0:0:0:
204,75,94360,1,0,0:0:0:0:
151,55,94519,1,0,0:0:0:0:
46,173,94838,1,0,0:0:0:0:
150,134,95156,1,0,0:0:0:0:
166,80,95315,1,0,0:0:0:0:
255,96,95474,1,8,0:0:0:0:
304,128,95634,1,0,0:0:0:0:
478,86,96111,1,4,0:0:0:0:
170,220,96907,1,0,0:0:0:0:
262,152,97384,1,12,0:0:0:0:
264,96,97543,1,0,0:0:0:0:
154,75,97861,1,0,0:0:0:0:
103,144,98020,1,8,0:0:0:0:
192,76,98338,1,0,0:0:0:0:
327,139,98657,1,8,0:0:0:0:
215,149,98975,1,0,0:0:0:0:
252,43,99293,1,8,0:0:0:0:
254,98,99452,1,8,0:0:0:0:
215,149,99612,1,8,0:0:0:0:
269,136,99771,1,8,0:0:0:0:
252,43,99930,1,0,0:0:0:0:
169,118,100248,1,0,0:0:0:0:
280,208,100407,1,8,0:0:0:0:
252,42,100885,1,8,0:0:0:0:
160,106,101203,1,0,0:0:0:0:
118,143,101362,1,0,0:0:0:0:
328,254,101840,1,8,0:0:0:0:
232,195,102158,1,0,0:0:0:0:
136,137,102476,1,0,0:0:0:0:
98,179,102636,1,8,0:0:0:0:
2,238,102954,1,0,0:0:0:0:
255,122,103113,1,8,0:0:0:0:
318,30,103431,1,8,0:0:0:0:
270,131,103750,1,8,0:0:0:0:
293,84,104068,1,0,0:0:0:0:
193,134,104386,1,8,0:0:0:0:
145,104,104545,1,8,0:0:0:0:
98,194,104704,1,8,0:0:0:0:
153,184,104864,1,8,0:0:0:0:
293,84,105023,1,0,0:0:0:0:
181,83,105341,1,0,0:0:0:0:
164,192,105500,1,8,0:0:0:0:
293,84,105978,1,8,0:0:0:0:
207,156,106296,1,0,0:0:0:0:
169,114,106455,1,0,0:0:0:0:
412,245,106933,1,0,0:0:0:0:
306,207,107251,1,8,0:0:0:0:
262,152,107569,1,12,0:0:0:0:
264,96,107728,1,0,0:0:0:0:
154,75,108046,1,0,0:0:0:0:
103,144,108205,1,8,0:0:0:0:
192,76,108523,1,0,0:0:0:0:
327,139,108842,1,8,0:0:0:0:
215,149,109160,1,0,0:0:0:0:
252,43,109478,1,8,0:0:0:0:
254,98,109637,1,8,0:0:0:0:
215,149,109797,1,8,0:0:0:0:
269,137,109956,1,8,0:0:0:0:
252,43,110115,1,0,0:0:0:0:
169,118,110433,1,0,0:0:0:0:
280,208,110592,1,8,0:0:0:0:
252,42,111070,1,8,0:0:0:0:
160,106,111388,1,0,0:0:0:0:
118,143,111547,1,0,0:0:0:0:
328,254,112025,1,8,0:0:0:0:
232,195,112343,1,0,0:0:0:0:
136,137,112661,1,0,0:0:0:0:
98,179,112821,1,8,0:0:0:0:
2,238,113139,1,0,0:0:0:0:
255,122,113298,1,8,0:0:0:0:
318,30,113616,1,8,0:0:0:0:
270,131,113935,1,8,0:0:0:0:
293,84,114253,1,0,0:0:0:0:
193,134,114571,1,8,0:0:0:0:
145,104,114730,1,8,0:0:0:0:
98,194,114889,1,8,0:0:0:0:
99,137,115049,1,8,0:0:0:0:
293,84,115208,1,0,0:0:0:0:
181,83,115526,1,0,0:0:0:0:
164,192,115685,1,8,0:0:0:0:
293,84,116163,1,8,0:0:0:0:
207,156,116481,1,0,0:0:0:0:
169,114,116640,1,0,0:0:0:0:
412,245,117118,1,0,0:0:0:0:
352,224,117278,1,0,0:0:0:0:
306,207,117436,1,8,0:0:0:0:
261,103,117755,1,12,0:0:0:0:
