osu file format v14

[General]
AudioFilename: audio.mp3
AudioLeadIn: 0
PreviewTime: 93405
Countdown: 0
SampleSet: Soft
StackLeniency: 0.3
Mode: 0
LetterboxInBreaks: 0
WidescreenStoryboard: 0

[Editor]
Bookmarks: 1893,12079,32451,52822,63008,73193,93565,107570,120302
DistanceSpacing: 2
BeatDivisor: 4
GridSize: 16
TimelineZoom: 2

[Metadata]
Title:Bwa !
TitleUnicode:Bwa !
Artist:Thaehan
ArtistUnicode:Thaehan
Creator:Flask
Version:Taiwan
Source:
Tags:knowledgeking nerova riuz gx hey lululu Loneight l1106188
BeatmapID:1966257
BeatmapSetID:941599

[Difficulty]
HPDrainRate:5
CircleSize:4.2
OverallDifficulty:9
ApproachRate:9.5
SliderMultiplier:1.9
SliderTickRate:1

[Events]
//Background and Video events
0,0,"UZKEjzG.png",0,0
//Break Periods
2,63208,65029
//Storyboard Layer 0 (Background)
//Storyboard Layer 1 (Fail)
//Storyboard Layer 2 (Pass)
//Storyboard Layer 3 (Foreground)
//Storyboard Sound Samples

[TimingPoints]
1894,318.302387267905,4,2,0,40,1,0
1894,-142.857142857143,4,2,0,40,0,0
3167,-133.333333333333,4,2,0,40,0,0
4440,-125,4,2,0,40,0,0
5713,-117.647058823529,4,2,1,45,0,0
6986,-111.111111111111,4,2,1,50,0,0
8260,-105.263157894737,4,2,1,55,0,0
8339,-105.263157894737,4,2,1,5,0,0
8419,-105.263157894737,4,2,1,55,0,0
8498,-105.263157894737,4,2,1,5,0,0
8578,-105.263157894737,4,2,1,55,0,0
8657,-105.263157894737,4,2,1,5,0,0
8737,-105.263157894737,4,2,1,55,0,0
8817,-105.263157894737,4,2,1,5,0,0
8896,-105.263157894737,4,2,1,55,0,0
8976,-105.263157894737,4,2,1,5,0,0
9055,-105.263157894737,4,2,1,55,0,0
9135,-105.263157894737,4,2,1,5,0,0
9214,-105.263157894737,4,2,1,55,0,0
9294,-105.263157894737,4,2,1,5,0,0
9374,-105.263157894737,4,2,1,55,0,0
9453,-105.263157894737,4,2,1,5,0,0
9533,-100,4,2,3,60,0,0
10169,-100,4,2,1,65,0,0
10806,-100,4,2,1,70,0,0
11443,-66.6666666666667,4,2,0,70,0,0
11761,-66.6666666666667,4,2,1,70,0,0
12079,-100,4,2,3,80,0,0
12238,-100,4,2,1,80,0,0
22424,-100,4,2,2,80,0,0
31814,-100,4,2,0,80,0,0
32132,-100,4,2,1,80,0,0
32451,-100,4,1,2,60,0,1
32610,-100,4,1,1,80,0,1
34042,-133.333333333333,4,1,1,80,0,1
34360,-333.333333333333,4,1,1,80,0,1
34997,-83.3333333333333,4,1,1,80,0,1
36588,-133.333333333333,4,1,1,80,0,1
37543,-100,4,1,1,80,0,1
39135,-133.333333333333,4,1,1,80,0,1
39453,-333.333333333333,4,1,1,80,0,1
40090,-83.3333333333333,4,1,1,80,0,1
41681,-133.333333333333,4,1,1,80,0,1
42636,-200,4,1,2,80,0,1
42955,-200,4,1,1,80,0,1
43273,-133.333333333333,4,1,1,80,0,1
44546,-333.333333333333,4,1,1,80,0,1
44705,-333.333333333333,4,1,1,60,0,1
44864,-333.333333333333,4,1,1,40,0,1
45023,-333.333333333333,4,1,1,20,0,1
45183,-200,4,1,1,80,0,1
46774,-133.333333333333,4,1,1,80,0,1
47729,-200,4,1,1,80,0,1
49002,-133.333333333333,4,1,1,80,0,1
49639,-333.333333333333,4,1,1,80,0,1
49798,-333.333333333333,4,1,1,60,0,1
49957,-333.333333333333,4,1,1,40,0,1
50116,-333.333333333333,4,1,1,20,0,1
50275,-200,4,1,1,80,0,1
51549,-133.333333333333,4,1,1,80,0,1
51867,-333.333333333333,4,1,1,80,0,1
52185,-100,4,1,1,80,0,1
52504,-100,4,1,1,80,0,0
52822,-55.5555555555556,4,1,1,80,0,1
53777,-100,4,1,1,80,0,1
54732,-83.3333333333333,4,1,1,80,0,1
55050,-66.6666666666667,4,1,1,80,0,1
55368,-55.5555555555556,4,1,1,80,0,1
56005,-66.6666666666667,4,1,1,80,0,1
56323,-55.5555555555556,4,1,1,80,0,1
56642,-100,4,1,1,80,0,1
57915,-55.5555555555556,4,1,1,80,0,1
58870,-100,4,1,1,80,0,1
59825,-50,4,1,1,80,0,1
60143,-66.6666666666667,4,1,1,80,0,1
60461,-55.5555555555556,4,1,1,80,0,1
61098,-66.6666666666667,4,1,1,80,0,1
61416,-55.5555555555556,4,1,1,80,0,1
61734,-1000,4,1,2,80,0,0
62928,-1000,4,2,2,5,0,0
63008,-1000,4,1,2,80,0,0
68100,-133.333333333333,4,1,1,80,0,0
69374,-100,4,1,1,80,0,0
70647,-100,4,1,3,80,0,0
71920,-133.333333333333,4,1,2,80,0,0
73193,-100,4,2,1,80,0,0
75103,-80,4,2,1,80,0,0
75660,-100,4,2,1,80,0,0
79718,-25,4,2,3,80,0,0
79798,-25,4,2,1,80,0,0
79878,-100,4,2,1,80,0,0
80196,-80,4,2,1,80,0,0
80753,-100,4,2,1,80,0,0
83379,-50,4,2,3,80,0,0
83538,-100,4,2,2,80,0,0
83697,-50,4,2,2,80,0,0
83856,-40,4,2,2,80,0,0
84016,-100,4,2,2,80,0,0
84493,-100,4,2,3,80,0,0
84652,-50,4,2,2,80,0,0
84811,-100,4,2,2,80,0,0
84970,-50,4,2,2,80,0,0
85130,-40,4,2,2,80,0,0
85289,-100,4,2,2,80,0,0
85766,-100,4,2,3,80,0,0
85925,-50,4,2,2,80,0,0
86084,-100,4,2,2,80,0,0
86244,-50,4,2,2,80,0,0
86403,-40,4,2,2,80,0,0
87039,-66.6666666666667,4,2,2,80,0,0
88313,-133.333333333333,4,2,2,80,0,0
88472,-50,4,2,2,80,0,0
88631,-100,4,2,2,80,0,0
88790,-50,4,2,2,80,0,0
88949,-40,4,2,2,80,0,0
89108,-100,4,2,2,80,0,0
89586,-100,4,2,3,80,0,0
89745,-66.6666666666667,4,2,2,80,0,0
89904,-28.5714285714286,4,2,2,80,0,0
90063,-40,4,2,2,80,0,0
90382,-100,4,2,2,80,0,0
90859,-100,4,2,3,80,0,0
91018,-50,4,2,2,80,0,0
91177,-100,4,2,2,80,0,0
91336,-50,4,2,2,80,0,0
91496,-40,4,2,2,80,0,0
92132,-66.6666666666667,4,2,2,80,0,0
92291,-100,4,2,2,80,0,0
92928,-100,4,2,0,80,0,0
93246,-100,4,2,3,80,0,0
95315,-100,4,2,0,80,0,0
95474,-100,4,2,1,80,0,0
95634,-100,4,2,0,80,0,0
95793,-100,4,2,1,80,0,0
95952,-100,4,2,0,80,0,0
96111,-25,4,2,3,80,0,0
96270,-25,4,2,3,5,0,0
97066,-100,4,2,1,80,0,0
97384,-66.6666666666667,4,2,2,80,0,1
97543,-50,4,2,1,80,0,1
97862,-76.9230769230769,4,2,1,80,0,1
98339,-133.333333333333,4,2,1,80,0,1
98657,-100,4,2,1,80,0,1
99294,-76.9230769230769,4,2,1,80,0,1
99453,-76.9230769230769,4,2,1,60,0,1
99612,-76.9230769230769,4,2,1,40,0,1
99771,-76.9230769230769,4,2,1,20,0,1
99931,-66.6666666666667,4,2,1,80,0,1
100249,-50,4,2,1,80,0,1
100408,-57.1428571428571,4,2,1,80,0,1
100726,-133.333333333333,4,2,1,80,0,1
100886,-57.1428571428571,4,2,1,80,0,1
101204,-74.0740740740741,4,2,1,80,0,1
101522,-133.333333333333,4,2,1,80,0,1
101840,-100,4,2,1,80,0,1
102477,-66.6666666666667,4,2,1,80,0,1
102636,-50,4,2,1,80,0,1
102875,-100,4,2,1,80,0,1
103432,-76.9230769230769,4,2,1,80,0,1
103750,-100,4,2,1,80,0,1
104069,-133.333333333333,4,2,1,80,0,1
104546,-133.333333333333,4,2,1,60,0,1
104705,-133.333333333333,4,2,1,40,0,1
104864,-133.333333333333,4,2,1,20,0,1
105023,-66.6666666666667,4,2,1,80,0,1
105501,-57.1428571428571,4,2,1,80,0,1
105819,-66.6666666666667,4,2,1,80,0,1
106615,-133.333333333333,4,2,1,80,0,1
107252,-100,4,2,1,80,0,0
107570,-66.6666666666667,4,2,2,80,0,1
107888,-66.6666666666667,4,2,1,80,0,1
108525,-200,4,2,1,80,0,1
108843,-66.6666666666667,4,2,1,80,0,1
109480,-55.5555555555556,4,2,1,80,0,1
109639,-55.5555555555556,4,2,1,60,0,1
109798,-55.5555555555556,4,2,1,40,0,1
110116,-66.6666666666667,4,2,1,80,0,1
111071,-100,4,2,1,80,0,1
111390,-66.6666666666667,4,2,1,80,0,1
113618,-200,4,2,1,80,0,1
113936,-66.6666666666667,4,2,1,80,0,1
114732,-66.6666666666667,4,2,1,60,0,1
114891,-66.6666666666667,4,2,1,40,0,1
115050,-66.6666666666667,4,2,1,20,0,1
115209,-66.6666666666667,4,2,1,80,0,1
116164,-100,4,2,1,80,0,1
116801,-66.6666666666667,4,2,1,80,0,1
117119,-66.6666666666667,4,2,3,80,0,1
117437,-66.6666666666667,4,2,1,80,0,1
117756,-66.6666666666667,4,1,2,80,0,0

[Colours]
Combo1 : 0,117,234
Combo2 : 255,255,32
Combo3 : 255,74,165
Combo4 : 66,255,255
Combo5 : 55,255,55

[HitObjects]
91,222,1893,5,2,0:0:0:0:
91,222,2212,1,0,0:0:0:0:
117,312,2371,1,0,0:0:0:0:
199,280,2530,2,0,P|240:284|269:321,1,66.4999979705811,2|0,0:0|0:0,0:0:0:0:
335,354,2848,2,0,P|376:350|405:313,1,66.4999979705811,2|0,0:0|0:0,0:0:0:0:
440,258,3167,5,2,0:0:0:0:
452,223,3326,1,0,0:0:0:0:
393,152,3485,1,0,0:0:0:0:
381,117,3644,1,0,0:0:0:0:
440,50,3803,5,2,0:0:0:0:
334,3,3962,1,0,0:0:0:0:
289,109,4122,1,0,0:0:0:0:
393,152,4281,1,0,0:0:0:0:
440,50,4440,5,2,0:0:0:0:
440,50,4758,1,0,0:0:0:0:
393,152,4917,1,0,0:0:0:0:
487,215,5077,2,0,P|497:265|484:303,1,76,2|0,0:0|0:0,0:0:0:0:
394,334,5395,2,0,P|356:328|320:338,1,76,2|0,0:0|0:0,0:0:0:0:
226,360,5713,5,2,0:0:0:0:
203,292,5872,1,0,0:0:0:0:
110,297,6031,1,2,0:0:0:0:
133,229,6190,1,0,0:0:0:0:
226,360,6350,5,2,0:0:0:0:
251,229,6509,1,0,0:0:0:0:
110,297,6668,1,2,0:0:0:0:
85,166,6827,1,0,0:0:0:0:
251,229,6986,5,2,0:0:0:0:
251,229,7305,1,2,0:0:0:0:
338,135,7464,1,0,0:0:0:0:
240,51,7623,2,0,P|185:62|153:51,1,85.4999973907472,2|0,0:0|0:0,0:0:0:0:
38,38,7941,2,0,P|49:93|38:125,1,85.4999973907472,2|0,0:0|0:0,0:0:0:0:
57,353,8260,6,0,P|64:323|90:286,1,45.1249987950325,2|0,0:0|0:0,0:0:0:0:
106,159,8419,2,0,P|113:189|139:226,1,45.1249987950325,2|0,0:0|0:0,0:0:0:0:
135,344,8578,6,0,P|151:318|188:292,1,45.1249987950325,2|0,0:0|0:0,0:0:0:0:
170,204,8737,2,0,P|186:229|223:255,1,45.1249987950325,2|0,0:0|0:0,0:0:0:0:
213,335,8896,6,0,P|237:316|281:304,1,45.1249987950325,2|0,0:0|0:0,0:0:0:0:
244,232,9055,2,0,P|268:250|312:262,1,45.1249987950325,2|0,0:0|0:0,0:0:0:0:
292,326,9214,6,0,P|321:317|366:321,1,45.1249987950325,2|0,0:0|0:0,0:0:0:0:
322,238,9374,2,0,P|351:246|396:242,1,45.1249987950325,2|0,0:0|0:0,0:0:0:0:
370,317,9533,5,2,0:1:0:0:
402,312,9612,1,2,0:1:0:0:
426,289,9692,1,2,0:1:0:0:
431,257,9771,1,2,0:1:0:0:
404,195,9851,5,2,0:1:0:0:
387,156,9930,1,2,0:1:0:0:
393,114,10010,1,2,0:1:0:0:
427,88,10089,1,2,0:1:0:0:
476,145,10169,5,2,0:0:0:0:
434,173,10248,1,2,0:0:0:0:
382,182,10328,1,2,0:0:0:0:
332,170,10407,1,2,0:0:0:0:
274,104,10488,5,2,0:0:0:0:
226,67,10567,1,2,0:0:0:0:
166,52,10647,1,2,0:0:0:0:
106,67,10726,1,2,0:0:0:0:
33,129,10806,6,0,L|47:231,1,95,2|0,0:0|0:0,0:0:0:0:
37,334,11045,1,2,0:0:0:0:
37,334,11124,1,4,3:0:0:0:
37,334,11443,6,0,P|50:314|60:285,1,35.625001358986,2|0,0:0|0:0,0:0:0:0:
78,357,11522,6,0,P|83:333|82:303,1,35.625001358986,2|0,0:0|0:0,0:0:0:0:
125,354,11602,6,0,P|122:330|111:301,1,35.625001358986,2|0,0:0|0:0,0:0:0:0:
164,327,11681,6,0,P|153:305|133:282,1,35.625001358986,2|0,0:0|0:0,0:0:0:0:
180,282,11761,6,0,P|162:265|135:250,1,35.625001358986,2|0,0:0|0:0,0:0:0:0:
180,235,11840,6,0,P|197:251|224:266,1,35.625001358986,2|0,0:0|0:0,0:0:0:0:
207,196,11920,6,0,P|217:217|237:240,1,35.625001358986,2|0,0:0|0:0,0:0:0:0:
251,176,12000,6,0,P|253:199|264:228,1,35.625001358986,2|0,0:0|0:0,0:0:0:0:
298,184,12079,6,0,L|361:193,1,47.5,6|0,0:0|0:0,0:0:0:0:
443,255,12238,1,0,0:0:0:0:
367,113,12397,1,8,0:0:0:0:
345,273,12557,1,0,0:0:0:0:
457,156,12716,2,0,P|458:107|488:62,1,95,6|0,0:0|0:0,0:0:0:0:
345,273,13034,2,0,L|342:332,1,47.5,8|0,0:0|0:0,0:0:0:0:
328,143,13193,1,4,0:0:0:0:
328,143,13273,1,0,0:0:0:0:
328,143,13352,6,0,L|264:135,1,47.5,2|0,0:0|0:0,0:0:0:0:
169,174,13511,1,4,0:0:0:0:
279,56,13670,1,8,0:0:0:0:
259,216,13830,1,0,0:0:0:0:
181,74,13989,2,0,P|126:70|86:30,1,95,6|0,0:0|0:0,0:0:0:0:
259,216,14307,2,0,L|256:274,1,47.5,8|0,0:0|0:0,0:0:0:0:
321,90,14466,1,4,0:0:0:0:
321,90,14546,1,0,0:0:0:0:
321,90,14626,5,2,0:0:0:0:
449,126,14785,1,4,0:0:0:0:
280,132,14944,1,12,0:0:0:0:
152,168,15103,1,0,0:0:0:0:
320,173,15262,1,6,0:0:0:0:
449,210,15421,1,0,0:0:0:0:
449,210,15501,1,0,0:0:0:0:
449,210,15581,1,8,0:0:0:0:
413,338,15740,1,4,0:0:0:0:
285,302,15899,5,2,0:0:0:0:
127,349,16058,1,4,0:0:0:0:
262,364,16217,5,8,0:0:0:0:
236,160,16376,1,4,0:0:0:0:
209,298,16535,5,2,0:0:0:0:
50,315,16695,1,4,0:0:0:0:
77,177,16854,2,0,L|69:107,1,47.5,8|0,0:0|0:0,0:0:0:0:
156,7,17013,2,0,L|150:54,1,47.5,12|0,0:0|0:0,0:0:0:0:
236,160,17172,6,0,L|241:207,1,47.5,2|0,0:0|0:0,0:0:0:0:
300,317,17331,1,0,0:0:0:0:
340,152,17490,1,8,0:0:0:0:
211,261,17649,1,0,0:0:0:0:
380,249,17809,2,0,P|435:255|478:303,1,95,6|0,0:0|0:0,0:0:0:0:
211,261,18127,2,0,L|132:284,1,47.5,8|0,0:0|0:0,0:0:0:0:
285,157,18286,1,4,0:0:0:0:
285,157,18366,1,0,0:0:0:0:
285,157,18445,5,2,0:0:0:0:
412,11,18604,1,4,0:0:0:0:
328,166,18764,1,8,0:0:0:0:
358,32,18923,1,4,0:0:0:0:
371,175,19082,2,0,B|428:188|428:188|470:175,1,95,6|0,0:0|0:0,0:0:0:0:
304,53,19400,2,0,L|246:45,1,47.5,8|0,0:0|0:0,0:0:0:0:
123,35,19559,1,4,0:0:0:0:
123,35,19639,1,0,0:0:0:0:
123,35,19718,5,2,0:0:0:0:
99,176,19878,1,4,0:0:0:0:
177,341,20037,5,8,0:0:0:0:
153,200,20196,1,4,0:0:0:0:
231,35,20355,5,6,0:0:0:0:
207,176,20514,1,0,0:0:0:0:
207,176,20594,1,0,0:0:0:0:
207,176,20673,1,8,0:0:0:0:
348,200,20832,1,4,0:0:0:0:
372,59,20992,5,2,0:0:0:0:
500,151,21151,1,4,0:0:0:0:
343,72,21310,5,8,0:0:0:0:
298,251,21469,1,4,0:0:0:0:
373,94,21628,6,0,L|380:64,1,23.75,2|0,0:0|0:0,0:0:0:0:
404,129,21708,2,0,L|423:105,1,23.75
425,170,21787,2,0,L|452:156,1,23.75,2|0,0:0|0:0,0:0:0:0:
435,216,21867,2,0,L|465:215,1,23.75
433,264,21947,5,8,0:0:0:0:
386,269,22026,1,2,0:0:0:0:
345,293,22106,1,2,0:0:0:0:
317,331,22185,1,2,0:0:0:0:
307,377,22265,6,2,L|255:371,1,47.5,6|0,0:0|0:0,0:0:0:0:
120,355,22424,1,0,0:0:0:0:
306,283,22583,6,0,L|255:290,1,47.5,8|0,0:0|0:0,0:0:0:0:
97,312,22742,1,0,0:0:0:0:
258,202,22901,6,0,L|271:99,1,95,6|0,0:0|0:0,0:0:0:0:
86,260,23220,1,8,0:0:0:0:
176,156,23379,1,0,0:0:0:0:
176,156,23458,1,0,0:0:0:0:
176,156,23538,6,0,L|167:83,1,47.5,2|0,0:0|0:0,0:0:0:0:
198,341,23697,1,0,0:0:0:0:
270,155,23857,6,0,L|235:88,1,47.5,8|0,0:0|0:0,0:0:0:0:
307,329,24016,1,0,0:0:0:0:
351,107,24175,6,0,L|268:42,1,95,6|0,0:0|0:0,0:0:0:0:
416,268,24493,1,8,0:0:0:0:
397,26,24652,1,0,0:0:0:0:
397,26,24732,1,0,0:0:0:0:
397,26,24811,5,2,0:0:0:0:
176,156,24970,1,0,0:0:0:0:
198,341,25130,5,8,0:0:0:0:
416,268,25289,1,0,0:0:0:0:
294,106,25448,5,6,0:0:0:0:
318,358,25607,1,0,0:0:0:0:
318,358,25687,1,0,0:0:0:0:
318,358,25766,1,8,0:0:0:0:
198,341,25925,1,0,0:0:0:0:
84,364,26084,5,2,0:0:0:0:
48,192,26244,1,0,0:0:0:0:
173,50,26403,5,8,0:0:0:0:
137,222,26563,1,0,0:0:0:0:
262,364,26720,5,6,0:0:0:0:
226,192,26880,1,4,0:0:0:0:
351,50,27039,6,0,L|417:44,1,47.5,8|0,0:0|0:0,0:0:0:0:
315,222,27199,2,0,L|249:216,1,47.5,8|0,0:0|0:0,0:0:0:0:
440,364,27358,6,0,L|456:302,1,47.5,2|0,0:0|0:0,0:0:0:0:
404,192,27517,1,0,0:0:0:0:
499,65,27676,6,0,L|437:49,1,47.5,8|0,0:0|0:0,0:0:0:0:
327,101,27835,1,0,0:0:0:0:
200,6,27994,6,0,L|172:112,1,95,6|0,0:0|0:0,0:0:0:0:
236,178,28313,2,0,L|242:244,1,47.5,8|0,0:0|0:0,0:0:0:0:
221,368,28472,1,0,0:0:0:0:
221,368,28551,1,0,0:0:0:0:
221,368,28631,5,2,0:0:0:0:
32,263,28790,1,0,0:0:0:0:
198,204,28949,1,8,0:0:0:0:
273,236,29109,1,0,0:0:0:0:
283,317,29268,2,0,P|298:362|344:375,1,95,6|0,0:0|0:0,0:0:0:0:
440,352,29586,2,0,L|443:295,1,47.5,8|0,0:0|0:0,0:0:0:0:
409,172,29745,1,0,0:0:0:0:
409,172,29825,1,0,0:0:0:0:
409,172,29904,5,2,0:0:0:0:
231,131,30063,1,0,0:0:0:0:
369,62,30222,5,8,0:0:0:0:
346,271,30382,1,0,0:0:0:0:
387,137,30541,5,6,0:0:0:0:
190,188,30700,1,0,0:0:0:0:
190,188,30779,1,0,0:0:0:0:
190,188,30859,2,0,L|180:248,1,47.5,8|0,0:0|0:0,0:0:0:0:
120,362,31018,2,0,L|112:315,1,47.5
22,203,31177,5,2,0:0:0:0:
231,156,31336,1,0,0:0:0:0:
50,101,31496,5,8,0:0:0:0:
169,294,31655,1,4,0:0:0:0:
231,156,31814,6,0,L|227:123,1,23.75,2|0,0:0|0:0,0:0:0:0:
262,140,31894,2,0,L|272:108,1,23.75,2|0,0:0|0:0,0:0:0:0:
297,137,31973,2,0,L|319:112,1,23.75,2|0,0:0|0:0,0:0:0:0:
331,149,32053,2,0,L|361:136,1,23.75,2|0,0:0|0:0,0:0:0:0:
357,172,32132,5,2,0:0:0:0:
361,220,32211,1,2,0:0:0:0:
365,267,32291,1,2,0:0:0:0:
370,314,32370,1,2,0:0:0:0:
363,370,32451,5,6,0:0:0:0:
176,222,32610,2,0,L|270:212,1,95,0|8,0:0|0:0,0:0:0:0:
66,135,32928,1,2,0:0:0:0:
33,127,33008,1,0,0:0:0:0:
0,120,33087,1,0,0:0:0:0:
137,32,33246,1,2,0:0:0:0:
89,304,33405,1,8,0:0:0:0:
80,313,33724,5,2,0:0:0:0:
83,326,33803,1,0,0:0:0:0:
86,339,33883,1,0,0:0:0:0:
170,193,34042,2,0,L|183:148,2,35.625001358986,8|0|2,0:0|0:0|0:0,0:0:0:0:
261,362,34360,6,0,P|268:361|274:364,1,14.2499995651245
261,362,34519,2,0,P|262:369|262:376,1,14.2499995651245,0|0,3:0|3:0,3:0:0:0:
261,362,34679,2,0,P|255:365|248:367,1,14.2499995651245,8|0,3:1|3:0,3:0:0:0:
261,362,34838,2,0,P|255:356|252:350,1,14.2499995651245,0|0,3:0|3:0,3:0:0:0:
260,362,34997,6,0,P|356:318|497:303,1,227.999993041992,2|8,0:0|0:0,0:0:0:0:
232,242,35474,2,0,P|136:198|-5:183,1,227.999993041992,2|2,0:0|0:0,0:0:0:0:
303,153,35952,1,8,0:0:0:0:
263,22,36111,1,0,0:0:0:0:
446,68,36270,5,2,0:0:0:0:
386,355,36429,1,2,0:0:0:0:
411,198,36588,6,0,L|415:233,1,35.625001358986,8|0,0:0|0:0,0:0:0:0:
432,206,36748,2,0,L|436:241,1,35.625001358986,8|0,0:0|0:0,0:0:0:0:
322,240,36907,5,2,0:0:0:0:
497,152,37066,1,2,0:0:0:0:
308,227,37225,1,8,0:0:0:0:
511,165,37384,1,0,0:0:0:0:
364,69,37543,5,2,0:0:0:0:
223,281,37703,2,0,L|235:381,1,95,0|8,0:0|0:0,0:0:0:0:
89,229,38021,1,2,0:0:0:0:
58,215,38100,1,0,0:0:0:0:
25,209,38180,1,0,0:0:0:0:
149,54,38339,2,0,P|174:45|206:42,1,47.5
299,137,38498,1,8,0:0:0:0:
293,119,38817,5,2,0:0:0:0:
296,105,38897,1,0,0:0:0:0:
299,91,38977,1,0,0:0:0:0:
394,217,39135,2,0,L|408:269,2,35.625001358986,8|0|2,0:0|0:0|0:0,0:0:0:0:
470,38,39453,6,0,P|463:39|457:36,1,14.2499995651245
470,38,39612,2,0,P|469:31|469:24,1,14.2499995651245,0|0,3:0|3:0,3:0:0:0:
470,38,39772,2,0,P|476:35|483:33,1,14.2499995651245,8|0,3:1|3:0,3:0:0:0:
470,38,39931,2,0,P|476:44|479:50,1,14.2499995651245,0|0,3:0|3:0,3:0:0:0:
469,38,40090,6,0,P|410:134|379:244,1,227.999993041992,2|8,0:0|0:0,0:0:0:0:
270,373,40567,2,0,P|238:263|179:166,1,227.999993041992,2|2,0:0|0:0,0:0:0:0:
231,77,41045,1,8,0:0:0:0:
95,15,41204,1,8,0:0:0:0:
301,171,41363,5,2,0:0:0:0:
40,264,41522,1,2,0:0:0:0:
156,206,41681,6,0,L|195:211,1,35.625001358986,8|0,0:0|0:0,0:0:0:0:
163,229,41840,2,0,L|202:234,1,35.625001358986,8|0,0:0|0:0,0:0:0:0:
185,110,42000,5,2,0:0:0:0:
175,164,42079,1,0,0:0:0:0:
168,218,42159,1,0,0:0:0:0:
158,271,42238,1,0,0:0:0:0:
151,325,42318,1,4,0:0:0:0:
134,344,42636,6,0,L|147:249,1,95,4|0,0:0|0:0,0:0:0:0:
81,171,43114,1,2,0:0:0:0:
340,30,43273,6,0,B|328:24|328:24|317:28|317:28|305:23,1,35.625001358986,8|0,0:0|0:0,0:0:0:0:
366,125,43432,2,0,B|354:119|354:119|343:123|343:123|331:118,1,35.625001358986,2|0,0:0|0:0,0:0:0:0:
470,55,43591,1,0,0:0:0:0:
470,55,43750,1,0,0:0:0:0:
342,317,43909,5,2,0:0:0:0:
342,317,43989,1,0,0:0:0:0:
342,317,44069,1,0,0:0:0:0:
465,261,44228,1,0,0:0:0:0:
465,261,44307,1,0,0:0:0:0:
465,261,44387,1,2,0:0:0:0:
193,68,44546,6,0,L|188:30,3,28.4999991302491,12|4|4|4,0:0|0:0|0:0|0:0,0:0:0:0:
100,358,45183,6,0,L|5:348,1,95,2|0,0:0|0:0,0:0:0:0:
225,212,45660,1,2,0:0:0:0:
76,247,45819,6,0,L|123:251,1,47.5,8|0,0:0|0:0,0:0:0:0:
202,319,46138,1,0,0:0:0:0:
202,319,46297,1,0,0:0:0:0:
307,13,46456,5,2,0:0:0:0:
367,175,46615,1,2,0:0:0:0:
429,54,46774,2,0,B|438:58|448:54|443:49|453:44|463:49,1,35.625001358986
413,67,46933,2,0,B|422:71|432:67|427:62|437:57|447:62,1,35.625001358986
397,289,47092,5,8,0:0:0:0:
409,301,47252,1,2,0:0:0:0:
437,306,47411,1,0,0:0:0:0:
425,293,47570,1,0,0:0:0:0:
110,207,47729,5,2,0:0:0:0:
164,382,47888,2,0,L|176:287,1,95,2|2,0:0|0:0,0:0:0:0:
431,209,48366,5,8,0:0:0:0:
327,332,48525,1,2,0:0:0:0:
327,332,48604,1,0,0:0:0:0:
327,332,48684,1,0,0:0:0:0:
334,20,49002,6,0,P|322:33|315:50,2,35.625001358986,2|2|2,0:0|0:0|0:0,0:0:0:0:
451,99,49321,2,0,P|462:112|469:129,2,35.625001358986,0|0|2,0:0|0:0|0:0,0:0:0:0:
106,98,49639,6,0,L|109:126,3,28.4999991302491,12|4|4|4,0:0|0:0|0:0|0:0,0:0:0:0:
156,360,50275,6,0,L|249:378,1,95,2|0,0:0|0:0,0:0:0:0:
166,225,50753,1,2,0:0:0:0:
46,302,50912,6,0,L|0:292,1,47.5,8|2,0:0|0:0,0:0:0:0:
169,245,51230,1,0,0:0:0:0:
169,245,51390,1,0,0:0:0:0:
343,139,51549,6,0,B|354:116|354:116|346:96|346:96|356:73,1,71.2500027179719,2|0,0:0|0:0,0:0:0:0:
203,105,51867,6,0,B|197:93|197:93|201:83|201:83|196:72,1,28.4999991302491,8|8,0:0|0:0,0:0:0:0:
302,252,52185,5,0,0:0:0:0:
303,258,52264,1,0,0:0:0:0:
305,265,52344,1,0,0:0:0:0:
307,272,52423,1,0,0:0:0:0:
309,279,52503,1,4,0:0:0:0:
506,187,52822,6,0,B|433:223|354:155|420:139|355:72|240:116,1,256.499992172241,4|0,0:3|0:0,0:0:0:0:
192,2,53140,2,0,P|168:-3|194:15,1,85.4999973907472,8|0,0:0|0:0,0:0:0:0:
150,119,53299,2,0,P|129:131|161:127,1,85.4999973907472,8|0,0:0|0:0,0:0:0:0:
13,69,53458,6,0,B|31:142|31:142|40:154|40:154|64:250,1,170.999994781494,0|4,0:0|0:3,0:0:0:0:
59,232,53777,2,0,L|64:176,1,47.5,8|0,0:0|0:0,0:0:0:0:
146,285,53936,2,0,L|150:228,1,47.5
219,92,54095,5,4,0:3:0:0:
221,100,54175,1,0,0:0:0:0:
223,109,54254,1,0,0:0:0:0:
226,119,54333,1,0,0:0:0:0:
229,127,54413,1,8,0:0:0:0:
232,136,54493,1,0,0:0:0:0:
234,145,54573,1,4,0:3:0:0:
237,154,54652,1,0,0:0:0:0:
264,256,54732,6,0,B|226:260|221:216|263:202|286:245|293:290|375:286,1,170.999994781494,4|0,0:3|0:0,0:0:0:0:
464,279,55050,2,0,B|406:259|346:314|415:335|359:372|277:368,1,213.750008153916,8|0,0:0|0:0,0:0:0:0:
181,355,55368,6,0,L|187:305,1,42.7499986953736
82,295,55527,2,0,L|76:337,1,42.7499986953736
28,148,55687,5,12,0:0:0:0:
30,156,55766,1,0,0:0:0:0:
32,164,55846,1,4,0:3:0:0:
34,172,55925,1,0,0:0:0:0:
4,73,56005,6,0,B|58:57|118:82|72:116|132:148|208:121,1,213.750008153916,2|0,0:3|0:0,0:0:0:0:
341,60,56323,2,0,B|324:7|324:7|243:-1|243:-1|279:136,1,256.499992172241,12|0,0:0|0:0,0:0:0:0:
424,254,56642,5,4,0:3:0:0:
452,230,56721,1,0,0:0:0:0:
463,194,56801,1,4,0:3:0:0:
453,158,56880,1,0,0:0:0:0:
380,180,56960,5,8,0:0:0:0:
360,137,57039,1,0,0:0:0:0:
320,113,57119,1,0,0:0:0:0:
273,114,57198,1,0,0:0:0:0:
206,171,57278,6,0,L|172:165,1,23.75,4|0,0:3|0:0,0:0:0:0:
203,190,57358,2,0,L|169:184,1,23.75
199,210,57437,2,0,L|165:204,1,23.75,4|0,0:3|0:0,0:0:0:0:
196,229,57517,2,0,L|162:223,1,23.75
263,272,57596,5,8,0:0:0:0:
265,286,57675,1,8,0:0:0:0:
267,300,57755,1,8,0:0:0:0:
269,314,57834,1,8,0:0:0:0:
271,324,57915,6,0,B|243:300|212:299|212:299|329:280|289:354|402:339,1,256.499992172241,4|0,0:3|0:0,0:0:0:0:
510,260,58233,2,0,P|504:225|500:260,1,85.4999973907472,8|0,0:0|0:0,0:0:0:0:
400,129,58392,2,0,P|364:125|397:138,1,85.4999973907472,8|0,0:0|0:0,0:0:0:0:
443,18,58551,6,0,B|420:40|420:40|332:17|332:17|254:32,1,170.999994781494,0|4,0:0|3:0,0:0:0:0:
284,26,58870,2,0,L|293:72,1,47.5,8|0,0:0|0:0,0:0:0:0:
214,89,59029,2,0,L|204:42,1,47.5
56,156,59188,5,4,0:3:0:0:
59,147,59267,1,0,0:0:0:0:
61,138,59347,1,0,0:0:0:0:
64,129,59426,1,0,0:0:0:0:
67,121,59507,1,8,0:0:0:0:
70,111,59586,1,0,0:0:0:0:
72,102,59666,1,4,0:3:0:0:
74,94,59745,1,0,0:0:0:0:
107,0,59825,6,0,L|126:59,1,47.5,2|0,0:0|0:0,0:0:0:0:
230,230,59984,2,0,L|244:184,1,47.5,8|0,0:0|0:0,0:0:0:0:
75,257,60143,6,0,B|123:225|189:266|147:300|214:338|284:297,1,213.750008153916,8|0,0:0|0:0,0:0:0:0:
358,301,60461,6,0,P|387:315|417:339,1,42.7499986953736,4|0,0:3|0:0,0:0:0:0:
481,201,60620,2,0,P|462:212|443:220,1,42.7499986953736
326,166,60779,5,12,0:0:0:0:
323,157,60858,1,0,0:0:0:0:
321,149,60938,1,4,0:3:0:0:
319,141,61017,1,0,0:0:0:0:
316,20,61098,6,0,B|354:54|354:54|231:29|231:29|180:51,1,213.750008153916,4|0,0:3|0:0,0:0:0:0:
1,30,61416,2,0,B|67:4|141:58|89:92|147:156|232:126,1,256.499992172241,12|0,0:0|0:0,0:0:0:0:
249,217,61734,6,0,L|244:289,1,71.25,8|0,0:0|0:0,0:0:0:0:
157,327,63008,5,6,0:0:0:0:
256,192,65554,12,0,67782,0:0:0:0:
180,262,68100,6,0,P|171:326|220:384,1,142.500005435944,2|2,0:0|0:0,0:0:0:0:
256,303,68578,1,0,0:0:0:0:
333,345,68737,2,0,P|341:280|292:222,1,142.500005435944,2|8,0:0|0:0,0:0:0:0:
91,145,69374,6,0,P|113:185|157:200,1,95,2|0,0:0|0:0,0:0:0:0:
301,128,69692,2,0,P|321:86|309:42,1,95,8|0,0:0|0:0,0:0:0:0:
203,42,70010,6,0,P|190:86|210:128,1,95,2|0,0:0|0:0,0:0:0:0:
354,200,70328,2,0,P|398:185|421:145,1,95,8|0,0:0|0:0,0:0:0:0:
206,173,70647,5,2,0:0:0:0:
202,188,70726,1,2,0:0:0:0:
203,203,70806,1,2,0:0:0:0:
209,218,70885,1,2,0:0:0:0:
306,211,70965,5,2,0:0:0:0:
309,195,71044,1,2,0:0:0:0:
308,180,71124,1,2,0:0:0:0:
302,165,71203,1,2,0:0:0:0:
202,132,71283,5,2,0:0:0:0:
186,150,71362,1,2,0:0:0:0:
177,172,71442,1,2,0:0:0:0:
176,195,71521,1,2,0:0:0:0:
309,251,71601,5,2,0:0:0:0:
325,233,71680,1,2,0:0:0:0:
334,211,71760,1,2,0:0:0:0:
335,188,71839,1,2,0:0:0:0:
256,192,71920,6,0,B|244:219|251:248|261:239|268:268|256:296,1,106.875004076958,4|0,0:0|0:0,0:0:0:0:
256,313,72238,1,0,0:0:0:0:
256,313,72557,6,0,L|262:282,1,17.812500679493
249,291,72636,2,0,L|255:260,1,17.812500679493
242,269,72716,2,0,L|248:238,1,17.812500679493
235,247,72795,2,0,L|241:216,1,17.812500679493
261,160,72875,5,0,0:0:0:0:
266,81,72955,1,0,0:0:0:0:
217,20,73034,1,0,0:0:0:0:
138,10,73114,1,0,0:0:0:0:
65,44,73193,5,2,0:0:0:0:
104,234,73352,1,4,0:0:0:0:
45,175,73512,1,8,0:0:0:0:
126,155,73671,1,4,0:0:0:0:
207,298,73830,6,0,P|136:291|104:225,1,142.5,2|0,0:0|0:0,0:0:0:0:
130,67,74148,2,0,B|145:114|145:114|121:161,1,95,12|0,0:0|0:0,0:0:0:0:
45,175,74387,1,0,0:0:0:0:
45,175,74466,5,2,0:0:0:0:
181,228,74626,1,4,0:0:0:0:
62,342,74785,1,8,0:0:0:0:
251,303,74944,2,0,L|200:307,1,47.5,4|0,0:0|0:0,0:0:0:0:
43,263,75103,6,0,B|93:249|132:297|132:297|174:327|214:302,1,178.125,2|0,0:0|0:0,0:0:0:0:
203,307,75421,2,0,L|197:176,1,118.75,12|0,0:0|0:0,0:0:0:0:
181,117,75660,1,0,0:0:0:0:
177,109,75740,5,2,0:0:0:0:
230,42,75899,1,4,0:0:0:0:
313,60,76058,1,8,0:0:0:0:
331,228,76217,1,4,0:0:0:0:
433,90,76376,1,2,0:0:0:0:
490,155,76535,1,4,0:0:0:0:
494,166,76615,1,0,0:0:0:0:
495,179,76695,1,8,0:0:0:0:
441,351,76854,1,4,0:0:0:0:
263,317,77013,6,0,B|218:306|218:306|169:316,1,95,2|4,0:0|0:0,0:0:0:0:
341,255,77331,1,8,0:0:0:0:
84,361,77490,1,4,0:0:0:0:
84,361,77570,1,0,0:0:0:0:
84,361,77649,2,0,P|79:318|72:265,1,95,2|4,0:0|0:0,0:0:0:0:
135,106,77968,1,8,0:0:0:0:
249,217,78127,2,0,L|193:211,1,47.5,8|0,0:0|0:0,0:0:0:0:
18,198,78286,5,2,0:0:0:0:
102,187,78445,1,4,0:0:0:0:
131,266,78604,1,8,0:0:0:0:
236,123,78764,1,4,0:0:0:0:
379,228,78923,6,0,B|368:296|368:296|379:324|379:324|368:381,1,142.5,2|0,0:0|0:0,0:0:0:0:
473,363,79241,2,0,P|477:312|435:281,1,95,12|0,0:0|0:0,0:0:0:0:
371,299,79480,1,0,0:0:0:0:
371,299,79559,2,0,P|344:297|316:286,1,47.5,2|0,0:0|0:0,0:0:0:0:
317,195,79718,6,0,B|304:192|284:196|284:196|280:176|280:176|264:172|264:172|256:148|256:148|248:172|248:172|232:176|232:176|228:196|228:196|208:192|190:198,1,190,2|0,0:3|0:0,0:0:0:0:
195,196,79878,1,8,0:0:0:0:
187,290,80037,6,0,P|164:297|141:299,1,47.5,4|0,0:0|0:0,0:0:0:0:
78,363,80196,6,0,B|52:345|39:301|57:261|57:261|55:230|55:230|71:198,1,178.125,2|0,0:0|0:0,0:0:0:0:
211,232,80514,2,0,P|191:290|130:294,1,118.75,12|0,0:0|0:0,0:0:0:0:
140,298,80753,1,0,0:0:0:0:
140,298,80832,5,2,0:0:0:0:
206,359,80992,1,4,0:0:0:0:
259,155,81151,1,8,0:0:0:0:
380,310,81310,1,4,0:0:0:0:
152,225,81469,1,2,0:0:0:0:
292,76,81628,1,4,0:0:0:0:
329,105,81708,1,0,0:0:0:0:
339,150,81787,1,8,0:0:0:0:
288,306,81947,1,4,0:0:0:0:
448,352,82106,6,0,P|458:292|389:232,1,142.5,2|0,0:0|0:0,0:0:0:0:
288,306,82424,2,0,L|397:309,1,95,8|4,0:0|0:0,0:0:0:0:
437,80,82742,6,0,L|450:38,1,23.75,6|0,0:0|0:0,0:0:0:0:
410,72,82822,2,0,L|411:28,1,23.75
382,75,82901,2,0,L|327:66,1,47.5,2|0,0:0|0:0,0:0:0:0:
203,143,83061,5,2,0:0:0:0:
157,196,83140,1,2,0:0:0:0:
85,204,83220,1,2,0:0:0:0:
24,167,83299,1,2,0:0:0:0:
12,96,83379,6,0,L|0:210,1,95,6|0,0:0|0:0,0:0:0:0:
0,267,83538,6,0,L|46:258,1,47.5,4|0,0:0|0:0,0:0:0:0:
103,314,83697,6,0,P|121:280|115:226,1,95,8|0,0:0|0:0,0:0:0:0:
83,155,83856,6,0,P|129:145|185:195,1,118.75,4|0,0:0|0:0,0:0:0:0:
198,258,84016,5,2,0:0:0:0:
207,64,84175,1,4,0:0:0:0:
281,204,84334,5,8,0:0:0:0:
473,148,84493,1,2,0:1:0:0:
499,81,84573,1,2,0:1:0:0:
465,16,84652,6,0,P|421:8|372:31,1,95,2|0,0:0|0:0,0:0:0:0:
327,84,84811,6,0,L|335:131,1,47.5,4|0,0:0|0:0,0:0:0:0:
172,36,84970,6,0,P|216:28|265:51,1,95,8|0,0:0|0:0,0:0:0:0:
327,84,85130,6,0,B|337:140|337:140|330:206,1,118.75,4|0,0:0|0:0,0:0:0:0:
385,264,85289,5,2,0:0:0:0:
202,212,85448,1,4,0:0:0:0:
71,350,85607,1,8,0:0:0:0:
43,143,85766,1,2,0:1:0:0:
72,211,85846,1,2,0:1:0:0:
35,276,85925,6,0,P|87:269|132:295,1,95,2|0,0:0|0:0,0:0:0:0:
151,358,86084,6,0,P|174:344|188:326,1,47.5,4|0,0:0|0:0,0:0:0:0:
196,252,86244,6,0,L|189:148,1,95,8|0,0:0|0:0,0:0:0:0:
262,139,86403,6,0,P|232:91|175:84,1,118.75,4|0,0:0|0:0,0:0:0:0:
103,255,86562,6,0,B|119:227|119:227|115:139,1,118.75,2|0,0:0|0:0,0:0:0:0:
68,0,86721,5,4,0:0:0:0:
102,65,86801,1,8,0:0:0:0:
174,84,86880,6,0,B|225:77|225:77|242:85|242:85|300:74,1,118.75,8|0,0:0|0:0,0:0:0:0:
357,42,87039,6,0,P|368:84|350:121,1,71.2500027179719,2|0,0:0|0:0,0:0:0:0:
330,183,87199,5,2,0:0:0:0:
459,71,87358,1,4,0:0:0:0:
255,151,87517,5,8,0:0:0:0:
393,294,87676,1,4,0:0:0:0:
193,209,87835,5,2,0:0:0:0:
265,45,87994,1,4,0:0:0:0:
271,249,88153,5,8,0:0:0:0:
27,201,88313,2,0,L|38:234,1,35.625001358986,2|0,0:0|0:0,0:0:0:0:
7,306,88472,6,0,L|103:311,1,95,2|0,0:0|0:0,0:0:0:0:
182,384,88631,6,0,L|174:337,1,47.5,4|0,0:0|0:0,0:0:0:0:
176,171,88790,6,0,B|179:197|179:197|162:263,1,95,8|0,0:0|0:0,0:0:0:0:
236,284,88949,6,0,P|296:280|332:236,1,118.75,4|0,0:0|0:0,0:0:0:0:
404,228,89108,5,2,0:0:0:0:
277,368,89268,1,4,0:0:0:0:
256,208,89427,1,8,0:0:0:0:
248,28,89586,1,2,0:1:0:0:
321,37,89665,1,2,0:1:0:0:
393,48,89745,6,0,L|376:124,1,71.2500027179719,2|0,0:0|0:0,0:0:0:0:
460,196,89904,6,0,B|437:166|393:174|393:174|377:126|377:126|336:160|336:160|305:134|269:142,1,249.375002378225,2|0,0:3|0:0,0:0:0:0:
220,200,90063,6,0,P|196:160|216:88,1,118.75,8|0,0:0|0:0,0:0:0:0:
316,84,90222,2,0,P|340:124|320:196,1,118.75,4|0,0:0|0:0,0:0:0:0:
280,260,90382,5,2,0:0:0:0:
128,200,90541,1,4,0:0:0:0:
53,344,90700,1,8,0:0:0:0:
62,170,90859,5,2,0:1:0:0:
126,128,90939,1,2,0:1:0:0:
192,162,91018,6,0,B|200:113|200:113|169:63,1,95,2|0,0:0|0:0,0:0:0:0:
221,5,91177,6,0,L|171:5,1,47.5,4|0,0:0|0:0,0:0:0:0:
110,40,91336,6,0,B|101:88|101:88|132:138,1,95,8|0,0:0|0:0,0:0:0:0:
128,200,91496,6,0,B|175:195|175:195|199:209|199:209|246:204,1,118.75,4|0,0:0|0:0,0:0:0:0:
276,272,91655,6,0,B|186:282|186:282|158:267,1,118.75,2|0,0:0|0:0,0:0:0:0:
294,346,91814,5,4,0:0:0:0:
349,293,91894,1,8,0:0:0:0:
331,220,91973,6,0,P|345:169|414:146,1,118.75,8|0,0:0|0:0,0:0:0:0:
472,224,92132,6,0,L|393:213,1,71.2500027179719,4|0,0:0|0:0,0:0:0:0:
261,88,92291,6,0,B|223:79|195:113|195:113|165:85|117:99,1,142.5,2|0,0:0|0:0,0:0:0:0:
84,145,92610,2,0,L|68:33,1,95,8|0,0:0|0:0,0:0:0:0:
38,344,92928,6,0,L|52:382,1,23.75,2|0,0:0|0:0,0:0:0:0:
52,328,93008,2,0,L|55:368,1,23.75,2|0,0:0|0:0,0:0:0:0:
71,318,93087,2,0,L|64:357,1,23.75,2|0,0:0|0:0,0:0:0:0:
92,316,93167,2,0,L|75:352,1,23.75,2|0,0:0|0:0,0:0:0:0:
113,319,93246,5,2,0:0:0:0:
184,346,93326,1,2,0:0:0:0:
255,321,93405,1,2,0:0:0:0:
275,247,93485,1,2,0:0:0:0:
239,176,93565,6,0,B|245:71|245:71|221:82|221:106,1,142.5,6|0,0:0|0:0,0:0:0:0:
74,157,93883,2,0,P|113:166|169:141,1,95,12|0,0:0|0:0,0:0:0:0:
31,240,94201,1,2,0:0:0:0:
116,353,94360,1,0,0:0:0:0:
253,302,94519,2,0,P|297:285|347:307,1,95,8|0,0:0|0:0,0:0:0:0:
403,329,94758,1,0,0:0:0:0:
411,340,94838,6,0,B|415:289|415:289|407:269|407:269|415:195,1,142.5,2|0,0:0|0:0,0:0:0:0:
487,177,95156,1,8,0:0:0:0:
327,149,95315,1,2,0:0:0:0:
184,215,95474,1,2,0:0:0:0:
27,176,95633,1,2,0:0:0:0:
253,25,95793,5,8,0:0:0:0:
261,35,95952,1,2,0:0:0:0:
204,292,96111,6,0,B|207:324|207:324|234:324|234:324|231:288|231:288|253:286|253:286|251:324|251:324|274:324|274:324|271:284|271:284|299:280|299:280|308:322|308:322|323:344|323:344|303:376|267:376,1,380,4|0,0:1|0:0,0:0:0:0:
260,372,97066,5,2,0:0:0:0:
252,364,97145,1,2,0:0:0:0:
248,288,97225,1,2,0:0:0:0:
268,216,97305,1,2,0:0:0:0:
248,144,97384,6,0,P|285:160|323:152,1,71.2500027179719,6|0,1:0|0:0,0:0:0:0:
493,141,97543,6,0,B|444:88|367:103|367:103|391:124|390:162,1,190,0|8,1:0|1:0,1:0:0:0:
389,148,97862,1,2,1:0:0:0:
388,219,97941,1,0,1:0:0:0:
388,287,98021,6,0,L|369:222,1,61.7499971733095,0|0,1:0|0:0,0:0:0:0:
222,302,98180,2,0,L|203:237,1,61.7499971733095,2|0,1:0|0:0,0:0:0:0:
386,296,98339,6,0,L|426:303,1,35.625001358986,8|0,1:0|1:0,0:0:0:0:
220,312,98498,2,0,L|180:319,1,35.625001358986,0|0,1:0|0:0,0:0:0:0:
293,372,98657,5,2,1:0:0:0:
302,301,98737,1,0,1:0:0:0:
277,234,98817,2,0,L|284:179,1,47.5,0|0,1:0|0:0,0:0:0:0:
215,22,98976,5,8,1:0:0:0:
210,49,99055,1,0,1:0:0:0:
216,77,99135,2,0,L|231:127,1,47.5,2|0,0:1|0:0,0:0:0:0:
492,193,99294,6,0,L|425:186,1,61.7499971733095,4|0,1:0|0:0,0:0:0:0:
355,185,99453,2,0,L|279:195,1,61.7499971733095,4|0,1:0|1:0,0:0:0:0:
218,193,99612,2,0,L|157:185,1,61.7499971733095,4|0,1:0|1:0,0:0:0:0:
81,186,99771,2,0,L|20:193,1,61.7499971733095,4|0,1:0|0:0,0:0:0:0:
186,327,99931,6,0,B|201:286|248:274|248:274|255:259|255:259|261:272|261:272|320:275|344:326,1,213.750008153916,2|0,1:0|0:0,0:0:0:0:
265,374,100249,6,0,P|263:343|266:374,1,95,8|0,1:0|0:0,0:0:0:0:
254,183,100408,6,0,B|261:138|261:138|243:102|243:102|222:63|255:22|255:22|288:61|267:102,1,249.375002378225,2|0,1:0|1:0,0:0:0:0:
257,218,100726,6,0,L|252:171,1,35.625001358986,2|0,1:0|0:0,0:0:0:0:
339,15,100886,6,0,P|352:58|347:104,1,83.1250007927418,8|0,1:0|1:0,0:0:0:0:
162,95,101045,2,0,P|160:54|173:15,1,83.1250007927418,0|0,1:0|1:0,0:0:0:0:
345,187,101204,6,0,L|406:214,1,64.1250002446175,2|0,1:0|0:0,0:0:0:0:
167,187,101363,2,0,L|106:214,1,64.1250002446175,2|0,1:0|0:0,0:0:0:0:
263,358,101522,6,0,L|270:318,1,35.625001358986,8|0,1:0|1:0,0:0:0:0:
249,358,101681,2,0,L|242:318,1,35.625001358986,8|0,1:0|0:0,0:0:0:0:
233,95,101840,6,0,L|285:95,1,47.5,2|0,1:0|1:0,0:0:0:0:
353,169,102000,2,0,L|353:221,1,47.5,2|0,1:0|1:0,0:0:0:0:
279,289,102159,2,0,L|227:289,1,47.5,8|0,1:0|0:0,0:0:0:0:
159,215,102319,2,0,L|159:163,1,47.5,0|0,1:0|0:0,0:0:0:0:
244,178,102477,6,0,B|267:178|267:178|267:206|267:206|239:206,1,71.2500027179719,2|0,1:0|0:0,0:0:0:0:
255,336,102636,6,0,B|213:306|169:341|169:341|106:353|83:301,1,190,0|8,1:0|1:0,0:0:0:0:
77,312,102955,1,2,1:0:0:0:
87,237,103034,1,0,1:0:0:0:
81,164,103114,2,0,L|99:112,1,47.5,2|0,1:0|0:0,0:0:0:0:
75,234,103273,5,2,1:0:0:0:
67,160,103352,1,0,0:0:0:0:
23,100,103432,6,0,B|-5:89|-5:89|25:79,1,61.7499971733095,8|0,1:0|0:0,0:0:0:0:
172,111,103591,2,0,B|202:101|202:101|174:90,1,61.7499971733095,0|0,1:0|0:0,0:0:0:0:
115,37,103750,5,2,1:0:0:0:
97,90,103830,1,0,1:0:0:0:
107,144,103909,2,0,L|135:191,1,47.5,0|0,1:0|0:0,0:0:0:0:
275,179,104069,5,8,1:0:0:0:
285,214,104148,1,0,1:0:0:0:
312,239,104228,2,0,L|352:245,1,35.625001358986,2|0,1:0|0:0,0:0:0:0:
463,370,104387,6,0,L|451:330,1,35.625001358986,4|0,1:0|0:0,0:0:0:0:
418,186,104546,2,0,L|426:143,1,35.625001358986,4|0,1:0|1:0,0:0:0:0:
345,361,104705,2,0,L|367:322,1,35.625001358986,12|0,1:0|1:0,0:0:0:0:
409,186,104864,2,0,L|401:143,1,35.625001358986,4|0,1:0|0:0,0:0:0:0:
485,249,105023,6,0,B|391:237|391:237|367:260|367:260|277:248,1,213.750008153916,2|0,1:0|1:0,0:0:0:0:
180,349,105342,2,0,P|214:353|245:336,1,71.2500027179719,8|0,1:0|0:0,0:0:0:0:
226,145,105501,6,0,B|195:129|182:87|182:87|195:263,1,249.375002378225,2|0,1:0|1:0,0:0:0:0:
301,278,105819,6,0,L|305:207,1,71.2500027179719,2|0,1:0|0:0,0:0:0:0:
90,274,105978,2,0,L|86:203,1,71.2500027179719,8|0,1:0|0:0,0:0:0:0:
240,11,106138,1,0,1:0:0:0:
101,85,106297,6,0,L|178:92,1,71.2500027179719,2|0,1:0|0:0,0:0:0:0:
316,140,106456,2,0,L|392:131,1,71.2500027179719,2|0,1:0|0:0,0:0:0:0:
123,158,106615,6,0,L|167:163,1,35.625001358986,8|0,1:0|1:0,0:0:0:0:
328,68,106774,2,0,L|365:64,1,35.625001358986,0|0,1:0|0:0,0:0:0:0:
249,234,106933,5,2,1:0:0:0:
239,158,107013,1,2,1:0:0:0:
257,85,107092,1,2,1:0:0:0:
246,11,107172,1,2,1:0:0:0:
183,56,107252,6,0,L|165:52,1,11.875,4|0,1:0|0:0,0:0:0:0:
43,183,107570,6,0,B|31:206|15:222|15:222|85:179|172:179|172:179|136:197|107:246,1,285.000010871888,6|0,1:0|0:0,0:0:0:0:
223,364,108047,2,0,P|294:342|181:291,1,285.000010871888,0|2,1:0|1:0,0:0:0:0:
190,269,108525,6,0,B|217:262|217:262|230:266|230:266|260:259,1,71.25,8|0,1:0|0:0,0:0:0:0:
398,209,108843,6,0,B|334:218|284:169|339:153|276:103|222:105|222:105|238:182,1,285.000010871888,2|8,1:0|1:0,0:0:0:0:
113,258,109321,2,0,B|139:227|139:227|122:153,1,106.875004076958,2|0,1:0|0:0,0:0:0:0:
102,87,109480,6,0,L|56:100,1,42.7499986953736,12|0,1:0|0:0,0:0:0:0:
87,8,109639,2,0,L|41:21,1,42.7499986953736,4|0,1:0|0:0,0:0:0:0:
220,248,109798,6,0,L|266:261,1,42.7499986953736,12|0,1:0|0:0,0:0:0:0:
235,169,109957,2,0,L|281:182,1,42.7499986953736,4|0,1:0|0:0,0:0:0:0:
470,265,110116,6,0,B|509:279|523:245|531:206|449:139|411:257|434:268|349:277,1,237.500009059906,2|0,1:0|0:0,0:0:0:0:
149,281,110594,2,0,B|221:272|221:272|262:308|262:308|268:321|268:321|323:372|323:372|394:363,1,285.000010871888,2|2,1:0|1:0,0:0:0:0:
480,382,111071,6,0,B|484:357|484:357|468:325,1,47.5,8|0,1:0|0:0,0:0:0:0:
361,246,111230,2,0,B|357:271|357:271|373:303,1,47.5,8|0,1:0|0:0,0:0:0:0:
512,244,111390,6,0,L|439:258,1,71.2500027179719,2|0,1:0|0:0,0:0:0:0:
288,90,111549,2,0,L|361:104,1,71.2500027179719,2|0,1:0|0:0,0:0:0:0:
493,232,111708,6,0,L|429:244,1,35.625001358986,8|0,1:0|0:0,0:0:0:0:
306,109,111867,2,0,L|369:121,1,35.625001358986,8|0,1:0|0:0,0:0:0:0:
493,35,112026,6,0,B|451:72|451:72|442:172,1,142.500005435944,8|2,1:0|1:0,0:0:0:0:
310,205,112344,2,0,B|352:242|352:242|361:342,1,142.500005435944,0|8,1:0|1:0,0:0:0:0:
244,359,112663,6,0,B|164:394|103:322|134:301|69:226|-18:276,1,285.000010871888,2|0,1:0|0:0,0:0:0:0:
210,279,113140,2,0,B|265:212|262:126|233:92|147:72|136:167|180:197,1,285.000010871888,2|0,1:0|1:0,0:0:0:0:
164,179,113618,6,0,L|242:166,1,71.25,0|0,1:0|0:0,0:0:0:0:
309,56,113936,6,0,B|342:49|369:25|369:25|318:102|317:187|317:187|334:157|367:143,1,285.000010871888,2|0,1:0|1:0,0:0:0:0:
449,188,114334,2,0,P|411:207|361:292,1,142.500005435944
431,380,114573,6,0,L|422:337,1,35.625001358986,12|0,1:0|0:0,0:0:0:0:
499,324,114732,2,0,L|506:358,1,35.625001358986,4|0,1:0|0:0,0:0:0:0:
279,305,114891,6,0,L|288:262,1,35.625001358986,4|0,1:0|0:0,0:0:0:0:
211,249,115050,2,0,L|203:283,1,35.625001358986,4|0,1:0|0:0,0:0:0:0:
276,129,115209,6,0,B|311:175|311:175|221:152|221:152|215:153|215:153|146:136|146:136|106:185,1,285.000010871888,2|0,1:0|0:0,0:0:0:0:
0,96,115687,2,0,B|66:120|66:120|126:335,1,285.000010871888,2|2,1:0|1:0,0:0:0:0:
203,233,116164,6,0,L|250:223,1,47.5,8|0,1:0|0:0,0:0:0:0:
364,357,116323,2,0,L|411:347,1,47.5,0|0,1:0|0:0,0:0:0:0:
464,247,116482,5,2,1:0:0:0:
271,371,116642,1,2,1:0:0:0:
464,247,116801,6,0,L|462:209,1,35.625001358986,8|0,1:0|0:0,0:0:0:0:
271,371,116960,2,0,L|269:333,1,35.625001358986,8|0,1:0|0:0,0:0:0:0:
238,108,117119,5,2,1:0:0:0:
177,158,117198,1,2,1:0:0:0:
203,233,117278,1,2,1:0:0:0:
282,234,117357,1,2,1:0:0:0:
311,161,117437,5,2,0:0:0:0:
303,159,117516,1,2,0:0:0:0:
296,158,117596,1,2,0:0:0:0:
289,157,117675,1,2,0:0:0:0:
282,156,117755,5,4,0:0:0:0:
