osu file format v14

[General]
AudioFilename: audio.mp3
AudioLeadIn: 0
PreviewTime: 23412
Countdown: 0
SampleSet: Soft
StackLeniency: 0.7
Mode: 3
LetterboxInBreaks: 0
SpecialStyle: 0
WidescreenStoryboard: 0

[Editor]
DistanceSpacing: 0.8
BeatDivisor: 4
GridSize: 16
TimelineZoom: 2.1

[Metadata]
Title:Angry Birds Epic (Remix)
TitleUnicode:Angry Birds Epic (Remix)
Artist:Thaehan
ArtistUnicode:Thaehan
Creator:HimitsuHiketsu
Version:You Call That a Stick?
Source:
Tags:featured artist fa mappers' guild mg mpg speedrank specialist priority quest electronic video game music vgm instrumental OMGWTF ! OMGWTF! loki henri sorvali you call that a stick? original game soundtrack chimera rovio entertainment mobile rpg role-playing
BeatmapID:4459742
BeatmapSetID:2122318

[Difficulty]
HPDrainRate:8
CircleSize:4
OverallDifficulty:8
ApproachRate:5
SliderMultiplier:1.4
SliderTickRate:1

[Events]
//Background and Video events
0,0,"boris-smokrovic-RLLR0oRz16Y-unsplash.jpg",0,0
//Break Periods
//Storyboard Layer 0 (Background)
//Storyboard Layer 1 (Fail)
//Storyboard Layer 2 (Pass)
//Storyboard Layer 3 (Foreground)
//Storyboard Layer 4 (Overlay)
//Storyboard Sound Samples

[TimingPoints]
6544,307.692307692308,4,2,1,25,1,0
12698,-100,4,2,1,50,0,0
13929,-100,4,2,1,75,0,0
23774,-100,4,2,1,75,0,1
33620,-100,4,2,1,75,0,0
53313,-100,4,2,1,75,0,1
71774,-100,4,2,1,75,0,0

[HitObjects]
448,192,6544,128,0,6697:0:0:0:0:
320,192,6544,128,0,6697:0:0:0:0:
192,192,6851,128,0,7005:0:0:0:0:
448,192,6851,128,0,7005:0:0:0:0:
448,192,7159,128,0,7467:0:0:0:0:
64,192,7159,128,0,7313:0:0:0:0:
64,192,7467,128,0,7544:0:0:0:0:
192,192,7620,128,0,7697:0:0:0:0:
64,192,7774,128,0,7851:0:0:0:0:
320,192,7928,128,0,8005:0:0:0:0:
192,192,8082,128,0,8159:0:0:0:0:
64,192,8082,128,0,8159:0:0:0:0:
192,192,8236,128,0,8313:0:0:0:0:
320,192,8236,128,0,8313:0:0:0:0:
320,192,8390,128,0,8544:0:0:0:0:
448,192,8390,128,0,8544:0:0:0:0:
64,192,8390,128,0,8544:0:0:0:0:
192,192,8697,128,0,8851:0:0:0:0:
64,192,8697,128,0,9005:0:0:0:0:
448,192,8851,128,0,8928:0:0:0:0:
320,192,8928,128,0,9005:0:0:0:0:
192,192,9005,128,0,9082:0:0:0:0:
448,192,9005,128,0,9159:0:0:0:0:
320,192,9313,128,0,9390:0:0:0:0:
448,192,9313,128,0,9390:0:0:0:0:
192,192,9467,1,0,0:0:0:0:
64,192,9467,128,0,9620:0:0:0:0:
192,192,9928,128,0,10005:0:0:0:0:
320,192,9928,128,0,10005:0:0:0:0:
320,192,10236,1,0,0:0:0:0:
64,192,10236,128,0,10313:0:0:0:0:
192,192,10390,1,0,0:0:0:0:
448,192,10544,128,0,10620:0:0:0:0:
64,192,10544,128,0,10620:0:0:0:0:
192,192,10697,1,0,0:0:0:0:
320,192,10697,128,0,10851:0:0:0:0:
320,192,11159,128,0,11236:0:0:0:0:
192,192,11159,128,0,11236:0:0:0:0:
448,192,11467,128,0,11544:0:0:0:0:
64,192,11467,128,0,11851:0:0:0:0:
320,192,11774,128,0,11851:0:0:0:0:
448,192,11774,128,0,11851:0:0:0:0:
64,192,11928,1,0,0:0:0:0:
192,192,11928,128,0,12082:0:0:0:0:
448,192,12390,128,0,12467:0:0:0:0:
64,192,12390,128,0,12467:0:0:0:0:
320,192,12544,1,0,0:0:0:0:
192,192,12620,1,0,0:0:0:0:
320,192,12697,1,0,0:0:0:0:
448,192,12697,1,0,0:0:0:0:
192,192,12851,1,0,0:0:0:0:
64,192,12851,1,0,0:0:0:0:
64,192,13005,1,0,0:0:0:0:
448,192,13005,1,0,0:0:0:0:
320,192,13082,1,0,0:0:0:0:
192,192,13159,1,0,0:0:0:0:
64,192,13159,1,0,0:0:0:0:
320,192,13236,1,0,0:0:0:0:
192,192,13313,1,0,0:0:0:0:
448,192,13313,1,0,0:0:0:0:
64,192,13467,1,0,0:0:0:0:
320,192,13467,1,0,0:0:0:0:
192,192,13620,1,0,0:0:0:0:
64,192,13620,1,0,0:0:0:0:
448,192,13620,1,0,0:0:0:0:
192,192,13774,128,0,13851:0:0:0:0:
320,192,13851,128,0,13928:0:0:0:0:
192,192,13928,5,0,0:0:0:0:
64,192,13928,1,0,0:0:0:0:
448,192,13928,1,0,0:0:0:0:
64,192,14082,128,0,14236:0:0:0:0:
192,192,14159,128,0,14236:0:0:0:0:
448,192,14236,128,0,14313:0:0:0:0:
448,192,14390,128,0,14467:0:0:0:0:
320,192,14390,1,0,0:0:0:0:
64,192,14544,128,0,14697:0:0:0:0:
192,192,14582,128,0,14774:0:0:0:0:
320,192,14620,128,0,14851:0:0:0:0:
64,192,14851,1,0,0:0:0:0:
192,192,14851,1,0,0:0:0:0:
448,192,14851,128,0,14928:0:0:0:0:
192,192,15005,128,0,15082:0:0:0:0:
448,192,15159,1,0,0:0:0:0:
64,192,15159,1,0,0:0:0:0:
320,192,15313,128,0,15467:0:0:0:0:
192,192,15390,128,0,15467:0:0:0:0:
64,192,15467,1,0,0:0:0:0:
448,192,15467,1,0,0:0:0:0:
448,192,15620,1,0,0:0:0:0:
320,192,15620,1,0,0:0:0:0:
64,192,15774,128,0,15928:0:0:0:0:
192,192,15813,128,0,16005:0:0:0:0:
320,192,15851,128,0,16082:0:0:0:0:
448,192,16082,1,0,0:0:0:0:
64,192,16082,1,0,0:0:0:0:
192,192,16082,128,0,16159:0:0:0:0:
192,192,16236,128,0,16313:0:0:0:0:
448,192,16390,1,0,0:0:0:0:
64,192,16390,1,0,0:0:0:0:
448,192,16544,1,0,0:0:0:0:
64,192,16697,128,0,16774:0:0:0:0:
64,192,16851,128,0,16928:0:0:0:0:
192,192,16851,1,0,0:0:0:0:
448,192,17005,128,0,17159:0:0:0:0:
320,192,17044,128,0,17236:0:0:0:0:
192,192,17082,128,0,17313:0:0:0:0:
64,192,17313,128,0,17390:0:0:0:0:
320,192,17313,1,0,0:0:0:0:
448,192,17313,1,0,0:0:0:0:
448,192,17467,128,0,17544:0:0:0:0:
192,192,17620,1,0,0:0:0:0:
64,192,17620,1,0,0:0:0:0:
448,192,17774,128,0,17851:0:0:0:0:
64,192,17928,128,0,18005:0:0:0:0:
320,192,17928,128,0,18082:0:0:0:0:
64,192,18082,128,0,18159:0:0:0:0:
192,192,18082,128,0,18159:0:0:0:0:
448,192,18236,128,0,18313:0:0:0:0:
64,192,18236,128,0,18390:0:0:0:0:
448,192,18390,128,0,18467:0:0:0:0:
192,192,18390,128,0,18467:0:0:0:0:
320,192,18544,128,0,18620:0:0:0:0:
64,192,18544,1,0,0:0:0:0:
448,192,18544,128,0,18697:0:0:0:0:
192,192,18697,128,0,18774:0:0:0:0:
320,192,18697,128,0,18774:0:0:0:0:
192,192,18851,1,0,0:0:0:0:
448,192,18851,1,0,0:0:0:0:
64,192,18851,1,0,0:0:0:0:
448,192,19005,128,0,19159:0:0:0:0:
320,192,19082,128,0,19159:0:0:0:0:
64,192,19159,128,0,19236:0:0:0:0:
64,192,19313,128,0,19390:0:0:0:0:
192,192,19313,1,0,0:0:0:0:
448,192,19467,128,0,19620:0:0:0:0:
320,192,19505,128,0,19697:0:0:0:0:
192,192,19544,128,0,19774:0:0:0:0:
448,192,19774,1,0,0:0:0:0:
320,192,19774,1,0,0:0:0:0:
64,192,19774,128,0,19851:0:0:0:0:
320,192,19928,128,0,20005:0:0:0:0:
64,192,20082,1,0,0:0:0:0:
448,192,20082,1,0,0:0:0:0:
192,192,20236,128,0,20390:0:0:0:0:
320,192,20313,128,0,20390:0:0:0:0:
448,192,20390,1,0,0:0:0:0:
64,192,20390,1,0,0:0:0:0:
64,192,20544,1,0,0:0:0:0:
192,192,20544,1,0,0:0:0:0:
448,192,20697,128,0,20851:0:0:0:0:
320,192,20736,128,0,20928:0:0:0:0:
192,192,20774,128,0,21005:0:0:0:0:
64,192,21005,1,0,0:0:0:0:
448,192,21005,1,0,0:0:0:0:
320,192,21005,128,0,21082:0:0:0:0:
320,192,21159,128,0,21236:0:0:0:0:
64,192,21313,1,0,0:0:0:0:
448,192,21313,1,0,0:0:0:0:
64,192,21467,1,0,0:0:0:0:
448,192,21620,128,0,21697:0:0:0:0:
448,192,21774,128,0,21851:0:0:0:0:
320,192,21774,1,0,0:0:0:0:
64,192,21928,128,0,22082:0:0:0:0:
192,192,21967,128,0,22159:0:0:0:0:
320,192,22005,128,0,22236:0:0:0:0:
448,192,22236,128,0,22313:0:0:0:0:
192,192,22236,1,0,0:0:0:0:
64,192,22236,1,0,0:0:0:0:
64,192,22390,128,0,22467:0:0:0:0:
320,192,22544,1,0,0:0:0:0:
448,192,22544,1,0,0:0:0:0:
192,192,22697,1,0,0:0:0:0:
64,192,22697,1,0,0:0:0:0:
320,192,22851,1,0,0:0:0:0:
448,192,22851,1,0,0:0:0:0:
64,192,22928,1,0,0:0:0:0:
320,192,23005,1,0,0:0:0:0:
192,192,23005,1,0,0:0:0:0:
448,192,23082,1,0,0:0:0:0:
64,192,23159,1,0,0:0:0:0:
192,192,23159,1,0,0:0:0:0:
320,192,23467,1,0,0:0:0:0:
448,192,23467,1,0,0:0:0:0:
64,192,23467,128,0,23697:0:0:0:0:
192,192,23620,128,0,23697:0:0:0:0:
320,192,23697,128,0,23774:0:0:0:0:
448,192,23774,128,0,24082:0:0:0:0:
192,192,23774,1,0,0:0:0:0:
64,192,23774,1,0,0:0:0:0:
320,192,24082,128,0,24390:0:0:0:0:
64,192,24082,128,0,24159:0:0:0:0:
192,192,24236,1,0,0:0:0:0:
64,192,24236,128,0,24313:0:0:0:0:
192,192,24390,128,0,24697:0:0:0:0:
64,192,24390,1,0,0:0:0:0:
448,192,24390,1,0,0:0:0:0:
320,192,24697,128,0,24774:0:0:0:0:
448,192,24697,128,0,24774:0:0:0:0:
192,192,24851,128,0,24928:0:0:0:0:
64,192,25005,128,0,25082:0:0:0:0:
448,192,25005,128,0,25082:0:0:0:0:
320,192,25159,128,0,25236:0:0:0:0:
192,192,25313,128,0,25390:0:0:0:0:
64,192,25313,128,0,25390:0:0:0:0:
192,192,25467,128,0,25544:0:0:0:0:
448,192,25467,128,0,25544:0:0:0:0:
320,192,25620,128,0,25928:0:0:0:0:
448,192,25620,1,0,0:0:0:0:
64,192,25620,1,0,0:0:0:0:
192,192,25928,128,0,26005:0:0:0:0:
64,192,25928,128,0,26005:0:0:0:0:
448,192,26082,128,0,26159:0:0:0:0:
192,192,26082,128,0,26159:0:0:0:0:
320,192,26236,1,0,0:0:0:0:
64,192,26236,128,0,26544:0:0:0:0:
192,192,26544,128,0,26851:0:0:0:0:
448,192,26544,128,0,26620:0:0:0:0:
448,192,26697,128,0,26774:0:0:0:0:
320,192,26697,1,0,0:0:0:0:
448,192,26851,1,0,0:0:0:0:
320,192,26851,128,0,27159:0:0:0:0:
64,192,26851,128,0,26928:0:0:0:0:
192,192,27005,128,0,27082:0:0:0:0:
448,192,27159,128,0,27236:0:0:0:0:
64,192,27159,128,0,27236:0:0:0:0:
320,192,27313,128,0,27390:0:0:0:0:
64,192,27467,128,0,27544:0:0:0:0:
192,192,27467,128,0,27620:0:0:0:0:
64,192,27774,128,0,27851:0:0:0:0:
448,192,27774,128,0,27851:0:0:0:0:
64,192,27928,128,0,28005:0:0:0:0:
448,192,27928,128,0,28005:0:0:0:0:
192,192,28082,1,0,0:0:0:0:
64,192,28082,1,0,0:0:0:0:
320,192,28082,128,0,28544:0:0:0:0:
448,192,28236,128,0,28313:0:0:0:0:
448,192,28390,128,0,28467:0:0:0:0:
64,192,28390,128,0,28620:0:0:0:0:
192,192,28544,128,0,28620:0:0:0:0:
320,192,28620,128,0,28697:0:0:0:0:
448,192,28697,128,0,29005:0:0:0:0:
192,192,28697,1,0,0:0:0:0:
64,192,28697,1,0,0:0:0:0:
64,192,29005,128,0,29082:0:0:0:0:
320,192,29005,128,0,29313:0:0:0:0:
64,192,29159,128,0,29236:0:0:0:0:
192,192,29159,1,0,0:0:0:0:
448,192,29313,1,0,0:0:0:0:
64,192,29313,1,0,0:0:0:0:
192,192,29313,128,0,29620:0:0:0:0:
448,192,29620,128,0,29697:0:0:0:0:
320,192,29620,128,0,29697:0:0:0:0:
192,192,29774,128,0,29851:0:0:0:0:
448,192,29928,128,0,30005:0:0:0:0:
64,192,29928,128,0,30005:0:0:0:0:
320,192,30082,128,0,30159:0:0:0:0:
64,192,30236,128,0,30313:0:0:0:0:
192,192,30236,128,0,30313:0:0:0:0:
448,192,30390,128,0,30467:0:0:0:0:
192,192,30390,128,0,30467:0:0:0:0:
64,192,30544,1,0,0:0:0:0:
448,192,30544,1,0,0:0:0:0:
320,192,30544,128,0,30851:0:0:0:0:
64,192,30851,128,0,30928:0:0:0:0:
192,192,30851,128,0,30928:0:0:0:0:
448,192,31005,128,0,31082:0:0:0:0:
192,192,31005,128,0,31082:0:0:0:0:
64,192,31159,128,0,31467:0:0:0:0:
320,192,31159,1,0,0:0:0:0:
448,192,31467,128,0,31544:0:0:0:0:
192,192,31467,128,0,31774:0:0:0:0:
320,192,31620,1,0,0:0:0:0:
448,192,31620,128,0,31697:0:0:0:0:
64,192,31774,128,0,31851:0:0:0:0:
320,192,31774,128,0,32082:0:0:0:0:
448,192,31774,1,0,0:0:0:0:
192,192,31928,128,0,32005:0:0:0:0:
64,192,32082,128,0,32159:0:0:0:0:
448,192,32082,128,0,32159:0:0:0:0:
320,192,32236,128,0,32313:0:0:0:0:
192,192,32390,128,0,32544:0:0:0:0:
64,192,32390,128,0,32467:0:0:0:0:
448,192,32659,128,0,32774:0:0:0:0:
64,192,32697,128,0,32774:0:0:0:0:
192,192,32697,1,0,0:0:0:0:
64,192,32851,128,0,32928:0:0:0:0:
448,192,32851,1,0,0:0:0:0:
192,192,33005,128,0,33159:0:0:0:0:
320,192,33159,1,0,0:0:0:0:
448,192,33159,1,0,0:0:0:0:
192,192,33236,1,0,0:0:0:0:
64,192,33236,1,0,0:0:0:0:
320,192,33313,1,0,0:0:0:0:
448,192,33313,1,0,0:0:0:0:
320,192,33467,1,0,0:0:0:0:
192,192,33467,1,0,0:0:0:0:
192,192,33620,1,0,0:0:0:0:
64,192,33620,1,0,0:0:0:0:
448,192,33620,1,0,0:0:0:0:
64,192,33774,128,0,33928:0:0:0:0:
192,192,33851,128,0,33928:0:0:0:0:
448,192,33928,128,0,34005:0:0:0:0:
448,192,34082,128,0,34159:0:0:0:0:
320,192,34082,1,0,0:0:0:0:
64,192,34236,128,0,34390:0:0:0:0:
192,192,34274,128,0,34467:0:0:0:0:
320,192,34313,128,0,34544:0:0:0:0:
64,192,34544,1,0,0:0:0:0:
192,192,34544,1,0,0:0:0:0:
448,192,34544,128,0,34620:0:0:0:0:
192,192,34697,128,0,34774:0:0:0:0:
448,192,34851,1,0,0:0:0:0:
64,192,34851,1,0,0:0:0:0:
320,192,35005,128,0,35159:0:0:0:0:
192,192,35082,128,0,35159:0:0:0:0:
64,192,35159,1,0,0:0:0:0:
448,192,35159,1,0,0:0:0:0:
448,192,35313,1,0,0:0:0:0:
320,192,35313,1,0,0:0:0:0:
64,192,35467,128,0,35620:0:0:0:0:
192,192,35505,128,0,35697:0:0:0:0:
320,192,35544,128,0,35774:0:0:0:0:
448,192,35774,1,0,0:0:0:0:
64,192,35774,1,0,0:0:0:0:
192,192,35774,128,0,35851:0:0:0:0:
192,192,35928,128,0,36005:0:0:0:0:
448,192,36082,1,0,0:0:0:0:
64,192,36082,1,0,0:0:0:0:
448,192,36236,1,0,0:0:0:0:
64,192,36390,128,0,36467:0:0:0:0:
64,192,36544,128,0,36620:0:0:0:0:
192,192,36544,1,0,0:0:0:0:
448,192,36697,128,0,36851:0:0:0:0:
320,192,36736,128,0,36928:0:0:0:0:
192,192,36774,128,0,37005:0:0:0:0:
64,192,37005,128,0,37082:0:0:0:0:
320,192,37005,1,0,0:0:0:0:
448,192,37005,1,0,0:0:0:0:
448,192,37159,128,0,37236:0:0:0:0:
192,192,37313,1,0,0:0:0:0:
64,192,37313,1,0,0:0:0:0:
192,192,37467,128,0,37544:0:0:0:0:
448,192,37544,1,0,0:0:0:0:
320,192,37620,128,0,37697:0:0:0:0:
64,192,37697,1,0,0:0:0:0:
448,192,37774,128,0,37851:0:0:0:0:
320,192,37774,1,0,0:0:0:0:
192,192,37851,1,0,0:0:0:0:
320,192,37928,128,0,38005:0:0:0:0:
64,192,37928,1,0,0:0:0:0:
192,192,38082,128,0,38159:0:0:0:0:
64,192,38236,128,0,38313:0:0:0:0:
448,192,38236,1,0,0:0:0:0:
192,192,38236,1,0,0:0:0:0:
192,192,38390,128,0,38467:0:0:0:0:
320,192,38544,1,0,0:0:0:0:
448,192,38544,1,0,0:0:0:0:
64,192,38544,1,0,0:0:0:0:
448,192,38697,128,0,38851:0:0:0:0:
320,192,38774,128,0,38851:0:0:0:0:
64,192,38851,128,0,38928:0:0:0:0:
64,192,39005,128,0,39082:0:0:0:0:
192,192,39005,1,0,0:0:0:0:
448,192,39159,128,0,39313:0:0:0:0:
320,192,39197,128,0,39390:0:0:0:0:
192,192,39236,128,0,39467:0:0:0:0:
448,192,39467,1,0,0:0:0:0:
320,192,39467,1,0,0:0:0:0:
64,192,39467,128,0,39544:0:0:0:0:
320,192,39620,128,0,39697:0:0:0:0:
64,192,39774,1,0,0:0:0:0:
448,192,39774,1,0,0:0:0:0:
192,192,39928,128,0,40082:0:0:0:0:
320,192,40005,128,0,40082:0:0:0:0:
448,192,40082,1,0,0:0:0:0:
64,192,40082,1,0,0:0:0:0:
64,192,40236,1,0,0:0:0:0:
192,192,40236,1,0,0:0:0:0:
448,192,40390,128,0,40544:0:0:0:0:
320,192,40428,128,0,40620:0:0:0:0:
192,192,40467,128,0,40697:0:0:0:0:
64,192,40697,1,0,0:0:0:0:
448,192,40697,1,0,0:0:0:0:
320,192,40697,128,0,40774:0:0:0:0:
320,192,40851,128,0,40928:0:0:0:0:
64,192,41005,1,0,0:0:0:0:
448,192,41005,1,0,0:0:0:0:
64,192,41159,1,0,0:0:0:0:
448,192,41313,128,0,41390:0:0:0:0:
448,192,41467,128,0,41544:0:0:0:0:
320,192,41467,1,0,0:0:0:0:
64,192,41620,128,0,41774:0:0:0:0:
192,192,41659,128,0,41851:0:0:0:0:
320,192,41697,128,0,41928:0:0:0:0:
448,192,41928,128,0,42005:0:0:0:0:
192,192,41928,1,0,0:0:0:0:
64,192,41928,1,0,0:0:0:0:
64,192,42082,128,0,42159:0:0:0:0:
320,192,42236,1,0,0:0:0:0:
448,192,42236,1,0,0:0:0:0:
320,192,42544,128,0,42620:0:0:0:0:
192,192,42544,1,0,0:0:0:0:
448,192,42544,1,0,0:0:0:0:
320,192,42697,128,0,42774:0:0:0:0:
64,192,42697,1,0,0:0:0:0:
64,192,42851,128,0,42928:0:0:0:0:
192,192,42890,128,0,43005:0:0:0:0:
320,192,43005,1,0,0:0:0:0:
448,192,43005,1,0,0:0:0:0:
192,192,43082,1,0,0:0:0:0:
64,192,43082,1,0,0:0:0:0:
320,192,43159,1,0,0:0:0:0:
448,192,43159,1,0,0:0:0:0:
320,192,43313,1,0,0:0:0:0:
192,192,43313,1,0,0:0:0:0:
192,192,43467,1,0,0:0:0:0:
64,192,43467,1,0,0:0:0:0:
448,192,43467,1,0,0:0:0:0:
64,192,43620,128,0,43774:0:0:0:0:
192,192,43697,128,0,43774:0:0:0:0:
448,192,43774,128,0,43851:0:0:0:0:
448,192,43928,128,0,44005:0:0:0:0:
320,192,43928,1,0,0:0:0:0:
64,192,44082,128,0,44236:0:0:0:0:
192,192,44120,128,0,44313:0:0:0:0:
320,192,44159,128,0,44390:0:0:0:0:
64,192,44390,1,0,0:0:0:0:
192,192,44390,1,0,0:0:0:0:
448,192,44390,128,0,44467:0:0:0:0:
192,192,44544,128,0,44620:0:0:0:0:
448,192,44697,1,0,0:0:0:0:
64,192,44697,1,0,0:0:0:0:
320,192,44851,128,0,45005:0:0:0:0:
192,192,44928,128,0,45005:0:0:0:0:
64,192,45005,1,0,0:0:0:0:
448,192,45005,1,0,0:0:0:0:
448,192,45159,1,0,0:0:0:0:
320,192,45159,1,0,0:0:0:0:
64,192,45313,128,0,45467:0:0:0:0:
192,192,45351,128,0,45544:0:0:0:0:
320,192,45390,128,0,45620:0:0:0:0:
448,192,45620,1,0,0:0:0:0:
64,192,45620,1,0,0:0:0:0:
192,192,45620,128,0,45697:0:0:0:0:
192,192,45774,128,0,45851:0:0:0:0:
448,192,45928,1,0,0:0:0:0:
64,192,45928,1,0,0:0:0:0:
448,192,46082,1,0,0:0:0:0:
64,192,46236,128,0,46313:0:0:0:0:
64,192,46390,128,0,46467:0:0:0:0:
192,192,46390,1,0,0:0:0:0:
448,192,46544,128,0,46697:0:0:0:0:
320,192,46582,128,0,46774:0:0:0:0:
192,192,46620,128,0,46851:0:0:0:0:
64,192,46851,128,0,46928:0:0:0:0:
320,192,46851,1,0,0:0:0:0:
448,192,46851,1,0,0:0:0:0:
448,192,47005,128,0,47082:0:0:0:0:
192,192,47159,1,0,0:0:0:0:
64,192,47159,1,0,0:0:0:0:
192,192,47313,128,0,47390:0:0:0:0:
320,192,47467,128,0,47544:0:0:0:0:
448,192,47620,128,0,47697:0:0:0:0:
64,192,47620,1,0,0:0:0:0:
320,192,47774,128,0,47851:0:0:0:0:
64,192,47774,128,0,48005:0:0:0:0:
192,192,47928,128,0,48005:0:0:0:0:
320,192,48005,1,0,0:0:0:0:
64,192,48082,128,0,48159:0:0:0:0:
448,192,48082,1,0,0:0:0:0:
192,192,48082,1,0,0:0:0:0:
320,192,48236,128,0,48313:0:0:0:0:
192,192,48390,1,0,0:0:0:0:
448,192,48390,1,0,0:0:0:0:
64,192,48390,1,0,0:0:0:0:
448,192,48544,128,0,48697:0:0:0:0:
320,192,48620,128,0,48697:0:0:0:0:
64,192,48697,128,0,48774:0:0:0:0:
64,192,48851,128,0,48928:0:0:0:0:
192,192,48851,1,0,0:0:0:0:
448,192,49005,128,0,49159:0:0:0:0:
320,192,49044,128,0,49236:0:0:0:0:
192,192,49082,128,0,49313:0:0:0:0:
448,192,49313,1,0,0:0:0:0:
320,192,49313,1,0,0:0:0:0:
64,192,49313,128,0,49390:0:0:0:0:
320,192,49467,128,0,49544:0:0:0:0:
64,192,49620,1,0,0:0:0:0:
448,192,49620,1,0,0:0:0:0:
192,192,49774,128,0,49928:0:0:0:0:
320,192,49851,128,0,49928:0:0:0:0:
448,192,49928,1,0,0:0:0:0:
64,192,49928,1,0,0:0:0:0:
64,192,50082,1,0,0:0:0:0:
192,192,50082,1,0,0:0:0:0:
448,192,50236,128,0,50390:0:0:0:0:
320,192,50274,128,0,50467:0:0:0:0:
192,192,50313,128,0,50544:0:0:0:0:
64,192,50544,1,0,0:0:0:0:
448,192,50544,1,0,0:0:0:0:
320,192,50544,128,0,50620:0:0:0:0:
320,192,50697,128,0,50774:0:0:0:0:
64,192,50851,1,0,0:0:0:0:
448,192,50851,1,0,0:0:0:0:
64,192,51005,1,0,0:0:0:0:
192,192,51082,1,0,0:0:0:0:
448,192,51159,128,0,51236:0:0:0:0:
448,192,51313,128,0,51390:0:0:0:0:
320,192,51313,1,0,0:0:0:0:
64,192,51467,128,0,51620:0:0:0:0:
192,192,51505,128,0,51697:0:0:0:0:
320,192,51544,128,0,51774:0:0:0:0:
448,192,51774,128,0,51851:0:0:0:0:
192,192,51774,1,0,0:0:0:0:
64,192,51774,1,0,0:0:0:0:
64,192,51928,128,0,52005:0:0:0:0:
320,192,52082,1,0,0:0:0:0:
448,192,52082,1,0,0:0:0:0:
192,192,52236,1,0,0:0:0:0:
64,192,52236,1,0,0:0:0:0:
320,192,52390,1,0,0:0:0:0:
448,192,52390,1,0,0:0:0:0:
64,192,52467,1,0,0:0:0:0:
192,192,52544,1,0,0:0:0:0:
320,192,52544,1,0,0:0:0:0:
448,192,52620,1,0,0:0:0:0:
192,192,52697,1,0,0:0:0:0:
64,192,52697,1,0,0:0:0:0:
320,192,52851,1,0,0:0:0:0:
192,192,52928,1,0,0:0:0:0:
320,192,53005,1,0,0:0:0:0:
448,192,53005,1,0,0:0:0:0:
64,192,53005,128,0,53236:0:0:0:0:
192,192,53159,128,0,53236:0:0:0:0:
320,192,53236,128,0,53313:0:0:0:0:
448,192,53313,128,0,53620:0:0:0:0:
192,192,53313,1,0,0:0:0:0:
64,192,53313,1,0,0:0:0:0:
320,192,53620,128,0,53928:0:0:0:0:
64,192,53620,128,0,53697:0:0:0:0:
192,192,53774,1,0,0:0:0:0:
64,192,53774,128,0,53851:0:0:0:0:
192,192,53928,128,0,54236:0:0:0:0:
64,192,53928,1,0,0:0:0:0:
448,192,53928,1,0,0:0:0:0:
320,192,54236,128,0,54313:0:0:0:0:
448,192,54236,128,0,54313:0:0:0:0:
192,192,54390,128,0,54467:0:0:0:0:
64,192,54544,128,0,54620:0:0:0:0:
448,192,54544,128,0,54620:0:0:0:0:
320,192,54697,128,0,54774:0:0:0:0:
192,192,54851,128,0,54928:0:0:0:0:
64,192,54851,128,0,54928:0:0:0:0:
192,192,55005,128,0,55082:0:0:0:0:
448,192,55005,128,0,55082:0:0:0:0:
320,192,55159,128,0,55467:0:0:0:0:
448,192,55159,1,0,0:0:0:0:
64,192,55159,1,0,0:0:0:0:
192,192,55467,128,0,55544:0:0:0:0:
64,192,55467,128,0,55544:0:0:0:0:
448,192,55620,128,0,55697:0:0:0:0:
192,192,55620,128,0,55697:0:0:0:0:
320,192,55774,1,0,0:0:0:0:
64,192,55774,128,0,56082:0:0:0:0:
192,192,56082,128,0,56390:0:0:0:0:
448,192,56082,128,0,56159:0:0:0:0:
448,192,56236,128,0,56313:0:0:0:0:
320,192,56236,1,0,0:0:0:0:
448,192,56390,1,0,0:0:0:0:
320,192,56390,128,0,56697:0:0:0:0:
64,192,56390,128,0,56467:0:0:0:0:
192,192,56544,128,0,56620:0:0:0:0:
448,192,56697,128,0,56774:0:0:0:0:
64,192,56697,128,0,56774:0:0:0:0:
320,192,56851,128,0,56928:0:0:0:0:
64,192,57005,128,0,57082:0:0:0:0:
192,192,57005,128,0,57159:0:0:0:0:
64,192,57313,128,0,57390:0:0:0:0:
448,192,57313,128,0,57390:0:0:0:0:
64,192,57467,128,0,57544:0:0:0:0:
448,192,57467,128,0,57544:0:0:0:0:
192,192,57620,1,0,0:0:0:0:
64,192,57620,1,0,0:0:0:0:
320,192,57620,128,0,58082:0:0:0:0:
448,192,57774,128,0,57851:0:0:0:0:
448,192,57928,128,0,58005:0:0:0:0:
64,192,57928,128,0,58159:0:0:0:0:
192,192,58082,128,0,58159:0:0:0:0:
320,192,58159,128,0,58236:0:0:0:0:
448,192,58236,128,0,58544:0:0:0:0:
192,192,58236,1,0,0:0:0:0:
64,192,58236,1,0,0:0:0:0:
64,192,58544,128,0,58620:0:0:0:0:
320,192,58544,128,0,58851:0:0:0:0:
64,192,58697,128,0,58774:0:0:0:0:
192,192,58697,1,0,0:0:0:0:
448,192,58851,1,0,0:0:0:0:
64,192,58851,1,0,0:0:0:0:
192,192,58851,128,0,59159:0:0:0:0:
448,192,59159,128,0,59236:0:0:0:0:
320,192,59159,128,0,59236:0:0:0:0:
192,192,59313,128,0,59390:0:0:0:0:
448,192,59467,128,0,59544:0:0:0:0:
64,192,59467,128,0,59544:0:0:0:0:
320,192,59620,128,0,59697:0:0:0:0:
64,192,59774,128,0,59851:0:0:0:0:
192,192,59774,128,0,59851:0:0:0:0:
448,192,59928,128,0,60005:0:0:0:0:
192,192,59928,128,0,60005:0:0:0:0:
64,192,60082,1,0,0:0:0:0:
448,192,60082,1,0,0:0:0:0:
320,192,60082,128,0,60390:0:0:0:0:
64,192,60390,128,0,60467:0:0:0:0:
192,192,60390,128,0,60467:0:0:0:0:
448,192,60544,128,0,60620:0:0:0:0:
192,192,60544,128,0,60620:0:0:0:0:
64,192,60697,128,0,61005:0:0:0:0:
320,192,60697,1,0,0:0:0:0:
448,192,61005,128,0,61082:0:0:0:0:
192,192,61005,128,0,61313:0:0:0:0:
320,192,61159,1,0,0:0:0:0:
448,192,61159,128,0,61236:0:0:0:0:
64,192,61313,128,0,61390:0:0:0:0:
320,192,61313,128,0,61620:0:0:0:0:
448,192,61313,1,0,0:0:0:0:
192,192,61467,128,0,61544:0:0:0:0:
64,192,61620,128,0,61697:0:0:0:0:
448,192,61620,128,0,61697:0:0:0:0:
320,192,61774,128,0,61851:0:0:0:0:
192,192,61928,128,0,62082:0:0:0:0:
64,192,61928,128,0,62005:0:0:0:0:
448,192,62197,128,0,62313:0:0:0:0:
64,192,62236,128,0,62313:0:0:0:0:
192,192,62236,1,0,0:0:0:0:
64,192,62390,128,0,62467:0:0:0:0:
448,192,62390,1,0,0:0:0:0:
64,192,62697,1,0,0:0:0:0:
448,192,62697,1,0,0:0:0:0:
320,192,62774,1,0,0:0:0:0:
448,192,62851,128,0,63082:0:0:0:0:
192,192,62851,1,0,0:0:0:0:
320,192,63005,128,0,63082:0:0:0:0:
64,192,63005,1,0,0:0:0:0:
192,192,63082,128,0,63159:0:0:0:0:
64,192,63159,128,0,63467:0:0:0:0:
320,192,63159,1,0,0:0:0:0:
448,192,63159,1,0,0:0:0:0:
192,192,63467,128,0,63774:0:0:0:0:
448,192,63467,128,0,63544:0:0:0:0:
320,192,63620,1,0,0:0:0:0:
448,192,63620,128,0,63697:0:0:0:0:
448,192,63774,1,0,0:0:0:0:
64,192,63774,1,0,0:0:0:0:
320,192,63774,128,0,64390:0:0:0:0:
64,192,64082,128,0,64159:0:0:0:0:
448,192,64082,128,0,64159:0:0:0:0:
192,192,64236,128,0,64313:0:0:0:0:
64,192,64390,128,0,64467:0:0:0:0:
448,192,64390,128,0,64544:0:0:0:0:
320,192,64544,128,0,64620:0:0:0:0:
448,192,64697,128,0,64774:0:0:0:0:
64,192,64697,128,0,64774:0:0:0:0:
320,192,64851,128,0,64928:0:0:0:0:
64,192,64851,128,0,64928:0:0:0:0:
192,192,65005,128,0,65313:0:0:0:0:
64,192,65005,1,0,0:0:0:0:
448,192,65005,1,0,0:0:0:0:
320,192,65313,128,0,65390:0:0:0:0:
448,192,65313,128,0,65390:0:0:0:0:
64,192,65467,128,0,65544:0:0:0:0:
192,192,65620,1,0,0:0:0:0:
448,192,65620,128,0,65928:0:0:0:0:
320,192,65928,128,0,66236:0:0:0:0:
64,192,65928,128,0,66005:0:0:0:0:
64,192,66082,128,0,66159:0:0:0:0:
192,192,66082,1,0,0:0:0:0:
64,192,66236,1,0,0:0:0:0:
448,192,66236,128,0,66313:0:0:0:0:
192,192,66236,128,0,66697:0:0:0:0:
320,192,66390,128,0,66467:0:0:0:0:
64,192,66544,128,0,66620:0:0:0:0:
320,192,66697,128,0,66774:0:0:0:0:
192,192,66774,128,0,66851:0:0:0:0:
448,192,66851,128,0,66928:0:0:0:0:
64,192,66851,128,0,67159:0:0:0:0:
448,192,67159,128,0,67390:0:0:0:0:
320,192,67159,128,0,67236:0:0:0:0:
192,192,67236,128,0,67467:0:0:0:0:
320,192,67467,128,0,67544:0:0:0:0:
64,192,67467,1,0,0:0:0:0:
448,192,67467,1,0,0:0:0:0:
192,192,67620,128,0,67697:0:0:0:0:
64,192,67774,128,0,67851:0:0:0:0:
448,192,67774,128,0,68005:0:0:0:0:
320,192,67928,128,0,68005:0:0:0:0:
192,192,68005,128,0,68082:0:0:0:0:
64,192,68082,128,0,68390:0:0:0:0:
320,192,68082,1,0,0:0:0:0:
448,192,68082,1,0,0:0:0:0:
448,192,68390,128,0,68467:0:0:0:0:
192,192,68390,128,0,68697:0:0:0:0:
448,192,68544,128,0,68620:0:0:0:0:
320,192,68544,1,0,0:0:0:0:
64,192,68697,1,0,0:0:0:0:
448,192,68697,1,0,0:0:0:0:
320,192,68697,128,0,69005:0:0:0:0:
64,192,69005,128,0,69082:0:0:0:0:
192,192,69005,128,0,69082:0:0:0:0:
320,192,69159,128,0,69236:0:0:0:0:
192,192,69159,128,0,69236:0:0:0:0:
64,192,69313,128,0,69390:0:0:0:0:
448,192,69313,128,0,69390:0:0:0:0:
64,192,69467,128,0,69544:0:0:0:0:
448,192,69620,128,0,69697:0:0:0:0:
320,192,69620,128,0,69697:0:0:0:0:
64,192,69774,128,0,69851:0:0:0:0:
320,192,69774,128,0,69851:0:0:0:0:
448,192,69928,1,0,0:0:0:0:
64,192,69928,1,0,0:0:0:0:
192,192,69928,128,0,70236:0:0:0:0:
448,192,70236,128,0,70313:0:0:0:0:
320,192,70236,128,0,70313:0:0:0:0:
64,192,70390,128,0,70467:0:0:0:0:
448,192,70544,128,0,70851:0:0:0:0:
192,192,70544,1,0,0:0:0:0:
64,192,70851,128,0,70928:0:0:0:0:
320,192,70851,128,0,71159:0:0:0:0:
192,192,71005,1,0,0:0:0:0:
64,192,71005,128,0,71082:0:0:0:0:
448,192,71159,128,0,71236:0:0:0:0:
64,192,71159,1,0,0:0:0:0:
192,192,71159,1,0,0:0:0:0:
320,192,71313,128,0,71390:0:0:0:0:
448,192,71313,1,0,0:0:0:0:
64,192,71467,128,0,71544:0:0:0:0:
192,192,71467,1,0,0:0:0:0:
192,192,71620,128,0,71697:0:0:0:0:
320,192,71620,1,0,0:0:0:0:
64,192,71774,128,0,71928:0:0:0:0:
320,192,71774,128,0,71928:0:0:0:0:
448,192,71774,128,0,71928:0:0:0:0:
