osu file format v14

[General]
AudioFilename: audio.mp3
AudioLeadIn: 0
PreviewTime: 23412
Countdown: 0
SampleSet: Soft
StackLeniency: 0.7
Mode: 3
LetterboxInBreaks: 0
SpecialStyle: 0
WidescreenStoryboard: 1

[Editor]
DistanceSpacing: 0.8
BeatDivisor: 4
GridSize: 16
TimelineZoom: 1.2

[Metadata]
Title:Angry Birds Epic (Remix)
TitleUnicode:Angry Birds Epic (Remix)
Artist:Thaehan
ArtistUnicode:Thaehan
Creator:HimitsuHiketsu
Version:Normal
Source:
Tags:featured artist fa mappers' guild mg mpg speedrank specialist priority quest electronic video game music vgm instrumental OMGWTF ! OMGWTF! loki henri sorvali you call that a stick? original game soundtrack chimera rovio entertainment mobile rpg role-playing
BeatmapID:4459741
BeatmapSetID:2122318

[Difficulty]
HPDrainRate:7
CircleSize:4
OverallDifficulty:7
ApproachRate:5
SliderMultiplier:1.4
SliderTickRate:1

[Events]
//Background and Video events
0,0,"boris-smokrovic-RLLR0oRz16Y-unsplash.jpg",0,0
//Break Periods
//Storyboard Layer 0 (Background)
//Storyboard Layer 1 (Fail)
//Storyboard Layer 2 (Pass)
//Storyboard Layer 3 (Foreground)
//Storyboard Layer 4 (Overlay)
//Storyboard Sound Samples

[TimingPoints]
6544,307.692307692308,4,2,1,25,1,0
12698,-100,4,2,1,50,0,0
13929,-100,4,2,1,75,0,0
23774,-100,4,2,1,75,0,1
33620,-100,4,2,1,75,0,0
53313,-100,4,2,1,75,0,1
71774,-100,4,2,1,75,0,0

[HitObjects]
320,192,6544,5,0,0:0:0:0:
448,192,6544,1,0,0:0:0:0:
192,192,6851,1,0,0:0:0:0:
64,192,7159,128,0,7467:0:0:0:0:
320,192,7467,1,0,0:0:0:0:
192,192,7620,1,0,0:0:0:0:
448,192,7774,1,0,0:0:0:0:
64,192,7928,1,0,0:0:0:0:
192,192,8082,1,0,0:0:0:0:
320,192,8236,1,0,0:0:0:0:
64,192,8390,1,0,0:0:0:0:
448,192,8390,1,0,0:0:0:0:
192,192,8697,128,0,9005:0:0:0:0:
320,192,9005,1,0,0:0:0:0:
64,192,9005,1,0,0:0:0:0:
448,192,9313,1,0,0:0:0:0:
192,192,9467,1,0,0:0:0:0:
320,192,9928,1,0,0:0:0:0:
64,192,9928,1,0,0:0:0:0:
448,192,10236,1,0,0:0:0:0:
192,192,10544,1,0,0:0:0:0:
320,192,10697,1,0,0:0:0:0:
64,192,11159,1,0,0:0:0:0:
448,192,11159,1,0,0:0:0:0:
192,192,11467,128,0,12697:0:0:0:0:
64,192,11774,1,0,0:0:0:0:
320,192,11928,1,0,0:0:0:0:
448,192,12390,1,0,0:0:0:0:
320,192,12697,1,0,0:0:0:0:
64,192,12851,1,0,0:0:0:0:
448,192,13005,1,0,0:0:0:0:
192,192,13159,1,0,0:0:0:0:
320,192,13236,1,0,0:0:0:0:
448,192,13313,1,0,0:0:0:0:
64,192,13467,1,0,0:0:0:0:
192,192,13620,1,0,0:0:0:0:
320,192,13620,1,0,0:0:0:0:
64,192,13928,1,0,0:0:0:0:
448,192,13928,1,0,0:0:0:0:
320,192,14082,1,0,0:0:0:0:
64,192,14236,1,0,0:0:0:0:
64,192,14390,1,0,0:0:0:0:
320,192,14544,128,0,14851:0:0:0:0:
64,192,14851,1,0,0:0:0:0:
448,192,14851,1,0,0:0:0:0:
64,192,15159,1,0,0:0:0:0:
192,192,15313,1,0,0:0:0:0:
448,192,15467,1,0,0:0:0:0:
448,192,15620,1,0,0:0:0:0:
192,192,15774,128,0,16082:0:0:0:0:
64,192,16082,1,0,0:0:0:0:
448,192,16082,1,0,0:0:0:0:
448,192,16390,1,0,0:0:0:0:
320,192,16544,1,0,0:0:0:0:
192,192,16697,1,0,0:0:0:0:
192,192,16851,1,0,0:0:0:0:
448,192,17005,128,0,17313:0:0:0:0:
64,192,17313,1,0,0:0:0:0:
192,192,17313,1,0,0:0:0:0:
448,192,17620,1,0,0:0:0:0:
64,192,17774,1,0,0:0:0:0:
192,192,17928,1,0,0:0:0:0:
448,192,18082,1,0,0:0:0:0:
64,192,18236,1,0,0:0:0:0:
320,192,18390,1,0,0:0:0:0:
192,192,18544,1,0,0:0:0:0:
320,192,18697,1,0,0:0:0:0:
448,192,18851,1,0,0:0:0:0:
64,192,18851,1,0,0:0:0:0:
192,192,19005,1,0,0:0:0:0:
448,192,19159,1,0,0:0:0:0:
448,192,19313,1,0,0:0:0:0:
192,192,19467,128,0,19774:0:0:0:0:
448,192,19774,1,0,0:0:0:0:
64,192,19774,1,0,0:0:0:0:
448,192,20082,1,0,0:0:0:0:
320,192,20236,1,0,0:0:0:0:
64,192,20390,1,0,0:0:0:0:
64,192,20544,1,0,0:0:0:0:
320,192,20697,128,0,21005:0:0:0:0:
448,192,21005,1,0,0:0:0:0:
64,192,21005,1,0,0:0:0:0:
64,192,21313,1,0,0:0:0:0:
192,192,21467,1,0,0:0:0:0:
320,192,21620,1,0,0:0:0:0:
320,192,21774,1,0,0:0:0:0:
64,192,21928,128,0,22236:0:0:0:0:
448,192,22236,1,0,0:0:0:0:
320,192,22236,1,0,0:0:0:0:
192,192,22544,1,0,0:0:0:0:
64,192,22697,1,0,0:0:0:0:
320,192,22851,1,0,0:0:0:0:
192,192,23005,1,0,0:0:0:0:
320,192,23082,1,0,0:0:0:0:
448,192,23159,1,0,0:0:0:0:
64,192,23467,128,0,23774:0:0:0:0:
320,192,23467,1,0,0:0:0:0:
448,192,23774,128,0,24082:0:0:0:0:
192,192,23774,1,0,0:0:0:0:
320,192,24082,128,0,24236:0:0:0:0:
192,192,24236,1,0,0:0:0:0:
64,192,24390,128,0,24697:0:0:0:0:
448,192,24390,1,0,0:0:0:0:
320,192,24697,1,0,0:0:0:0:
192,192,24851,1,0,0:0:0:0:
448,192,25005,1,0,0:0:0:0:
64,192,25159,1,0,0:0:0:0:
320,192,25313,1,0,0:0:0:0:
448,192,25467,1,0,0:0:0:0:
192,192,25620,128,0,25928:0:0:0:0:
64,192,25620,1,0,0:0:0:0:
448,192,25928,1,0,0:0:0:0:
320,192,26082,1,0,0:0:0:0:
64,192,26236,128,0,26544:0:0:0:0:
448,192,26544,128,0,26697:0:0:0:0:
192,192,26697,1,0,0:0:0:0:
320,192,26851,1,0,0:0:0:0:
64,192,26851,1,0,0:0:0:0:
448,192,27005,1,0,0:0:0:0:
192,192,27159,1,0,0:0:0:0:
320,192,27313,1,0,0:0:0:0:
64,192,27467,1,0,0:0:0:0:
192,192,27774,1,0,0:0:0:0:
192,192,27928,1,0,0:0:0:0:
64,192,28082,1,0,0:0:0:0:
448,192,28082,1,0,0:0:0:0:
64,192,28390,128,0,28697:0:0:0:0:
448,192,28697,128,0,29005:0:0:0:0:
192,192,28697,1,0,0:0:0:0:
320,192,29005,128,0,29159:0:0:0:0:
192,192,29159,1,0,0:0:0:0:
64,192,29313,128,0,29620:0:0:0:0:
448,192,29313,1,0,0:0:0:0:
320,192,29620,1,0,0:0:0:0:
192,192,29774,1,0,0:0:0:0:
448,192,29928,1,0,0:0:0:0:
320,192,30082,1,0,0:0:0:0:
64,192,30236,1,0,0:0:0:0:
320,192,30390,1,0,0:0:0:0:
192,192,30544,128,0,30851:0:0:0:0:
64,192,30544,1,0,0:0:0:0:
320,192,30851,1,0,0:0:0:0:
448,192,31005,1,0,0:0:0:0:
64,192,31159,128,0,31467:0:0:0:0:
448,192,31467,128,0,31620:0:0:0:0:
192,192,31620,1,0,0:0:0:0:
64,192,31774,1,0,0:0:0:0:
320,192,31774,1,0,0:0:0:0:
448,192,31928,1,0,0:0:0:0:
192,192,32082,1,0,0:0:0:0:
320,192,32236,1,0,0:0:0:0:
64,192,32390,1,0,0:0:0:0:
320,192,32697,1,0,0:0:0:0:
448,192,32697,1,0,0:0:0:0:
192,192,32851,1,0,0:0:0:0:
64,192,33159,1,0,0:0:0:0:
192,192,33236,1,0,0:0:0:0:
320,192,33313,1,0,0:0:0:0:
192,192,33467,1,0,0:0:0:0:
64,192,33620,1,0,0:0:0:0:
448,192,33620,1,0,0:0:0:0:
320,192,33774,1,0,0:0:0:0:
64,192,33928,1,0,0:0:0:0:
64,192,34082,1,0,0:0:0:0:
320,192,34236,128,0,34544:0:0:0:0:
64,192,34544,1,0,0:0:0:0:
448,192,34544,1,0,0:0:0:0:
64,192,34851,1,0,0:0:0:0:
192,192,35005,1,0,0:0:0:0:
448,192,35159,1,0,0:0:0:0:
448,192,35313,1,0,0:0:0:0:
192,192,35467,128,0,35774:0:0:0:0:
64,192,35774,1,0,0:0:0:0:
448,192,35774,1,0,0:0:0:0:
448,192,36082,1,0,0:0:0:0:
320,192,36236,1,0,0:0:0:0:
192,192,36390,1,0,0:0:0:0:
192,192,36544,1,0,0:0:0:0:
448,192,36697,128,0,37005:0:0:0:0:
64,192,37005,1,0,0:0:0:0:
192,192,37005,1,0,0:0:0:0:
448,192,37313,1,0,0:0:0:0:
64,192,37467,1,0,0:0:0:0:
448,192,37620,1,0,0:0:0:0:
192,192,37774,1,0,0:0:0:0:
320,192,37928,1,0,0:0:0:0:
64,192,38082,1,0,0:0:0:0:
320,192,38236,1,0,0:0:0:0:
192,192,38390,1,0,0:0:0:0:
448,192,38544,1,0,0:0:0:0:
64,192,38544,1,0,0:0:0:0:
192,192,38697,1,0,0:0:0:0:
448,192,38851,1,0,0:0:0:0:
448,192,39005,1,0,0:0:0:0:
192,192,39159,128,0,39467:0:0:0:0:
448,192,39467,1,0,0:0:0:0:
64,192,39467,1,0,0:0:0:0:
448,192,39774,1,0,0:0:0:0:
320,192,39928,1,0,0:0:0:0:
64,192,40082,1,0,0:0:0:0:
64,192,40236,1,0,0:0:0:0:
320,192,40390,128,0,40697:0:0:0:0:
448,192,40697,1,0,0:0:0:0:
64,192,40697,1,0,0:0:0:0:
64,192,41005,1,0,0:0:0:0:
192,192,41159,1,0,0:0:0:0:
320,192,41313,1,0,0:0:0:0:
320,192,41467,1,0,0:0:0:0:
64,192,41620,128,0,41928:0:0:0:0:
448,192,41928,1,0,0:0:0:0:
320,192,41928,1,0,0:0:0:0:
192,192,42236,1,0,0:0:0:0:
64,192,42236,1,0,0:0:0:0:
320,192,42544,1,0,0:0:0:0:
448,192,42544,1,0,0:0:0:0:
192,192,42697,1,0,0:0:0:0:
64,192,43005,1,0,0:0:0:0:
192,192,43082,1,0,0:0:0:0:
320,192,43159,1,0,0:0:0:0:
192,192,43313,1,0,0:0:0:0:
64,192,43467,1,0,0:0:0:0:
448,192,43467,1,0,0:0:0:0:
320,192,43620,1,0,0:0:0:0:
64,192,43774,1,0,0:0:0:0:
64,192,43928,1,0,0:0:0:0:
320,192,44082,128,0,44390:0:0:0:0:
64,192,44390,1,0,0:0:0:0:
448,192,44390,1,0,0:0:0:0:
64,192,44697,1,0,0:0:0:0:
192,192,44851,1,0,0:0:0:0:
448,192,45005,1,0,0:0:0:0:
448,192,45159,1,0,0:0:0:0:
192,192,45313,128,0,45620:0:0:0:0:
64,192,45620,1,0,0:0:0:0:
448,192,45620,1,0,0:0:0:0:
448,192,45928,1,0,0:0:0:0:
320,192,46082,1,0,0:0:0:0:
192,192,46236,1,0,0:0:0:0:
192,192,46390,1,0,0:0:0:0:
448,192,46544,128,0,46851:0:0:0:0:
64,192,46851,1,0,0:0:0:0:
192,192,46851,1,0,0:0:0:0:
448,192,47159,1,0,0:0:0:0:
192,192,47313,1,0,0:0:0:0:
320,192,47467,1,0,0:0:0:0:
448,192,47620,1,0,0:0:0:0:
320,192,47774,1,0,0:0:0:0:
192,192,47928,1,0,0:0:0:0:
64,192,48082,1,0,0:0:0:0:
320,192,48236,1,0,0:0:0:0:
448,192,48390,1,0,0:0:0:0:
64,192,48390,1,0,0:0:0:0:
192,192,48544,1,0,0:0:0:0:
448,192,48697,1,0,0:0:0:0:
448,192,48851,1,0,0:0:0:0:
192,192,49005,128,0,49313:0:0:0:0:
448,192,49313,1,0,0:0:0:0:
64,192,49313,1,0,0:0:0:0:
448,192,49620,1,0,0:0:0:0:
320,192,49774,1,0,0:0:0:0:
64,192,49928,1,0,0:0:0:0:
64,192,50082,1,0,0:0:0:0:
320,192,50236,128,0,50544:0:0:0:0:
448,192,50544,1,0,0:0:0:0:
64,192,50544,1,0,0:0:0:0:
64,192,50851,1,0,0:0:0:0:
192,192,51005,1,0,0:0:0:0:
320,192,51159,1,0,0:0:0:0:
320,192,51313,1,0,0:0:0:0:
64,192,51467,128,0,51774:0:0:0:0:
448,192,51774,1,0,0:0:0:0:
320,192,51774,1,0,0:0:0:0:
192,192,52082,1,0,0:0:0:0:
320,192,52236,1,0,0:0:0:0:
64,192,52390,1,0,0:0:0:0:
192,192,52544,1,0,0:0:0:0:
320,192,52620,1,0,0:0:0:0:
448,192,52697,1,0,0:0:0:0:
64,192,53005,128,0,53313:0:0:0:0:
320,192,53005,1,0,0:0:0:0:
448,192,53313,128,0,53620:0:0:0:0:
192,192,53313,1,0,0:0:0:0:
320,192,53620,128,0,53774:0:0:0:0:
192,192,53774,1,0,0:0:0:0:
64,192,53928,128,0,54236:0:0:0:0:
448,192,53928,1,0,0:0:0:0:
320,192,54236,1,0,0:0:0:0:
192,192,54390,1,0,0:0:0:0:
448,192,54544,1,0,0:0:0:0:
64,192,54697,1,0,0:0:0:0:
320,192,54851,1,0,0:0:0:0:
448,192,55005,1,0,0:0:0:0:
192,192,55159,128,0,55467:0:0:0:0:
64,192,55159,1,0,0:0:0:0:
448,192,55467,1,0,0:0:0:0:
320,192,55620,1,0,0:0:0:0:
64,192,55774,128,0,56082:0:0:0:0:
448,192,56082,128,0,56236:0:0:0:0:
192,192,56236,1,0,0:0:0:0:
320,192,56390,1,0,0:0:0:0:
64,192,56390,1,0,0:0:0:0:
448,192,56544,1,0,0:0:0:0:
192,192,56697,1,0,0:0:0:0:
320,192,56851,1,0,0:0:0:0:
64,192,57005,1,0,0:0:0:0:
192,192,57313,1,0,0:0:0:0:
192,192,57467,1,0,0:0:0:0:
64,192,57620,1,0,0:0:0:0:
448,192,57620,1,0,0:0:0:0:
64,192,57928,128,0,58236:0:0:0:0:
448,192,58236,128,0,58544:0:0:0:0:
192,192,58236,1,0,0:0:0:0:
320,192,58544,128,0,58697:0:0:0:0:
192,192,58697,1,0,0:0:0:0:
64,192,58851,128,0,59159:0:0:0:0:
448,192,58851,1,0,0:0:0:0:
320,192,59159,1,0,0:0:0:0:
192,192,59313,1,0,0:0:0:0:
448,192,59467,1,0,0:0:0:0:
320,192,59620,1,0,0:0:0:0:
64,192,59774,1,0,0:0:0:0:
320,192,59928,1,0,0:0:0:0:
192,192,60082,128,0,60390:0:0:0:0:
64,192,60082,1,0,0:0:0:0:
320,192,60390,1,0,0:0:0:0:
448,192,60544,1,0,0:0:0:0:
64,192,60697,128,0,61005:0:0:0:0:
448,192,61005,128,0,61159:0:0:0:0:
192,192,61159,1,0,0:0:0:0:
64,192,61313,1,0,0:0:0:0:
320,192,61313,1,0,0:0:0:0:
448,192,61467,1,0,0:0:0:0:
192,192,61620,1,0,0:0:0:0:
320,192,61774,1,0,0:0:0:0:
64,192,61928,1,0,0:0:0:0:
64,192,62236,1,0,0:0:0:0:
192,192,62236,1,0,0:0:0:0:
320,192,62390,1,0,0:0:0:0:
448,192,62697,1,0,0:0:0:0:
320,192,62774,1,0,0:0:0:0:
192,192,62851,1,0,0:0:0:0:
320,192,63005,1,0,0:0:0:0:
448,192,63159,1,0,0:0:0:0:
64,192,63159,128,0,63467:0:0:0:0:
192,192,63467,128,0,63620:0:0:0:0:
320,192,63620,1,0,0:0:0:0:
64,192,63774,1,0,0:0:0:0:
448,192,63774,128,0,64082:0:0:0:0:
192,192,64082,1,0,0:0:0:0:
320,192,64236,1,0,0:0:0:0:
64,192,64390,1,0,0:0:0:0:
448,192,64544,1,0,0:0:0:0:
192,192,64697,1,0,0:0:0:0:
64,192,64851,1,0,0:0:0:0:
448,192,65005,1,0,0:0:0:0:
320,192,65005,128,0,65313:0:0:0:0:
64,192,65313,1,0,0:0:0:0:
192,192,65467,1,0,0:0:0:0:
448,192,65620,128,0,65928:0:0:0:0:
64,192,65928,128,0,66082:0:0:0:0:
320,192,66082,1,0,0:0:0:0:
448,192,66236,1,0,0:0:0:0:
192,192,66236,1,0,0:0:0:0:
64,192,66390,1,0,0:0:0:0:
320,192,66544,1,0,0:0:0:0:
192,192,66697,1,0,0:0:0:0:
64,192,66851,128,0,67159:0:0:0:0:
320,192,66851,1,0,0:0:0:0:
448,192,67159,128,0,67467:0:0:0:0:
192,192,67467,1,0,0:0:0:0:
64,192,67467,1,0,0:0:0:0:
320,192,67620,1,0,0:0:0:0:
192,192,67774,1,0,0:0:0:0:
448,192,67928,1,0,0:0:0:0:
320,192,68082,1,0,0:0:0:0:
64,192,68082,128,0,68390:0:0:0:0:
192,192,68390,128,0,68544:0:0:0:0:
320,192,68544,1,0,0:0:0:0:
64,192,68697,1,0,0:0:0:0:
448,192,68697,128,0,69005:0:0:0:0:
192,192,69005,1,0,0:0:0:0:
320,192,69159,1,0,0:0:0:0:
64,192,69313,1,0,0:0:0:0:
192,192,69467,1,0,0:0:0:0:
448,192,69620,1,0,0:0:0:0:
192,192,69774,1,0,0:0:0:0:
448,192,69928,1,0,0:0:0:0:
320,192,69928,128,0,70236:0:0:0:0:
192,192,70236,1,0,0:0:0:0:
64,192,70390,1,0,0:0:0:0:
448,192,70544,128,0,70851:0:0:0:0:
64,192,70851,128,0,71005:0:0:0:0:
320,192,71005,1,0,0:0:0:0:
192,192,71159,1,0,0:0:0:0:
448,192,71159,1,0,0:0:0:0:
64,192,71313,1,0,0:0:0:0:
320,192,71467,1,0,0:0:0:0:
192,192,71620,1,0,0:0:0:0:
448,192,71774,1,0,0:0:0:0:
64,192,71774,1,0,0:0:0:0:
