osu file format v14

[General]
AudioFilename: audio.mp3
AudioLeadIn: 0
PreviewTime: 28850
Countdown: 0
SampleSet: Soft
StackLeniency: 0.7
Mode: 2
LetterboxInBreaks: 0
WidescreenStoryboard: 0

[Editor]
DistanceSpacing: 0.8
BeatDivisor: 8
GridSize: 8
TimelineZoom: 1

[Metadata]
Title:12151109
TitleUnicode:12151109
Artist:Thaehan
ArtistUnicode:Thaehan
Creator:MBomb
Version:Rain
Source:osu!
Tags:magic bomb featured artist mappers guild never give up phone number one two five zero nine instrumental guitar electronic loki numbers
BeatmapID:2185626
BeatmapSetID:1045512

[Difficulty]
HPDrainRate:6
CircleSize:5.4
OverallDifficulty:8.5
ApproachRate:8.5
SliderMultiplier:1.8
SliderTickRate:0.5

[Events]
//Background and Video events
0,0,"port-3109757_1920.jpg",0,0
//Break Periods
//Storyboard Layer 0 (Background)
//Storyboard Layer 1 (Fail)
//Storyboard Layer 2 (Pass)
//Storyboard Layer 3 (Foreground)
//Storyboard Layer 4 (Overlay)
//Storyboard Sound Samples

[TimingPoints]
22,375,4,2,0,16,1,0
6022,-100,4,2,0,30,0,0
6397,-100,4,2,0,16,0,0
6725,-100,4,2,0,30,0,0
7475,-100,4,2,0,16,0,0
8647,-100,4,2,0,30,0,0
9584,-100,4,2,0,16,0,0
9772,-100,4,2,0,30,0,0
10334,-100,4,2,0,16,0,0
10522,-100,4,2,0,30,0,0
11272,-100,4,2,0,16,0,0
12022,-100,4,2,0,30,0,0
12397,-100,4,2,0,16,0,0
12772,-100,4,2,0,30,0,0
13522,-100,4,2,0,16,0,0
14647,-100,4,2,0,30,0,0
15772,-100,4,2,0,16,0,0
16522,-100,4,2,0,30,0,0
17272,-100,4,2,0,16,0,0
18022,-100,4,2,0,30,0,0
18397,-100,4,2,0,16,0,0
18772,-100,4,2,0,30,0,0
19522,-100,4,2,0,16,0,0
20647,-100,4,2,0,30,0,0
21584,-100,4,2,0,16,0,0
21772,-100,4,2,0,30,0,0
22334,-100,4,2,0,16,0,0
22522,-100,4,2,0,30,0,0
23272,-100,4,2,0,16,0,0
23647,-100,4,2,0,30,0,0
24772,-100,4,2,0,16,0,0
25522,-100,4,2,0,30,0,0
26272,-100,4,2,0,16,0,0
27022,-100,4,2,0,30,0,0
27772,-100,4,2,0,16,0,0
28850,375,4,2,0,30,1,0
29975,375,4,2,0,60,1,1
33537,-100,4,2,0,25,0,1
33725,-100,4,2,0,60,0,1
34287,-100,4,2,0,25,0,1
34475,-100,4,2,0,60,0,1
35600,-100,4,2,0,25,0,1
35975,-100,4,2,0,60,0,1
45537,-100,4,2,0,25,0,1
45725,-100,4,2,0,60,0,1
46287,-100,4,2,0,25,0,1
46475,-100,4,2,0,60,0,1
50975,-100,4,2,0,60,0,0
51725,-100,4,2,0,25,0,0

[Colours]
Combo1 : 128,128,128
Combo2 : 128,128,255
Combo3 : 170,170,170

[HitObjects]
256,192,115,12,0,5647,0:0:0:0:
128,192,6022,6,0,P|48:168|16:72,1,180,8|0,3:0|0:0,0:0:0:0:
448,192,6725,2,0,B|496:160|504:104|464:64|104:-8|-64:16|-144:168|240:200,1,832.5,2|0,0:0|0:0,0:0:0:0:
344,192,8647,1,0,0:0:0:0:
240,192,8834,1,0,0:0:0:0:
432,192,9022,6,0,P|496:144|376:80,1,270,8|0,0:3|0:0,0:0:0:0:
136,192,9772,2,0,P|152:144|344:96,1,270,2|0,0:0|0:0,0:0:0:0:
152,192,10522,2,0,B|8:168|-32:48|464:72,1,540,2|0,0:0|0:0,0:0:0:0:
272,192,12022,6,0,L|456:192,1,180,8|0,0:3|0:0,0:0:0:0:
24,192,12772,2,0,B|7:154|23:105|23:105|120:0|488:32|496:88|488:176|144:192,1,810,2|0,0:0|0:0,0:0:0:0:
88,192,14647,1,0,0:0:0:0:
187,189,14834,1,0,0:0:0:0:
384,192,15022,6,0,B|520:192|528:104|544:48|112:80,1,540,8|0,0:3|0:0,0:0:0:0:
408,192,16522,2,0,B|48:192|48:192|240:192,1,540,8|0,0:3|0:0,0:0:0:0:
416,192,18022,6,0,P|488:160|448:72,1,180,8|0,0:3|0:0,0:0:0:0:
40,192,18772,2,0,B|-8:120|112:80|112:80|176:80|296:96|240:232|104:304|21:294|-40:184|-16:120|88:83|104:72|280:80,1,810,2|0,0:0|0:0,0:0:0:0:
360,192,20647,1,0,0:0:0:0:
256,192,20834,1,0,0:0:0:0:
40,192,21068,6,0,B|48:112|48:112|64:64|96:40|120:24|176:32,1,247.5,8|0,0:3|0:0,0:0:0:0:
448,192,21772,2,0,B|498:193|512:160|488:96|445:74|320:88,1,270,2|0,0:0|0:0,0:0:0:0:
128,192,22522,2,0,B|424:192|496:160|528:48|304:56,1,540,2|0,0:0|0:0,0:0:0:0:
16,192,24022,6,0,B|24:136|80:32|416:8|448:192,1,540,8|0,0:3|0:0,0:0:0:0:
160,192,25522,2,0,B|104:184|113:235|84:239|52:219|64:168|40:152|24:80|24:40|25:16|25:16|24:104|56:184|88:232|160:192,1,540,8|0,0:3|0:0,0:0:0:0:
496,192,27022,6,0,B|136:192|136:192|408:192|408:192|192:192,1,810,8|0,0:3|0:0,0:0:0:0:
96,192,28850,2,0,L|48:192,2,45,4|4|4,0:3|0:3|0:3,0:0:0:0:
200,192,29225,1,4,0:3:0:0:
16,192,29600,1,4,0:3:0:0:
440,192,29975,6,0,P|496:152|416:104,1,180,4|2,0:0|0:3,0:0:0:0:
336,192,30537,1,0,0:0:0:0:
280,192,30631,1,0,0:0:0:0:
96,192,30725,2,0,P|40:176|104:120,1,180,2|0,0:0|0:0,0:0:0:0:
48,192,31193,1,0,0:0:0:0:
48,192,31287,1,0,0:0:0:0:
96,192,31381,1,0,0:0:0:0:
224,192,31475,6,0,P|304:160|272:80,1,180,2|2,0:3|0:3,0:0:0:0:
32,192,32600,2,0,L|144:192,1,90,4|0,0:3|0:0,0:0:0:0:
368,192,32975,6,0,B|232:192|232:192|376:192|376:192,1,270,4|0,0:0|0:0,0:0:0:0:
112,192,33725,2,0,L|400:192,1,270,4|0,0:0|0:0,0:0:0:0:
128,192,34475,6,0,L|320:192,1,180,4|0,0:0|0:0,0:0:0:0:
248,192,34943,1,0,0:0:0:0:
216,192,35037,1,2,0:3:0:0:
408,192,35225,2,0,P|480:160|416:88,1,180,2|0,0:3|0:0,0:0:0:0:
16,192,35975,6,0,P|32:144|160:96,1,180,4|2,0:0|0:3,0:0:0:0:
61,192,36537,2,0,L|24:168,1,45
208,192,36725,2,0,P|272:160|232:80,1,180,2|0,0:0|0:0,0:0:0:0:
280,192,37193,1,0,0:0:0:0:
280,192,37287,1,0,0:0:0:0:
232,192,37381,1,0,0:0:0:0:
104,192,37475,6,0,P|80:152|176:80,1,180,2|2,0:3|0:3,0:0:0:0:
440,192,38600,1,4,0:3:0:0:
344,192,38787,1,0,0:0:0:0:
88,192,38975,6,0,L|296:192,1,180,4|4,0:0|0:3,0:0:0:0:
352,192,39537,1,4,0:3:0:0:
268,192,39725,1,4,0:3:0:0:
16,192,40100,1,4,0:3:0:0:
440,192,40475,6,0,L|256:192,1,180,4|4,0:0|0:3,0:0:0:0:
232,192,40943,1,0,0:0:0:0:
260,192,41037,1,4,0:3:0:0:
352,192,41225,1,4,0:3:0:0:
260,192,41412,1,4,0:3:0:0:
64,192,41600,1,4,0:3:0:0:
488,192,41975,6,0,P|496:160|384:80,1,180,4|2,0:0|0:3,0:0:0:0:
496,192,42537,2,0,L|432:192,1,45
264,192,42725,2,0,P|184:176|176:88,1,180,2|0,0:0|0:0,0:0:0:0:
232,192,43193,1,0,0:0:0:0:
272,192,43287,1,0,0:0:0:0:
280,192,43381,1,0,0:0:0:0:
152,192,43475,6,0,P|72:168|24:80,1,180,2|2,0:3|0:3,0:0:0:0:
256,192,44600,2,0,L|144:192,1,90,4|0,0:3|0:0,0:0:0:0:
432,192,44975,6,0,B|342:192|342:192|432:192|432:192|336:192,1,270,4|0,0:0|0:0,0:0:0:0:
72,192,45725,2,0,L|352:192,1,270,4|0,0:0|0:0,0:0:0:0:
72,192,46475,6,0,L|256:192,1,180,4|0,0:0|0:3,0:0:0:0:
200,192,46943,1,0,0:3:0:0:
176,192,47037,1,2,0:3:0:0:
360,192,47225,1,2,0:3:0:0:
64,192,47600,1,8,0:3:0:0:
488,192,47975,6,0,P|488:136|368:88,1,180,4|4,0:0|0:3,0:0:0:0:
296,192,48537,1,4,0:3:0:0:
200,192,48725,1,4,0:3:0:0:
480,192,49100,1,8,0:3:0:0:
48,192,49475,6,0,L|232:192,1,180,4|4,0:0|0:3,0:0:0:0:
264,192,49943,1,4,0:3:0:0:
228,192,50037,1,4,0:3:0:0:
120,192,50225,2,0,P|40:176|40:88,1,180,4|4,0:3|0:3,0:0:0:0:
464,192,50975,6,0,B|192:192|192:192|224:96|424:112|352:72|472:80|368:224|480:288|360:360|224:272|104:224|208:368|96:304|88:144|-16:56|208:24|496:32,1,1395,4|0,0:0|0:0,0:0:0:0:
