osu file format v14

[General]
AudioFilename: audio.mp3
AudioLeadIn: 0
PreviewTime: 29975
Countdown: 1
SampleSet: Soft
StackLeniency: 0.7
Mode: 0
LetterboxInBreaks: 0
WidescreenStoryboard: 1

[Editor]
DistanceSpacing: 0.8
BeatDivisor: 4
GridSize: 4
TimelineZoom: 1

[Metadata]
Title:12151109
TitleUnicode:12151109
Artist:Thaehan
ArtistUnicode:Thaehan
Creator:Leader
Version:Normal
Source:osu!
Tags:featured artist fa mappers guild loki never give up electronic
BeatmapID:2197308
BeatmapSetID:1051408

[Difficulty]
HPDrainRate:4
CircleSize:4
OverallDifficulty:4
ApproachRate:5
SliderMultiplier:1.4
SliderTickRate:1

[Events]
//Background and Video events
0,0,"tim-marshall-RHeZJxXNr90-unsplash.jpg",0,0
//Break Periods
//Storyboard Layer 0 (Background)
//Storyboard Layer 1 (Fail)
//Storyboard Layer 2 (Pass)
//Storyboard Layer 3 (Foreground)
//Storyboard Layer 4 (Overlay)
//Storyboard Sound Samples

[TimingPoints]
22,375,4,2,0,30,1,0
6022,-200,4,2,0,30,0,0
27022,-200,4,2,0,40,0,0
28850,375,4,2,0,50,1,0
29975,375,4,2,0,70,1,0
51350,-100,4,2,0,60,0,0
51725,-100,4,2,0,50,0,0
52100,-100,4,2,0,40,0,0
52475,-100,4,2,0,30,0,0
52850,-100,4,2,0,20,0,0
53225,-100,4,2,0,10,0,0
53600,-100,4,2,0,5,0,0

[Colours]
Combo1 : 51,56,255
Combo2 : 41,235,235
Combo3 : 18,124,255
Combo4 : 226,254,253

[HitObjects]
43,85,6022,5,2,0:0:0:0:
127,157,6772,2,0,P|216:161|311:89,1,210,2|0,0:0|0:0,0:0:0:0:
393,165,8647,5,0,0:0:0:0:
397,192,8834,1,0,0:0:0:0:
400,219,9022,1,2,0:0:0:0:
430,326,9772,1,2,0:0:0:0:
320,304,10522,2,0,B|255:291|255:336|178:314,1,140,2|0,0:0|0:0,0:0:0:0:
73,295,12022,5,2,0:0:0:0:
159,223,12772,2,0,P|183:152|138:15,1,210,2|0,0:0|0:0,0:0:0:0:
255,55,14647,5,0,0:0:0:0:
282,55,14834,1,0,0:0:0:0:
310,55,15022,2,0,B|372:38|371:83|456:60,1,140,2|0,0:0|0:0,0:0:0:0:
469,171,16522,2,0,L|459:315,1,140,2|0,0:0|0:0,0:0:0:0:
361,364,18022,5,2,0:0:0:0:
257,321,18772,2,0,P|194:305|60:368,1,210,2|0,0:0|0:0,0:0:0:0:
31,253,20647,5,0,0:0:0:0:
26,225,20834,1,0,0:0:0:0:
22,197,21022,1,2,0:0:0:0:
122,245,21772,1,2,0:0:0:0:
190,156,22522,2,0,B|242:152|262:143,1,70,2|0,0:0|0:0,0:0:0:0:
362,101,23647,5,0,0:0:0:0:
362,101,24022,2,0,L|350:250,1,140,2|0,0:0|0:0,0:0:0:0:
336,351,25522,2,0,B|270:334|270:377|200:360,1,140,2|0,0:0|0:0,0:0:0:0:
256,192,27022,12,0,28850,0:0:0:0:
45,81,29975,6,0,P|85:77|162:149,1,140,4|8,3:0|0:3,0:0:0:0:
181,187,30537,2,0,L|256:195,1,70,0|8,0:0|0:3,0:0:0:0:
354,152,31100,2,0,P|365:186|365:227,1,70,0|0,3:0|3:0,0:0:0:0:
356,275,31475,1,8,0:3:0:0:
267,343,31850,2,0,B|196:330|197:376|128:356,1,140,8|0,0:3|0:0,0:0:0:0:
29,308,32600,5,2,0:0:0:0:
47,255,32787,1,2,0:0:0:0:
64,201,32975,2,0,P|71:153|57:46,1,140,4|0,3:2|0:0,0:0:0:0:
166,103,33725,2,0,P|220:114|271:47,1,140,4|0,3:2|0:0,0:0:0:0:
351,132,34475,1,4,3:2:0:0:
425,48,34850,2,0,P|438:97|436:134,1,70,8|0,0:3|0:0,0:0:0:0:
431,171,35225,2,0,P|426:230|437:317,1,140,8|0,0:3|0:0,0:0:0:0:
333,263,35975,5,4,3:2:0:0:
247,335,36350,2,0,P|203:344|177:361,1,70,8|0,0:3|0:0,0:0:0:0:
129,376,36725,1,8,0:3:0:0:
54,292,37100,2,0,L|46:212,1,70,0|0,3:0|3:0,0:0:0:0:
38,166,37475,1,8,0:3:0:0:
140,210,37850,2,0,P|141:159|125:70,1,140,8|0,0:3|0:0,0:0:0:0:
223,16,38600,5,2,0:0:0:0:
314,80,38975,1,4,3:2:0:0:
418,39,39350,1,8,0:3:0:0:
418,39,39537,1,0,3:0:0:0:
418,39,39725,1,0,3:0:0:0:
460,142,40100,1,8,0:3:0:0:
358,188,40475,5,4,3:2:0:0:
259,242,40850,2,0,P|250:286|248:317,1,70,0|0,3:0|3:0,0:0:0:0:
238,366,41225,2,0,L|167:373,1,70,0|0,3:0|0:0,0:0:0:0:
112,382,41600,1,8,0:3:0:0:
43,293,41975,5,4,3:2:0:0:
145,248,42350,2,0,P|139:211|126:165,1,70,8|0,0:3|0:0,0:0:0:0:
108,128,42725,1,8,0:3:0:0:
218,145,43100,2,0,L|225:70,1,70,0|0,3:0|3:0,0:0:0:0:
231,19,43475,1,8,0:3:0:0:
327,76,43850,2,0,P|394:89|464:69,1,140,8|0,0:3|0:0,0:0:0:0:
482,180,44600,5,2,0:0:0:0:
472,235,44787,1,2,0:0:0:0:
455,288,44975,2,0,P|401:308|342:237,1,140,4|0,3:2|0:0,0:0:0:0:
296,156,45725,2,0,P|250:138|183:196,1,140,4|0,3:2|0:0,0:0:0:0:
159,298,46475,1,4,3:2:0:0:
69,230,46850,2,0,P|64:179|56:149,1,70,8|0,0:3|0:0,0:0:0:0:
43,106,47225,1,8,0:3:0:0:
150,136,47600,5,2,0:0:0:0:
226,54,47975,1,4,3:2:0:0:
314,122,48350,1,8,0:3:0:0:
314,122,48537,1,0,3:0:0:0:
314,122,48725,1,0,3:0:0:0:
388,37,49100,1,8,0:3:0:0:
472,110,49475,5,4,3:2:0:0:
403,198,49850,2,0,L|406:278,2,70,0|0|8,0:3|3:0|0:3,0:3:0:0:
319,272,50600,1,8,0:3:0:0:
226,209,50975,5,4,3:2:0:0:
256,192,51162,12,0,53881,0:0:0:0:
