osu file format v14

[General]
AudioFilename: audio.mp3
AudioLeadIn: 0
PreviewTime: 29975
Countdown: 1
SampleSet: Soft
StackLeniency: 0.7
Mode: 0
LetterboxInBreaks: 0
WidescreenStoryboard: 1

[Editor]
DistanceSpacing: 1.2
BeatDivisor: 4
GridSize: 4
TimelineZoom: 1

[Metadata]
Title:12151109
TitleUnicode:12151109
Artist:Thaehan
ArtistUnicode:Thaehan
Creator:Leader
Version:Hard
Source:osu!
Tags:featured artist fa mappers guild loki never give up electronic
BeatmapID:2244642
BeatmapSetID:1051408

[Difficulty]
HPDrainRate:5
CircleSize:4
OverallDifficulty:6
ApproachRate:7
SliderMultiplier:1.4
SliderTickRate:1

[Events]
//Background and Video events
0,0,"tim-marshall-RHeZJxXNr90-unsplash.jpg",0,0
//Break Periods
//Storyboard Layer 0 (Background)
//Storyboard Layer 1 (Fail)
//Storyboard Layer 2 (Pass)
//Storyboard Layer 3 (Foreground)
//Storyboard Layer 4 (Overlay)
//Storyboard Sound Samples

[TimingPoints]
22,375,4,2,0,30,1,0
6022,-400,4,2,0,30,0,0
25522,-270.27027027027,4,2,0,30,0,0
27022,-200,4,2,0,40,0,0
28850,375,4,2,0,50,1,0
29225,-133.333333333333,4,2,0,60,0,0
29975,375,4,2,0,70,1,0
51350,-100,4,2,0,60,0,0
51725,-100,4,2,0,50,0,0
52100,-100,4,2,0,40,0,0
52475,-100,4,2,0,30,0,0
52850,-100,4,2,0,20,0,0
53225,-100,4,2,0,10,0,0
53600,-100,4,2,0,5,0,0

[Colours]
Combo1 : 51,56,255
Combo2 : 41,235,235
Combo3 : 18,124,255
Combo4 : 226,254,253

[HitObjects]
115,334,6022,5,2,0:0:0:0:
115,334,6772,2,0,L|43:323,2,70,2|0|0,0:0|0:0|0:0,0:0:0:0:
216,352,8647,5,0,0:0:0:0:
216,352,8834,1,0,0:0:0:0:
216,352,9022,1,2,0:0:0:0:
292,300,9772,1,2,0:0:0:0:
372,350,10522,2,0,L|383:244,1,105,2|0,0:0|0:0,0:0:0:0:
394,160,12022,5,2,0:0:0:0:
394,160,12772,2,0,L|467:153,2,70,2|0|0,0:0|0:0|0:0,0:0:0:0:
317,191,14647,5,0,0:0:0:0:
317,191,14834,1,0,0:0:0:0:
317,191,15022,2,0,P|259:187|233:149,1,105,2|0,0:0|0:0,0:0:0:0:
267,76,16522,2,0,P|325:80|351:118,1,105,2|0,0:0|0:0,0:0:0:0:
389,204,18022,5,2,0:0:0:0:
389,204,18772,2,0,L|398:279,2,70,2|0|0,0:0|0:0|0:0,0:0:0:0:
372,120,20647,5,0,0:0:0:0:
372,120,20834,1,0,0:0:0:0:
372,120,21022,1,2,0:0:0:0:
313,190,21772,1,2,0:0:0:0:
233,139,22522,2,0,P|226:174|226:214,1,70,2|0,0:0|0:0,0:0:0:0:
247,292,23647,1,0,0:0:0:0:
175,340,24022,6,0,L|101:353,1,70,2|0,0:0|0:0,0:0:0:0:
32,269,25522,6,0,P|72:280|127:245,1,103.600002529297,2|0,0:0|0:0,0:0:0:0:
195,195,27022,6,0,P|219:145|75:139,1,280,2|0,0:0|0:0,0:0:0:0:
58,235,28850,6,0,P|44:231|21:222,2,35
120,287,29225,2,0,L|182:294,1,52.5000020027161,8|0,0:3|0:0,0:0:0:0:
231,352,29600,2,0,L|291:345,1,52.5000020027161,8|0,0:3|0:0,0:0:0:0:
365,326,29975,6,0,P|376:263|354:184,1,140,4|8,3:0|0:3,0:0:0:0:
294,259,30537,1,0,0:0:0:0:
294,259,30631,1,0,0:0:0:0:
294,259,30725,2,0,L|219:267,1,70,8|0,0:3|0:0,0:0:0:0:
167,328,31100,5,0,3:0:0:0:
105,271,31287,1,0,3:0:0:0:
150,200,31475,2,0,P|146:162|138:126,1,70,8|0,0:3|0:0,0:0:0:0:
82,68,31850,2,0,P|150:51|211:97,1,140,8|0,0:3|0:0,0:0:0:0:
205,87,32600,5,2,0:0:0:0:
274,134,32787,1,2,0:0:0:0:
327,69,32975,2,0,P|374:128|352:263,1,210,4|0,3:2|0:0,0:0:0:0:
310,324,33725,2,0,B|207:299|207:365|84:324,1,210,4|0,3:2|0:0,0:0:0:0:
49,264,34475,6,0,P|57:205|39:122,1,140,4|8,3:2|0:3,0:0:0:0:
17,46,35037,1,0,0:0:0:0:
97,70,35225,2,0,P|166:73|236:45,1,140,8|0,0:3|0:0,0:0:0:0:
231,48,35975,6,0,L|323:61,1,70,4|0,3:2|0:0,0:0:0:0:
384,50,36350,2,0,P|379:26|373:3,2,35,8|0|0,0:3|0:0|0:0,0:0:0:0:
367,132,36725,2,0,P|359:164|356:206,1,70,8|0,0:3|0:0,0:0:0:0:
382,280,37100,5,0,3:0:0:0:
331,346,37287,1,0,3:0:0:0:
260,299,37475,2,0,L|175:308,1,70,8|0,0:3|0:0,0:0:0:0:
134,369,37850,2,0,P|106:306|133:236,1,140,8|0,0:3|0:0,0:0:0:0:
127,241,38600,5,2,0:0:0:0:
203,274,38787,1,2,0:0:0:0:
275,231,38975,2,0,P|287:169|264:89,1,140,4|8,3:2|0:3,0:0:0:0:
187,69,39537,1,0,3:0:0:0:
187,69,39725,2,0,L|177:144,1,70,0|0,3:0|0:0,0:0:0:0:
118,198,40100,2,0,L|124:273,1,70,8|0,0:3|0:0,0:0:0:0:
134,351,40475,5,4,3:2:0:0:
134,351,40850,1,0,3:0:0:0:
225,342,41037,1,0,3:0:0:0:
205,252,41225,1,0,3:0:0:0:
123,267,41412,1,0,0:0:0:0:
225,342,41600,2,0,P|262:352|305:355,1,70,8|0,0:3|0:0,0:0:0:0:
361,315,41975,6,0,L|369:235,1,70,4|0,3:2|0:0,0:0:0:0:
379,161,42350,1,8,0:3:0:0:
299,186,42537,1,0,0:0:0:0:
299,186,42631,1,0,0:0:0:0:
299,186,42725,2,0,L|289:108,1,70,8|0,0:3|0:0,0:0:0:0:
285,32,43100,5,0,3:0:0:0:
219,84,43287,1,0,3:0:0:0:
149,36,43475,2,0,P|142:72|142:107,1,70,8|0,0:3|0:0,0:0:0:0:
185,177,43850,2,0,P|140:186|54:117,1,140,8|0,0:3|0:0,0:0:0:0:
63,139,44600,5,2,0:0:0:0:
76,221,44787,1,2,0:0:0:0:
90,303,44975,2,0,B|191:267|192:347|298:305,1,210,4|0,3:2|0:0,0:0:0:0:
374,281,45725,2,0,P|401:188|353:84,1,210,4|0,3:2|0:0,0:0:0:0:
307,156,46475,6,0,L|222:167,1,70,4|0,3:2|0:0,0:0:0:0:
189,95,46850,2,0,L|268:86,1,70,8|0,0:3|0:0,0:0:0:0:
157,175,47225,6,0,L|72:186,1,70,8|0,0:3|0:0,0:0:0:0:
39,114,47600,2,0,L|118:105,1,70,8|0,0:3|0:0,0:0:0:0:
189,95,47975,5,4,3:2:0:0:
189,95,48350,1,8,0:3:0:0:
251,39,48537,1,0,3:0:0:0:
293,111,48725,2,0,L|285:207,1,70,0|0,3:0|0:0,0:0:0:0:
223,235,49100,2,0,L|233:326,1,70,8|0,0:3|0:0,0:0:0:0:
307,339,49475,6,0,B|373:323|374:375|459:362,1,140,4|0,3:2|0:0,0:0:0:0:
497,301,50037,1,0,3:0:0:0:
424,258,50225,5,8,0:3:0:0:
426,265,50412,1,0,0:0:0:0:
343,281,50600,5,8,0:3:0:0:
341,288,50787,1,0,0:0:0:0:
361,206,50975,5,4,3:2:0:0:
256,192,51068,12,0,53881,0:0:0:0:
