osu file format v14

[General]
AudioFilename: audio.mp3
AudioLeadIn: 0
PreviewTime: 68652
Countdown: 0
SampleSet: Soft
StackLeniency: 0.7
Mode: 0
LetterboxInBreaks: 0
WidescreenStoryboard: 0

[Editor]
Bookmarks: 14395,25366,36338,47309,58281,63766,69252,91195,102166
DistanceSpacing: 1
BeatDivisor: 4
GridSize: 16
TimelineZoom: 1.5

[Metadata]
Title:Legend
TitleUnicode:LΞGΞND
Artist:Tha Trickaz
ArtistUnicode:Tha Trickaz
Creator:Shiirn
Version:Political Statement
Source:
Tags:dubstep drumstep trap otodayo supa cloud city ep star rating fuckery vol 10 spaced triple practice creatively dead
BeatmapID:1417657
BeatmapSetID:670288

[Difficulty]
HPDrainRate:9
CircleSize:4
OverallDifficulty:9
ApproachRate:9.5
SliderMultiplier:3
SliderTickRate:1

[Events]
//Background and Video events
0,0,"shiirn+thing.jpg",0,0
//Break Periods
2,47509,57756
//Storyboard Layer 0 (Background)
//Storyboard Layer 1 (Fail)
//Storyboard Layer 2 (Pass)
//Storyboard Layer 3 (Foreground)
//Storyboard Sound Samples

[TimingPoints]
3424,342.857142857143,4,2,1,100,1,0
25366,-200,4,2,1,100,0,0
30509,-133.333333333333,4,2,1,100,0,0
30852,-200,4,2,1,100,0,0
35995,-100,4,2,1,100,0,0
36166,-133.333333333333,4,2,1,100,0,0
36338,-200,4,2,1,100,0,0
41481,-133.333333333333,4,2,1,100,0,0
41824,-200,4,2,1,100,0,0
58281,-333.333333333333,4,2,1,100,0,0
59652,-250,4,2,1,100,0,0
60509,-238.095238095238,4,2,1,100,0,0
60681,-222.222222222222,4,2,1,100,0,0
60852,-212.765957446809,4,2,1,100,0,0
61024,-200,4,2,1,100,0,0
63252,-192.307692307692,4,2,1,100,0,0
63424,-181.818181818182,4,2,1,100,0,0
63595,-175.438596491228,4,2,1,100,0,0
63766,-166.666666666667,4,2,1,100,0,0
63938,-133.333333333333,4,2,1,100,0,0
64109,-166.666666666667,4,2,1,100,0,0
64281,-133.333333333333,4,2,1,100,0,0
64452,-166.666666666667,4,2,1,100,0,0
64624,-133.333333333333,4,2,1,100,0,0
64795,-166.666666666667,4,2,1,100,0,0
64967,-133.333333333333,4,2,1,100,0,0
68909,-80,4,2,1,100,0,0
69081,-100,4,2,1,100,0,0
69252,-100,4,2,1,100,0,0
69595,-133.333333333333,4,2,1,100,0,0
69938,-1000,4,2,1,100,0,0
70624,-333.333333333333,4,2,1,100,0,0
70966,-100,4,2,1,100,0,0
71309,-1000,4,2,1,100,0,0
71995,-333.333333333333,4,2,1,100,0,0
72681,-200,4,2,1,100,0,0
73195,-133.333333333333,4,2,1,100,0,0
74395,-66.6666666666667,4,2,1,100,0,0
74738,-100,4,2,1,100,0,0
75081,-133.333333333333,4,2,1,100,0,0
75424,-1000,4,2,1,100,0,0
76110,-333.333333333333,4,2,1,100,0,0
76452,-100,4,2,1,100,0,0
76795,-1000,4,2,1,100,0,0
77481,-333.333333333333,4,2,1,100,0,0
78166,-500,4,2,1,100,0,0
79709,-133.333333333333,4,2,1,100,0,0
80224,-200,4,2,1,100,0,0
80909,-1000,4,2,1,100,0,0
81595,-333.333333333333,4,2,1,100,0,0
81937,-100,4,2,1,100,0,0
82280,-1000,4,2,1,100,0,0
82966,-333.333333333333,4,2,1,100,0,0
83652,-200,4,2,1,100,0,0
84166,-133.333333333333,4,2,1,100,0,0
85366,-66.6666666666667,4,2,1,100,0,0
85709,-200,4,2,1,100,0,0
86395,-1000,4,2,1,100,0,0
87081,-333.333333333333,4,2,1,100,0,0
87766,-1000,4,2,1,100,0,0
88452,-333.333333333333,4,2,1,100,0,0
89138,-500,4,2,1,100,0,0
90681,-133.333333333333,4,2,1,100,0,0
91195,-200,4,2,1,100,0,0
92052,-133.333333333333,4,2,1,100,0,0
93252,-333.333333333333,4,2,1,100,0,0
93938,-200,4,2,1,100,0,0
94624,-333.333333333333,4,2,1,100,0,0
96166,-200,4,2,1,100,0,0
97538,-133.333333333333,4,2,1,100,0,0
98738,-200,4,2,1,100,0,0

[Colours]
Combo1 : 160,160,160
Combo2 : 165,82,37
Combo3 : 134,96,176
Combo4 : 228,37,43
Combo5 : 227,192,28

[HitObjects]
41,120,25024,5,0,0:0:0:0:
41,120,25195,1,0,0:0:0:0:
41,120,25366,2,0,P|95:84|190:104,1,150,0|8,1:0|0:0,0:0:0:0:
122,318,25881,1,0,0:0:0:0:
127,325,25966,1,0,0:0:0:0:
133,330,26052,2,0,L|123:181,1,150,8|0,0:1|0:0,0:0:0:0:
40,120,26566,6,0,P|68:95|103:81,1,75,8|0,0:2|0:0,0:0:0:0:
256,136,26909,1,8,0:0:0:0:
0,208,27081,2,0,P|44:228|81:229,1,75,0|0,1:0|0:0,0:0:0:0:
177,30,27424,1,8,0:1:0:0:
150,190,27595,1,8,0:0:0:0:
133,331,27766,6,0,P|171:311|215:317,1,75,2|0,0:0|0:0,0:0:0:0:
314,361,28109,6,0,L|337:200,1,150,0|8,1:0|0:0,0:0:0:0:
408,62,28624,1,0,0:0:0:0:
447,321,28795,2,0,L|424:160,1,150,8|0,0:1|0:0,0:0:0:0:
335,212,29309,22,0,L|322:301,1,75,8|0,0:0|0:0,0:0:0:0:
314,361,29652,1,8,0:0:0:0:
236,211,29824,2,0,L|225:136,1,75,0|0,1:0|0:0,0:0:0:0:
254,57,30166,1,8,1:1:0:0:
135,298,30338,1,0,1:0:0:0:
258,70,30509,6,0,P|169:89|157:156,1,168.750006437302,2|0,0:0|0:0,0:0:0:0:
23,114,30852,6,0,P|65:163|160:143,1,150,0|8,1:0|0:2,0:0:0:0:
226,273,31366,1,0,0:0:0:0:
221,280,31451,1,0,0:0:0:0:
215,286,31537,2,0,L|225:137,1,150,8|0,0:1|0:0,0:0:0:0:
125,5,32052,6,0,P|77:23|54:50,1,75,8|0,0:0|0:0,0:0:0:0:
4,120,32395,1,8,0:0:0:0:
172,266,32566,2,0,P|203:246|219:212,1,75,0|0,1:0|0:0,0:0:0:0:
335,30,32909,1,8,0:1:0:0:
362,190,33080,1,8,0:0:0:0:
379,331,33251,2,0,P|341:311|297:317,1,75,8|0,0:0|0:0,0:0:0:0:
156,304,33595,22,0,L|145:187,1,112.5,8|0,1:2|0:0,0:0:0:0:
130,177,33938,1,8,0:1:0:0:
70,283,34109,1,8,1:2:0:0:
298,202,34281,1,0,0:0:0:0:
114,164,34452,1,8,0:1:0:0:
149,348,34624,2,0,L|160:231,1,112.5,8|0,1:2|0:0,0:0:0:0:
171,230,34966,6,0,L|182:113,1,112.5,0|0,1:0|0:0,0:0:0:0:
197,103,35309,1,8,0:1:0:0:
329,179,35480,1,8,1:2:0:0:
70,135,35652,1,0,0:0:0:0:
211,92,35823,1,8,0:1:0:0:
260,224,35995,6,0,P|210:230|158:208,1,75,10|0,0:0|0:0,0:0:0:0:
171,230,36166,2,0,P|134:207|121:185,1,56.2500021457673,2|0,0:0|0:0,0:0:0:0:
107,179,36338,6,0,P|130:235|87:315,1,150,0|8,1:0|0:0,0:0:0:0:
34,90,36852,1,0,0:0:0:0:
34,90,36938,1,0,0:0:0:0:
34,90,37024,2,0,L|46:248,1,150,8|0,0:1|0:0,0:0:0:0:
150,251,37538,22,0,P|178:226|213:212,1,75,8|0,0:2|0:0,0:0:0:0:
371,201,37881,1,8,0:0:0:0:
112,326,38053,2,0,P|156:346|193:347,1,75,0|0,1:0|0:0,0:0:0:0:
307,327,38396,1,8,0:1:0:0:
280,167,38567,1,8,0:0:0:0:
263,26,38738,6,0,P|301:46|345:40,1,75,2|0,0:0|0:0,0:0:0:0:
486,0,39081,6,0,L|461:183,1,150,0|8,1:0|0:0,0:0:0:0:
446,244,39595,1,0,0:0:0:0:
332,44,39766,2,0,L|357:227,1,150,8|0,0:1|0:0,0:0:0:0:
463,302,40281,6,0,P|425:280|380:281,1,75,8|0,0:0|0:0,0:0:0:0:
313,315,40624,1,8,0:0:0:0:
150,182,40795,2,0,L|163:282,1,75,0|0,1:0|0:0,0:0:0:0:
190,83,41138,1,8,1:1:0:0:
66,224,41309,1,0,1:0:0:0:
281,204,41481,22,0,P|333:169|312:71,1,168.750006437302,2|0,0:0|0:0,0:0:0:0:
462,98,41824,6,0,P|420:49|325:69,1,150,0|8,1:0|0:2,0:0:0:0:
384,265,42338,1,0,0:0:0:0:
389,272,42423,1,0,0:0:0:0:
395,278,42509,2,0,L|385:129,1,150,8|0,0:1|0:0,0:0:0:0:
242,183,43024,2,0,P|290:165|313:138,1,75,8|0,0:0|0:0,0:0:0:0:
340,55,43367,1,8,0:0:0:0:
395,278,43538,6,0,P|364:298|348:332,1,75,0|0,1:0|0:0,0:0:0:0:
433,362,43881,1,8,0:1:0:0:
332,225,44052,1,8,0:0:0:0:
199,340,44224,2,0,P|160:338|97:309,1,75,8|0,0:0|0:0,0:0:0:0:
280,283,44566,6,0,L|397:272,1,112.5,8|0,1:2|0:0,0:0:0:0:
407,257,44909,1,8,0:1:0:0:
301,197,45080,1,8,1:2:0:0:
398,367,45252,1,0,0:0:0:0:
432,227,45423,1,8,0:1:0:0:
232,289,45595,2,0,L|349:278,1,112.5,8|0,1:2|0:0,0:0:0:0:
483,283,45937,22,0,L|370:272,1,112.5,0|0,1:0|0:0,0:0:0:0:
344,278,46280,1,8,0:1:0:0:
398,367,46451,1,8,1:2:0:0:
422,186,46623,1,0,0:0:0:0:
225,297,46794,1,8,0:1:0:0:
488,242,46966,2,0,L|472:130,1,112.5,8|0,0:0|0:0,0:0:0:0:
344,278,47309,5,12,1:2:0:0:
62,328,58281,6,0,P|96:305|124:307,1,67.4999979400635,0|0,0:0|0:0,0:0:0:0:
143,320,58624,6,0,L|149:263,1,44.999998626709,0|0,0:0|0:0,0:0:0:0:
159,264,58881,1,0,0:0:0:0:
175,255,58966,2,0,L|181:198,1,44.999998626709,0|0,0:0|0:0,0:0:0:0:
191,199,59224,1,0,0:0:0:0:
207,190,59309,2,0,L|213:133,1,44.999998626709,0|0,0:0|0:0,0:0:0:0:
223,134,59566,1,0,0:0:0:0:
239,125,59652,22,0,P|264:134|285:130,3,30,0|0|0|0,0:0|0:0|0:0|0:0,0:0:0:0:
340,87,59995,2,0,P|365:78|386:82,3,30,0|0|0|0,0:0|0:0|0:0|0:0,0:0:0:0:
435,134,60338,2,0,P|432:148|425:162,1,30,0|0,0:0|0:0,0:0:0:0:
360,212,60509,2,0,P|339:217|315:211,1,31.4999990386963,0|0,0:0|0:0,0:0:0:0:
258,180,60681,2,0,P|235:162|209:154,1,33.7499989700318,0|0,0:0|0:0,0:0:0:0:
142,144,60852,2,0,P|116:148|103:154,1,35.2499994621277,0|0,0:0|0:0,0:0:0:0:
54,240,61024,6,0,L|140:227,1,75,0|0,0:0|0:0,0:0:0:0:
140,240,61281,1,0,0:0:0:0:
125,270,61366,2,0,L|211:257,1,75,0|0,0:0|0:0,0:0:0:0:
211,270,61624,1,0,0:0:0:0:
196,300,61709,2,0,L|282:287,1,75,0|0,0:0|0:0,0:0:0:0:
282,300,61967,1,0,0:0:0:0:
267,330,62052,2,0,L|353:317,1,75,0|0,0:0|0:0,0:0:0:0:
355,326,62309,1,0,0:0:0:0:
371,336,62395,6,0,L|384:284,3,37.5,0|0|0|0,0:0|0:0|0:0|0:0,0:0:0:0:
454,276,62738,2,0,L|441:224,3,37.5,0|0|0|0,0:0|0:0|0:0|0:0,0:0:0:0:
397,161,63081,2,0,L|366:186,1,37.5,0|0,0:0|0:0,0:0:0:0:
317,121,63252,2,0,L|278:111,1,38.9999997619629,0|0,0:0|0:0,0:0:0:0:
264,192,63424,2,0,L|211:209,1,41.2500012588501,0|0,0:0|0:0,0:0:0:0:
171,131,63595,2,0,L|123:118,1,42.7499994781494,0|0,0:0|0:0,0:0:0:0:
50,158,63766,38,0,L|37:224,1,44.999998626709,0|0,0:0|0:0,0:0:0:0:
67,305,63938,2,0,L|161:286,1,56.2500021457673,0|0,0:0|0:0,0:0:0:0:
66,150,64109,2,0,L|53:216,1,44.999998626709,0|0,0:0|0:0,0:0:0:0:
134,284,64281,2,0,L|228:265,1,56.2500021457673,0|0,0:0|0:0,0:0:0:0:
82,142,64452,2,0,L|69:208,1,44.999998626709,0|0,0:0|0:0,0:0:0:0:
201,263,64624,2,0,L|295:244,1,56.2500021457673,0|0,0:0|0:0,0:0:0:0:
98,134,64795,2,0,L|85:200,1,44.999998626709,0|0,0:0|0:0,0:0:0:0:
268,242,64966,2,0,L|362:223,1,56.2500021457673,0|0,0:0|0:0,0:0:0:0:
188,135,65138,6,0,P|184:162|187:190,1,56.2500021457673,0|0,0:0|0:0,0:0:0:0:
296,291,65309,2,0,P|270:280|247:263,1,56.2500021457673,0|0,0:0|0:0,0:0:0:0:
204,132,65481,2,0,P|208:159|220:185,1,56.2500021457673,0|0,0:0|0:0,0:0:0:0:
353,250,65652,2,0,P|325:247|298:237,1,56.2500021457673,0|0,0:0|0:0,0:0:0:0:
218,124,65824,2,0,P|230:149|248:170,1,56.2500021457673,0|0,0:0|0:0,0:0:0:0:
395,194,65995,2,0,P|367:199|339:197,1,56.2500021457673,0|0,0:0|0:0,0:0:0:0:
229,113,66167,2,0,P|248:133|272:148,1,56.2500021457673,0|0,0:0|0:0,0:0:0:0:
419,128,66338,2,0,P|394:141|367:147,1,56.2500021457673,0|0,0:0|0:0,0:0:0:0:
139,69,66509,5,0,0:0:0:0:
127,87,66595,1,0,0:0:0:0:
122,108,66681,1,0,0:0:0:0:
125,130,66766,1,0,0:0:0:0:
130,152,66852,1,0,0:0:0:0:
140,172,66938,1,0,0:0:0:0:
156,187,67024,1,0,0:0:0:0:
176,197,67109,1,0,0:0:0:0:
213,181,67195,5,0,0:0:0:0:
179,162,67281,1,0,0:0:0:0:
140,160,67366,1,0,0:0:0:0:
103,171,67452,1,0,0:0:0:0:
70,191,67538,1,0,0:0:0:0:
48,223,67624,1,0,0:0:0:0:
33,258,67709,1,0,0:0:0:0:
31,297,67795,1,0,0:0:0:0:
0,321,67881,21,0,0:0:0:0:
55,311,67966,1,0,0:0:0:0:
111,301,68052,1,0,0:0:0:0:
167,291,68138,1,0,0:0:0:0:
223,281,68224,1,0,0:0:0:0:
279,271,68309,1,0,0:0:0:0:
335,262,68395,1,0,0:0:0:0:
391,253,68481,1,0,0:0:0:0:
440,241,68566,5,2,0:3:0:0:
456,248,68909,6,0,P|385:270|361:267,1,93.75,2|0,0:0|0:0,0:0:0:0:
329,261,69081,2,0,P|293:268|260:300,1,75,2|0,0:0|0:0,0:0:0:0:
250,309,69252,6,0,L|215:65,1,225,0|0,1:0|0:0,0:0:0:0:
119,287,69595,2,0,L|139:145,1,112.500004291535,0|0,0:0|0:0,0:0:0:0:
70,44,69852,1,0,0:0:0:0:
70,44,69938,6,0,P|86:29|92:13,1,37.5,8|0,1:1|0:0,0:0:0:0:
94,1,70452,5,0,0:0:0:0:
135,176,70538,1,0,0:0:0:0:
178,349,70624,2,0,P|213:360|247:349,1,67.4999979400635,0|0,1:0|0:0,0:0:0:0:
245,345,70966,6,0,P|196:281|22:308,1,225,2|0,0:0|0:0,0:0:0:0:
48,264,71309,38,0,L|35:229,1,37.5,8|0,1:1|0:0,0:0:0:0:
25,231,71824,37,0,0:0:0:0:
191,180,71909,1,0,0:0:0:0:
357,129,71995,2,0,P|380:142|393:184,1,67.4999979400635,0|0,1:0|0:0,0:0:0:0:
311,332,72338,6,0,L|317:261,1,67.4999979400635,0|0,0:0|0:0,0:0:0:0:
191,180,72681,2,0,L|206:294,1,112.5,8|0,1:0|0:0,0:0:0:0:
440,320,73024,1,0,0:0:0:0:
449,330,73109,1,0,0:0:0:0:
428,333,73195,2,0,P|393:339|359:323,1,56.2500021457673,0|0,1:0|0:0,0:0:0:0:
119,287,73366,2,0,P|144:232|259:224,1,168.750006437302,0|0,0:0|0:0,0:0:0:0:
440,320,73709,22,0,P|405:326|371:310,1,56.2500021457673,0|0,1:0|0:0,0:0:0:0:
321,114,73881,1,0,0:0:0:0:
332,132,73966,1,0,0:0:0:0:
343,146,74052,2,0,L|332:203,1,56.2500021457673,8|0,1:0|0:0,0:0:0:0:
226,42,74224,1,0,1:0:0:0:
75,153,74395,6,0,P|131:196|225:174,1,112.500004291535,0|0,0:0|0:0,0:0:0:0:
428,247,74566,2,0,P|372:204|278:226,1,112.500004291535,0|0,0:0|0:0,0:0:0:0:
138,326,74738,6,0,L|158:83,1,225,0|0,1:0|0:0,0:0:0:0:
247,190,75081,2,0,L|236:68,1,112.500004291535,0|0,0:0|0:0,0:0:0:0:
318,43,75338,1,0,0:0:0:0:
318,43,75424,22,0,P|302:28|296:12,1,37.5,8|0,0:1|0:0,0:0:0:0:
294,0,75938,53,0,0:0:0:0:
253,175,76024,1,0,0:0:0:0:
210,348,76110,2,0,P|175:359|141:348,1,67.4999979400635,0|0,1:0|0:0,0:0:0:0:
97,308,76624,21,2,0:3:0:0:
97,308,76709,1,0,0:0:0:0:
97,308,76795,54,0,P|113:323|119:339,1,37.5,8|0,0:1|0:0,0:0:0:0:
121,351,77309,21,0,0:0:0:0:
162,176,77395,1,0,0:0:0:0:
205,3,77481,2,0,P|238:14|265:41,1,67.4999979400635,0|0,1:0|0:0,0:0:0:0:
304,157,77824,2,0,L|317:81,1,67.4999979400635,0|0,0:0|0:0,0:0:0:0:
391,33,78166,6,0,P|398:89|406:104,1,75,8|0,0:1|0:0,0:0:0:0:
330,236,78681,2,0,P|337:180|345:165,1,75,0|0,1:0|0:0,0:0:0:0:
424,332,79195,2,0,P|402:326|382:316,1,45,0|0,1:0|0:0,0:0:0:0:
485,200,79538,5,8,0:1:0:0:
389,51,79709,22,0,P|394:79|406:104,1,56.2500021457673,0|0,1:0|0:0,0:0:0:0:
330,236,79881,2,0,P|337:180|345:165,1,56.2500021457673,0|0,0:0|0:0,0:0:0:0:
436,332,80052,2,0,P|402:326|382:316,1,56.2500021457673,0|0,0:0|0:0,0:0:0:0:
410,205,80224,6,0,B|432:222|432:222|477:200|477:200|430:256|430:256|444:273|468:271|468:271|460:306|436:332,1,262.5,0|0,0:0|0:0,0:0:0:0:
418,354,80909,38,0,P|392:347|377:349,1,37.5,8|0,0:1|0:0,0:0:0:0:
367,373,81424,37,0,0:0:0:0:
302,193,81509,1,0,0:0:0:0:
237,13,81595,2,0,P|201:10|171:25,1,67.4999979400635,0|0,1:0|0:0,0:0:0:0:
163,28,81938,6,0,P|212:92|386:65,1,225,2|0,0:0|0:0,0:0:0:0:
359,110,82281,6,0,L|372:145,1,37.5,8|0,0:1|0:0,0:0:0:0:
383,142,82796,5,0,0:0:0:0:
217,193,82881,1,0,0:0:0:0:
51,244,82967,2,0,P|28:231|15:189,1,67.4999979400635,0|0,1:0|0:0,0:0:0:0:
99,105,83309,6,0,L|93:176,1,67.4999979400635,0|0,0:0|0:0,0:0:0:0:
231,304,83652,2,0,L|216:190,1,112.5,8|0,0:1|0:0,0:0:0:0:
87,118,83995,1,0,0:0:0:0:
78,108,84080,1,0,0:0:0:0:
99,105,84166,2,0,P|134:99|168:115,1,56.2500021457673,0|0,1:0|0:0,0:0:0:0:
340,119,84338,2,0,P|315:174|200:182,1,168.750006437302,0|0,0:0|0:0,0:0:0:0:
87,118,84681,6,0,P|114:141|125:161,1,56.2500021457673,0|0,1:0|0:0,0:0:0:0:
93,286,84852,1,0,0:0:0:0:
116,277,84938,1,0,0:0:0:0:
146,275,85024,2,0,P|176:313|206:318,1,56.2500021457673,8|0,0:1|0:0,0:0:0:0:
318,246,85195,1,0,1:0:0:0:
14,255,85366,6,0,P|68:247|124:290,1,112.500004291535,0|0,0:0|0:0,0:0:0:0:
301,238,85538,2,0,P|236:228|215:182,1,112.500004291535,0|0,0:0|0:0,0:0:0:0:
50,113,85709,22,0,B|-10:136|-10:136|8:95|8:95|67:71|67:71|82:65|124:83|168:65,1,262.5,0|0,1:0|0:0,0:0:0:0:
169,65,86395,54,0,P|188:59|202:42,1,37.5,8|0,0:1|0:0,0:0:0:0:
188,24,86909,21,0,0:0:0:0:
234,195,86995,1,0,0:0:0:0:
280,366,87081,2,0,P|305:350|349:359,1,67.4999979400635,0|0,1:0|0:0,0:0:0:0:
393,310,87595,5,2,0:3:0:0:
393,310,87680,1,0,0:0:0:0:
393,310,87766,22,0,P|377:325|371:341,1,37.5,8|0,0:1|0:0,0:0:0:0:
369,353,88280,53,0,0:0:0:0:
328,178,88366,1,0,0:0:0:0:
285,5,88452,2,0,P|252:16|225:43,1,67.4999979400635,0|0,1:0|0:0,0:0:0:0:
148,142,88795,2,0,L|159:60,1,67.4999979400635,0|0,0:0|0:0,0:0:0:0:
215,202,89138,22,0,P|245:228|284:232,1,75,8|0,0:1|0:0,0:0:0:0:
452,188,89652,2,0,P|412:182|377:199,1,75,0|0,1:0|0:0,0:0:0:0:
345,322,90166,2,0,L|355:275,1,45,0|0,1:0|0:0,0:0:0:0:
198,310,90509,5,8,0:1:0:0:
215,202,90681,6,0,P|245:228|284:232,1,56.2500021457673,0|0,1:0|0:0,0:0:0:0:
452,188,90852,2,0,P|412:182|377:199,1,56.2500021457673,0|0,0:0|0:0,0:0:0:0:
269,345,91024,2,0,P|238:346|206:342,1,56.2500021457673,0|0,0:0|0:0,0:0:0:0:
98,252,91195,6,0,B|69:238|69:238|151:212,1,112.5,0|0,1:0|0:0,0:0:0:0:
155,213,91881,21,8,0:1:0:0:
270,290,92052,6,0,P|286:255|280:225,1,56.2500021457673,0|0,0:0|0:0,0:0:0:0:
333,166,92224,2,0,P|316:225|327:249,1,56.2500021457673,0|0,0:0|0:0,0:0:0:0:
242,173,92395,2,0,P|256:198|288:212,1,56.2500021457673,0|0,0:0|0:0,0:0:0:0:
370,265,92566,2,0,P|348:244|320:240,1,56.2500021457673,0|0,0:0|0:0,0:0:0:0:
206,252,92738,2,0,P|177:259|136:255,1,56.2500021457673,0|0,0:0|0:0,0:0:0:0:
341,346,92909,5,0,1:0:0:0:
355,353,93252,6,0,L|368:280,1,67.4999979400635,8|0,0:1|0:0,0:0:0:0:
314,217,93595,2,0,L|327:144,1,67.4999979400635,0|0,0:0|0:0,0:0:0:0:
273,81,93938,2,0,B|277:57|277:57|187:87,1,112.5,0|0,1:0|0:0,0:0:0:0:
184,92,94624,22,0,L|178:175,2,67.4999979400635,8|0|0,0:1|0:0|0:0,0:0:0:0:
92,160,95309,2,0,L|98:243,1,67.4999979400635,0|0,0:0|0:0,0:0:0:0:
202,143,95652,2,0,L|206:75,1,67.4999979400635,0|0,1:0|0:0,0:0:0:0:
227,53,95995,1,8,0:1:0:0:
85,201,96166,2,0,L|89:257,1,37.5,0|0,1:0|0:0,0:0:0:0:
219,118,96338,2,0,L|214:174,1,37.5,0|0,0:0|0:0,0:0:0:0:
92,58,96509,2,0,L|96:114,1,37.5,0|0,0:0|0:0,0:0:0:0:
97,250,96681,6,0,B|87:286|87:286|179:255,1,112.5,0|0,1:0|0:0,0:0:0:0:
167,268,97366,5,8,0:1:0:0:
375,194,97538,6,0,P|376:221|367:248,1,56.2500021457673,0|0,0:0|0:0,0:0:0:0:
343,272,97709,2,0,P|316:282|288:281,1,56.2500021457673,0|0,0:0|0:0,0:0:0:0:
269,277,97881,2,0,P|251:255|243:228,1,56.2500021457673,0|0,0:0|0:0,0:0:0:0:
239,198,98052,2,0,P|254:174|277:158,1,56.2500021457673,0|0,0:0|0:0,0:0:0:0:
359,123,98224,2,0,P|386:115|408:98,1,56.2500021457673,0|0,0:0|0:0,0:0:0:0:
215,83,98395,21,0,1:1:0:0:
269,277,98738,6,0,P|240:211|278:160,1,112.5,8|0,0:1|0:0,0:0:0:0:
354,124,99081,2,0,L|345:217,1,75,0|0,0:0|0:0,0:0:0:0:
246,298,99424,6,0,P|185:282|119:291,1,112.5,0|0,1:0|0:0,0:0:0:0:
112,297,99766,1,8,0:1:0:0:
354,124,99938,2,0,P|291:132|240:113,1,112.5,0|0,1:0|0:0,0:0:0:0:
230,95,100281,1,8,0:1:0:0:
0,158,100452,2,0,P|19:175|34:271,1,112.5,0|0,1:0|0:0,0:0:0:0:
102,344,100795,6,0,P|154:343|202:309,1,112.5,0|0,1:0|0:0,0:0:0:0:
209,284,101138,1,8,0:1:0:0:
35,259,101309,2,0,L|48:169,1,75,0|0,1:0|0:0,0:0:0:0:
24,279,101824,2,0,L|37:189,1,75,0|0,0:0|0:0,0:0:0:0:
80,108,102166,5,4,0:0:0:0:
