osu file format v14

[General]
AudioFilename: audio.mp3
AudioLeadIn: 0
PreviewTime: 68201
Countdown: 0
SampleSet: Soft
StackLeniency: 0.3
Mode: 0
LetterboxInBreaks: 0
WidescreenStoryboard: 0

[Editor]
Bookmarks: 21906,24648
DistanceSpacing: 1.1
BeatDivisor: 4
GridSize: 8
TimelineZoom: 1.5

[Metadata]
Title:LGND
TitleUnicode:LΞGΞND
Artist:Tha Trickaz
ArtistUnicode:Tha Trickaz
Creator:Mun
Version:WAKU'S NORMAL
Source:
Tags:waku sdafsf dubstep drumstep trap otodayo supa cloud city lp legend
BeatmapID:1426893
BeatmapSetID:670373

[Difficulty]
HPDrainRate:3
CircleSize:3
OverallDifficulty:4
ApproachRate:5
SliderMultiplier:0.899999999999999
SliderTickRate:1

[Events]
//Background and Video events
0,0,"stop_and_stare_by_nanomortis-d9tjzmt.png",0,0
//Break Periods
2,46801,56253
//Storyboard Layer 0 (Background)
//Storyboard Layer 1 (Fail)
//Storyboard Layer 2 (Pass)
//Storyboard Layer 3 (Foreground)
//Storyboard Sound Samples

[TimingPoints]
2716,342.857142857143,4,2,1,100,1,0
46601,-100,4,2,1,100,0,0
57573,-125,4,2,1,100,0,0
64430,-125,4,2,2,100,0,0
65801,-125,4,3,2,100,0,0
67516,-125,4,3,2,70,0,0
67858,-100,4,2,4,100,0,0
68201,-100,4,2,1,100,0,0
68544,-100,4,2,1,100,0,1
90487,-100,4,2,1,100,0,0

[Colours]
Combo1 : 255,156,21
Combo2 : 117,0,0
Combo3 : 221,92,30
Combo4 : 192,192,192

[HitObjects]
354,80,24658,6,0,L|343:186,1,89.9999999999999,0|0,3:0|0:0,0:0:0:0:
401,239,25344,2,0,P|346:261|275:228,1,135,8|0,0:0|0:0,0:0:0:0:
266,104,26373,1,0,3:0:0:0:
185,143,26716,2,0,P|132:153|66:123,1,89.9999999999999,8|0,0:0|0:0,0:0:0:0:
46,66,27401,6,0,L|156:56,1,89.9999999999999,0|0,3:0|0:0,0:0:0:0:
223,33,28087,2,0,P|286:63|359:39,1,135,8|0,0:0|0:0,0:0:0:0:
393,174,29116,1,0,3:0:0:0:
481,161,29458,1,8,0:0:0:0:
481,161,29630,1,0,3:0:0:0:
450,292,30144,6,0,L|326:279,1,89.9999999999999,0|0,3:0|0:0,0:0:0:0:
291,339,30830,2,0,B|235:332|235:332|212:317|212:317|130:305,1,135,8|0,0:0|0:0,0:0:0:0:
74,206,31858,1,0,3:0:0:0:
161,226,32201,2,0,P|160:181|138:143,1,89.9999999999999,8|0,0:0|0:0,0:0:0:0:
68,72,32887,6,0,P|106:49|202:76,2,135,0|0|0,3:0|3:0|3:0,0:0:0:0:
48,169,34258,1,0,3:0:0:0:
142,197,34601,5,8,0:0:0:0:
142,197,34773,2,0,B|238:187|238:187|283:213,1,135,0|0,3:0|0:0,0:0:0:0:
340,277,35630,6,0,L|327:366,1,89.9999999999999,0|0,3:0|0:0,0:0:0:0:
228,375,36316,1,8,0:0:0:0:
107,288,36830,2,0,P|102:238|128:189,1,89.9999999999999,0|0,0:0|0:0,0:0:0:0:
158,174,37344,2,0,L|257:174,1,89.9999999999999,0|8,3:0|0:0,0:0:0:0:
427,89,38373,6,0,L|418:194,1,89.9999999999999,0|0,3:0|0:0,0:0:0:0:
412,277,39058,1,8,0:0:0:0:
273,331,39573,2,0,P|265:298|271:235,1,89.9999999999999,0|0,0:0|0:0,0:0:0:0:
293,199,40087,2,0,L|199:188,1,89.9999999999999,0|8,3:0|0:0,0:0:0:0:
179,145,40601,1,0,3:0:0:0:
157,27,41116,6,0,P|228:26|256:48,1,89.9999999999999,0|0,3:0|0:0,0:0:0:0:
304,112,41801,1,8,0:0:0:0:
354,252,42316,2,0,P|398:262|451:238,1,89.9999999999999,0|0,0:0|0:0,0:0:0:0:
472,211,42830,1,0,3:0:0:0:
507,303,43173,1,8,0:0:0:0:
324,226,43858,6,0,P|262:210|191:248,2,135,0|0|0,3:0|3:0|3:0,0:0:0:0:
350,321,45230,1,0,3:0:0:0:
435,269,45573,5,8,0:0:0:0:
435,269,45744,2,0,P|451:228|430:142,1,135,0|0,3:0|3:0,0:0:0:0:
345,91,46601,5,4,2:1:0:0:
363,41,57573,6,0,L|351:137,1,72,0|0,3:0|0:0,0:0:0:0:
326,186,58258,2,0,L|338:282,1,72,8|0,0:0|0:0,0:0:0:0:
277,311,58944,6,0,P|241:304|201:312,2,71.9999999999999,0|0|8,0:0|3:0|0:0,0:0:0:0:
349,343,59973,1,0,0:0:0:0:
414,298,60316,6,0,P|421:262|413:222,1,71.9999999999999,0|0,3:0|0:0,0:0:0:0:
344,191,61001,2,0,P|337:227|345:267,1,71.9999999999999,8|0,0:0|0:0,0:0:0:0:
265,243,61687,6,0,L|152:216,1,108,0|0,0:0|0:0,0:0:0:0:
120,216,62373,2,0,P|107:265|140:327,1,108,8|0,0:0|0:0,0:0:0:0:
155,344,63058,6,0,L|242:331,1,72,0|0,3:0|3:0,0:0:0:0:
296,295,63744,2,0,L|383:308,1,72,0|0,3:0|3:0,0:0:0:0:
438,271,64430,2,0,L|413:104,1,144,8|8,2:0|0:0,0:0:0:0:
256,192,65801,12,4,67858,0:0:0:0:
334,133,68544,5,0,3:0:0:0:
236,114,68887,1,0,0:0:0:0:
137,100,69230,2,0,B|124:171|124:171|151:274,1,135,8|0,0:0|0:0,0:0:0:0:
163,275,69916,1,0,3:0:0:0:
356,306,70601,2,0,B|348:253|348:253|357:223|357:223|344:148,1,135,8|0,0:0|0:0,0:0:0:0:
338,127,71287,1,0,3:0:0:0:
244,94,71630,1,0,0:0:0:0:
150,61,71973,6,0,P|103:69|16:9,2,135,8|0|0,0:0|3:0|3:0,0:0:0:0:
244,32,73344,1,8,0:0:0:0:
289,19,73516,1,0,3:0:0:0:
398,110,74030,6,0,L|375:204,1,89.9999999999999,0|0,3:0|0:0,0:0:0:0:
367,291,74716,2,0,B|311:263|311:263|211:269,1,135,8|0,0:0|0:0,0:0:0:0:
192,275,75401,1,0,3:0:0:0:
2,272,76087,2,0,B|30:232|30:232|25:125,1,135,8|0,0:0|0:0,0:0:0:0:
23,98,76773,1,0,3:0:0:0:
120,117,77116,1,0,0:0:0:0:
216,139,77458,6,0,L|358:129,2,135,8|0|0,3:2|3:0|3:0,0:0:0:0:
209,39,78830,1,8,0:0:0:0:
209,39,79001,1,0,3:0:0:0:
96,136,79516,6,0,B|77:186|101:226|101:226|110:260|95:306,1,135,0|0,3:0|0:0,0:0:0:0:
83,309,80201,6,0,B|177:296|177:296|237:338,1,135,8|0,0:0|0:0,0:0:0:0:
236,358,80887,1,0,3:0:0:0:
242,169,81573,2,0,B|295:182|295:182|393:180,1,135,8|0,0:0|0:0,0:0:0:0:
424,179,82258,1,0,3:0:0:0:
367,260,82601,1,0,0:0:0:0:
305,337,82944,6,0,P|241:353|182:322,2,135,8|0|0,0:0|3:0|3:0,0:0:0:0:
367,260,84316,1,8,0:0:0:0:
362,214,84487,1,0,3:0:0:0:
246,120,85001,6,0,B|219:104|195:110|195:110|180:121|161:123|161:123|137:110|104:115,1,135,0|0,3:0|0:0,0:0:0:0:
68,122,85687,6,0,B|59:192|59:192|92:247,1,135,8|0,0:0|0:0,0:0:0:0:
119,289,86373,1,0,3:0:0:0:
297,202,87058,2,0,B|380:182|380:182|453:191,1,135,8|0,0:0|0:0,0:0:0:0:
475,206,87744,1,0,3:0:0:0:
397,267,88087,1,0,0:0:0:0:
315,323,88430,6,0,P|239:300|183:329,2,135,8|0|0,3:2|3:0|3:0,0:0:0:0:
411,299,89801,1,8,0:0:0:0:
411,299,89973,1,0,3:0:0:0:
409,150,90487,6,0,L|273:123,1,135,0|0,3:0|0:0,0:0:0:0:
227,118,91173,2,0,B|210:167|210:167|221:214,2,89.9999999999999,8|0|0,0:0|0:0|0:0,0:0:0:0:
268,28,92201,1,0,3:0:0:0:
172,54,92544,2,0,L|75:37,1,89.9999999999999,8|0,0:0|0:0,0:0:0:0:
0,94,93230,6,0,L|11:198,1,89.9999999999999,0|0,3:0|0:0,0:0:0:0:
31,280,93916,2,0,P|85:242|102:178,2,135,8|0|0,0:0|0:0|3:0,0:0:0:0:
28,379,95287,1,8,0:0:0:0:
72,372,95458,1,0,3:0:0:0:
193,285,95973,6,0,P|245:322|341:304,1,135,0|0,3:0|0:0,0:0:0:0:
357,297,96658,2,0,P|411:288|457:315,2,89.9999999999999,8|0|0,0:0|0:0|0:0,0:0:0:0:
276,238,97687,1,0,3:0:0:0:
189,190,98030,2,0,P|133:182|46:236,1,135,8|0,0:0|1:0,0:0:0:0:
54,263,98716,5,0,3:0:0:0:
93,353,99058,2,0,P|115:351|136:343,1,45,8|0,0:0|3:0,0:0:0:0:
225,298,99573,2,0,P|247:299|268:307,1,45,8|0,0:0|3:0,0:0:0:0:
349,364,100087,1,0,3:0:0:0:
353,265,100430,1,8,0:0:0:0:
358,215,100601,2,0,L|126:189,1,225,0|4,3:0|0:1,0:0:0:0:
