osu file format v14

[General]
AudioFilename: audio.mp3
AudioLeadIn: 0
PreviewTime: 68201
Countdown: 0
SampleSet: Soft
StackLeniency: 0.3
Mode: 0
LetterboxInBreaks: 0
WidescreenStoryboard: 1

[Editor]
Bookmarks: 21906,57563,88763
DistanceSpacing: 1.7
BeatDivisor: 4
GridSize: 8
TimelineZoom: 2.200003

[Metadata]
Title:LGND
TitleUnicode:LΞGΞND
Artist:Tha Trickaz
ArtistUnicode:Tha Trickaz
Creator:Mun
Version:SDAFSF'S INSANE
Source:
Tags:waku sdafsf dubstep drumstep trap otodayo supa cloud city lp legend
BeatmapID:1418477
BeatmapSetID:670373

[Difficulty]
HPDrainRate:5
CircleSize:4
OverallDifficulty:7
ApproachRate:9
SliderMultiplier:1.6
SliderTickRate:1

[Events]
//Background and Video events
0,0,"stop_and_stare_by_nanomortis-d9tjzmt.png",0,0
//Break Periods
2,46801,56973
//Storyboard Layer 0 (Background)
//Storyboard Layer 1 (Fail)
//Storyboard Layer 2 (Pass)
//Storyboard Layer 3 (Foreground)
//Storyboard Sound Samples

[TimingPoints]
2716,342.857142857143,4,2,1,100,1,0
21916,-133.333333333333,4,2,1,100,0,0
24316,-100,4,2,1,100,0,0
25344,-83.3333333333333,4,2,1,100,0,0
25687,-100,4,2,1,100,0,0
26373,-200,4,2,1,100,0,0
26716,-66.6666666666667,4,2,1,100,0,0
27058,-100,4,2,1,100,0,0
28087,-83.3333333333333,4,2,1,100,0,0
28601,-100,4,2,1,100,0,0
29116,-200,4,2,1,100,0,0
29458,-83.3333333333333,4,2,1,100,0,0
30144,-100,4,2,1,100,0,0
30830,-83.3333333333333,4,2,1,100,0,0
31173,-100,4,2,1,100,0,0
31858,-200,4,2,1,100,0,0
32201,-66.6666666666667,4,2,1,100,0,0
32543,-100,4,2,1,100,0,0
32887,-133.333333333333,4,2,1,100,0,0
33230,-83.3333333333333,4,2,1,100,0,0
33401,-133.333333333333,4,2,1,100,0,0
33744,-83.3333333333333,4,2,1,100,0,0
33916,-133.333333333333,4,2,1,100,0,0
34259,-83.3333333333333,4,2,1,100,0,0
34773,-133.333333333333,4,2,1,100,0,0
35116,-83.3333333333333,4,2,1,100,0,0
35287,-100,4,2,1,100,0,0
36316,-83.3333333333333,4,2,1,100,0,0
36658,-100,4,2,1,100,0,0
37344,-200,4,2,1,100,0,0
37687,-66.6666666666667,4,2,1,100,0,0
38029,-100,4,2,1,100,0,0
39058,-83.3333333333333,4,2,1,100,0,0
39573,-100,4,2,1,100,0,0
40087,-200,4,2,1,100,0,0
40429,-83.3333333333333,4,2,1,100,0,0
41115,-100,4,2,1,100,0,0
41801,-83.3333333333333,4,2,1,100,0,0
42144,-100,4,2,1,100,0,0
42829,-200,4,2,1,100,0,0
43172,-66.6666666666667,4,2,1,100,0,0
43514,-100,4,2,1,100,0,0
43858,-133.333333333333,4,2,1,100,0,0
44201,-83.3333333333333,4,2,1,100,0,0
44372,-133.333333333333,4,2,1,100,0,0
44715,-83.3333333333333,4,2,1,100,0,0
44887,-133.333333333333,4,2,1,100,0,0
45230,-83.3333333333333,4,2,1,100,0,0
45744,-133.333333333333,4,2,1,100,0,0
46087,-83.3333333333333,4,2,1,100,0,0
57573,-125,4,2,1,100,0,0
64430,-100,4,2,2,100,0,0
65801,-100,4,3,2,100,0,0
67516,-100,4,3,2,70,0,0
67858,-100,4,2,4,100,0,0
68201,-100,4,2,1,100,0,0
68544,-50,4,2,1,100,0,1
68887,-125,4,2,1,100,0,1
69230,-1000,4,2,1,100,0,1
69744,-50,4,2,1,100,0,1
70258,-125,4,2,1,100,0,1
70601,-1000,4,2,1,100,0,1
71116,-50,4,2,1,100,0,1
71630,-100,4,2,1,100,0,1
71973,-76.9230769230769,4,2,1,100,0,1
72658,-71.4285714285714,4,2,1,100,0,1
74030,-50,4,2,1,100,0,1
74373,-125,4,2,1,100,0,1
74716,-1000,4,2,1,100,0,1
75230,-50,4,2,1,100,0,1
75744,-100,4,2,1,100,0,1
76087,-1000,4,2,1,100,0,1
76601,-50,4,2,1,100,0,1
77116,-100,4,2,1,100,0,1
77458,-200,4,2,1,100,0,1
77801,-100,4,2,1,100,0,1
77973,-200,4,2,1,100,0,1
78316,-100,4,2,1,100,0,1
78487,-200,4,2,1,100,0,1
79001,-100,4,2,1,100,0,1
79173,-83.3333333333333,4,2,1,100,0,1
79344,-71.4285714285714,4,2,1,100,0,1
79516,-100,4,2,1,100,0,1
79773,-100,4,2,1,100,0,1
79858,-50,4,2,1,100,0,1
80201,-1000,4,2,1,100,0,1
80716,-50,4,2,1,100,0,1
81230,-125,4,2,1,100,0,1
81573,-1000,4,2,1,100,0,1
82087,-50,4,2,1,100,0,1
82601,-100,4,2,1,100,0,1
82944,-76.9230769230769,4,2,1,100,0,1
83630,-71.4285714285714,4,2,1,100,0,1
85001,-66.6666666666667,4,2,1,100,0,1
85687,-1000,4,2,1,100,0,1
86201,-50,4,2,1,100,0,1
86716,-100,4,2,1,100,0,1
87058,-1000,4,2,1,100,0,1
87573,-50,4,2,1,100,0,1
88087,-100,4,2,1,100,0,1
88430,-200,4,2,1,100,0,1
88773,-100,4,2,1,100,0,1
88944,-200,4,2,1,100,0,1
89973,-100,4,2,1,100,0,1
90145,-83.3333333333333,4,2,1,100,0,1
90316,-71.4285714285714,4,2,1,100,0,1
90487,-66.6666666666667,4,2,1,100,0,0
91344,-83.3333333333333,4,2,1,100,0,0
92544,-66.6666666666667,4,2,1,100,0,0
92887,-100,4,2,1,100,0,0
93230,-83.3333333333333,4,2,1,100,0,0
93916,-71.4285714285714,4,2,1,100,0,0
96830,-83.3333333333333,4,2,1,100,0,0
98030,-66.6666666666667,4,2,1,100,0,0
98716,-83.3333333333333,4,2,1,100,0,0
99058,-66.6666666666667,4,2,1,100,0,0
99230,-83.3333333333333,4,2,1,100,0,0
99572,-66.6666666666667,4,2,1,100,0,0
99744,-83.3333333333333,4,2,1,100,0,0
100430,-66.6666666666667,4,2,1,100,0,0
100773,-100,4,2,1,100,0,0
101458,-125,4,2,1,100,0,0
178258,-66.6666666666667,4,2,1,100,0,0
222144,-66.6666666666667,4,2,1,100,0,0

[Colours]
Combo1 : 255,156,21
Combo2 : 117,0,0
Combo3 : 221,92,30
Combo4 : 192,192,192

[HitObjects]
81,160,21916,6,0,L|76:235,1,60.0000022888184,0|0,2:0|0:0,0:0:0:0:
65,235,22258,1,0,0:0:0:0:
170,138,22430,2,0,L|165:213,1,60.0000022888184,0|0,2:0|0:0,0:0:0:0:
154,213,22772,1,0,0:0:0:0:
259,116,22944,2,0,L|254:191,1,60.0000022888184,0|0,2:0|1:0,0:0:0:0:
65,235,23630,5,0,0:0:0:0:
170,138,23801,2,0,L|165:213,1,60.0000022888184,0|0,2:0|0:0,0:0:0:0:
154,213,24144,1,0,0:0:0:0:
298,110,24316,2,0,L|251:116,1,40,0|0,0:0|1:0,0:0:0:0:
349,184,24487,2,0,L|396:190,1,40,0|0,0:0|1:0,0:0:0:0:
405,38,24658,6,0,P|346:32|300:121,1,160,0|0,3:0|0:0,0:0:0:0:
304,126,25173,1,0,0:0:0:0:
497,101,25344,2,0,P|511:154|490:204,1,95.9999970703126,8|0,0:0|0:0,0:0:0:0:
451,347,25687,1,0,0:0:0:0:
499,192,25858,6,0,B|465:176|465:176|369:187,1,120,0|0,0:0|1:0,0:0:0:0:
351,260,26201,2,0,L|359:315,1,40,0|0,0:0|1:0,0:0:0:0:
198,210,26373,6,0,P|221:194|263:193,1,60,0|0,3:0|1:0,0:0:0:0:
288,199,26716,6,0,P|221:184|173:251,1,120.000004577637,8|0,0:0|0:0,0:0:0:0:
212,356,27058,6,0,P|243:310|186:295,1,120,0|0,0:0|1:0,0:0:0:0:
58,340,27401,6,0,B|98:361|98:361|221:356,1,160,0|0,3:0|0:0,0:0:0:0:
227,343,27916,1,0,0:0:0:0:
101,182,28087,2,0,P|41:239|58:340,1,191.999994140625,8|0,0:0|0:0,0:0:0:0:
176,255,28601,6,0,B|191:193|191:193|180:127,1,120,0|0,0:0|1:0,0:0:0:0:
88,92,28944,1,0,0:0:0:0:
237,68,29116,6,0,P|208:56|177:53,1,60,0|0,3:0|1:0,0:0:0:0:
153,33,29458,6,0,P|181:31|207:37,1,47.9999985351563,8|0,0:0|1:0,0:0:0:0:
319,66,29630,1,0,3:0:0:0:
287,180,29801,2,0,P|332:144|319:66,1,143.999995605469,0|0,0:0|1:0,0:0:0:0:
221,189,30144,6,0,B|272:186|272:186|322:202|322:202|386:199,1,160,0|0,3:0|0:0,0:0:0:0:
399,187,30658,1,0,0:0:0:0:
329,370,30830,2,0,B|317:322|317:322|325:263,1,95.9999970703126,8|0,0:0|0:0,0:0:0:0:
399,187,31173,2,0,B|403:210|403:210|400:234,1,40,0|0,0:0|1:0,0:0:0:0:
329,370,31344,6,0,P|269:381|197:351,1,120,0|0,0:0|1:0,0:0:0:0:
185,269,31687,1,0,0:0:0:0:
53,347,31858,6,0,L|117:341,1,60,0|0,3:0|1:0,0:0:0:0:
134,364,32201,6,0,L|5:351,1,120.000004577637,8|0,0:0|0:0,0:0:0:0:
40,234,32544,6,0,B|61:260|61:260|52:351,1,120
123,231,32887,6,0,P|71:219|32:241,1,90.0000034332277,0|0,3:0|1:0,0:0:0:0:
14,242,33230,2,0,P|36:224|72:215,1,47.9999985351563,8|0,0:0|1:0,0:0:0:0:
201,231,33401,2,0,P|185:179|146:157,1,90.0000034332277,0|0,3:0|1:0,0:0:0:0:
136,142,33744,2,0,P|162:152|188:178,1,47.9999985351563,8|0,0:0|1:0,0:0:0:0:
242,315,33916,2,0,P|273:283|280:219,1,90.0000034332277,0|0,3:0|1:0,0:0:0:0:
268,163,34259,1,0,3:0:0:0:
340,379,34601,6,0,L|341:307,1,47.9999985351563,8|0,0:0|1:0,0:0:0:0:
512,273,34773,2,0,B|467:269|467:269|403:290,1,90.0000034332277,0|0,3:0|1:0,0:0:0:0:
411,303,35116,2,0,L|412:231,1,47.9999985351563,8|0,0:0|1:0,0:0:0:0:
377,153,35287,2,0,L|424:154,1,40,0|0,0:0|1:0,0:0:0:0:
327,233,35458,2,0,L|280:243,1,40,0|0,0:0|1:0,0:0:0:0:
252,104,35630,6,0,P|329:94|377:153,1,160,0|0,3:0|0:0,0:0:0:0:
370,165,36144,1,0,0:0:0:0:
216,189,36316,6,0,B|206:238|206:238|217:289,1,95.9999970703126,8|0,0:0|0:0,0:0:0:0:
322,384,36658,2,0,L|326:333,1,40,0|0,0:0|1:0,0:0:0:0:
216,283,36830,2,0,P|162:264|98:290,1,120,0|0,0:0|1:0,0:0:0:0:
50,366,37173,1,0,0:0:0:0:
99,224,37344,6,0,L|105:283,1,60,0|0,3:0|1:0,0:0:0:0:
134,300,37687,6,0,B|129:264|129:264|100:227|100:227|91:148,1,120.000004577637,8|0,0:0|0:0,0:0:0:0:
159,135,38030,6,0,P|151:189|96:191,1,120,0|0,0:0|1:0,0:0:0:0:
18,114,38373,6,0,P|83:155|158:135,1,160,0|0,3:0|0:0,0:0:0:0:
170,118,38887,1,0,0:0:0:0:
279,0,39058,2,0,B|302:84|302:84|275:196,1,191.999994140625,8|0,0:0|0:0,0:0:0:0:
174,261,39573,6,0,P|229:280|300:250,1,120,0|0,0:0|1:0,0:0:0:0:
376,220,39916,1,0,0:0:0:0:
302,100,40087,6,0,L|299:163,1,60,0|0,3:0|1:0,0:0:0:0:
277,185,40430,6,0,L|272:126,1,47.9999985351563,8|0,0:0|1:0,0:0:0:0:
232,23,40601,1,0,3:0:0:0:
111,8,40773,2,0,P|149:43|235:20,1,143.999995605469,0|0,0:0|1:0,0:0:0:0:
111,8,41116,6,0,B|89:88|89:88|114:184,1,160,0|0,3:0|0:0,0:0:0:0:
123,176,41630,1,0,0:0:0:0:
297,112,41801,2,0,P|258:102|196:121,1,95.9999970703126,8|0,0:0|0:0,0:0:0:0:
123,176,42144,2,0,P|146:181|176:173,1,40,0|0,0:0|1:0,0:0:0:0:
297,112,42316,6,0,B|313:167|313:167|297:242,1,120,0|0,0:0|1:0,0:0:0:0:
247,330,42658,1,0,0:0:0:0:
95,260,42830,6,0,P|126:263|155:254,1,60,0|0,3:0|1:0,0:0:0:0:
171,234,43173,6,0,P|109:220|51:275,1,120.000004577637,8|0,0:0|0:0,0:0:0:0:
84,357,43516,6,0,P|93:299|58:243,1,120,0|0,0:0|0:0,0:0:0:0:
196,340,43858,6,0,L|298:350,1,90.0000034332277,0|0,3:0|1:0,0:0:0:0:
337,339,44201,2,0,L|271:330,1,47.9999985351563,8|0,0:0|1:0,0:0:0:0:
154,256,44373,2,0,L|256:266,1,90.0000034332277,0|0,3:0|1:0,0:0:0:0:
295,255,44716,2,0,L|229:246,1,47.9999985351563,8|0,0:0|1:0,0:0:0:0:
112,172,44887,2,0,L|214:182,1,90.0000034332277,0|0,3:0|1:0,0:0:0:0:
281,150,45230,1,0,3:0:0:0:
89,54,45573,6,0,L|155:45,1,47.9999985351563,8|0,0:0|1:0,0:0:0:0:
316,68,45744,2,0,L|214:78,1,90.0000034332277,0|0,3:0|1:0,0:0:0:0:
175,67,46087,2,0,L|241:58,1,47.9999985351563,8|0,0:0|1:0,0:0:0:0:
382,26,46258,1,0,3:0:0:0:
40,154,46601,5,4,2:1:0:0:
76,47,57573,6,0,P|65:88|90:154,1,96,0|0,3:0|0:0,0:0:0:0:
60,160,57916,2,0,P|71:201|46:267,1,96,0|0,0:0|0:0,0:0:0:0:
36,267,58258,2,0,L|41:343,1,64,8|0,0:0|0:0,0:0:0:0:
116,359,58516,1,0,0:0:0:0:
113,378,58601,1,0,0:0:0:0:
292,261,58858,1,0,0:0:0:0:
278,244,58944,6,0,L|281:194,1,32,0|0,0:0|0:0,0:0:0:0:
341,156,59116,1,0,0:0:0:0:
378,265,59287,2,0,P|428:279|476:263,1,96,0|0,3:0|0:0,0:0:0:0:
478,247,59630,6,0,L|483:201,1,32,8|0,0:0|0:0,0:0:0:0:
416,127,59801,2,0,L|419:158,1,32,0|0,0:0|0:0,0:0:0:0:
493,239,59973,2,0,L|498:193,1,32,0|0,0:0|0:0,0:0:0:0:
431,119,60144,2,0,L|434:150,1,32,0|0,0:0|0:0,0:0:0:0:
412,293,60316,6,0,L|457:299,3,32,0|0|0|0,3:0|0:0|0:0|0:0,0:0:0:0:
352,369,60658,2,0,L|397:363,3,32,0|0|0|0,0:0|0:0|0:0|0:0,0:0:0:0:
300,271,61001,2,0,L|345:277,3,32,8|0|0|0,0:0|0:0|0:0|0:0,0:0:0:0:
244,384,61344,2,0,L|289:378,3,32,0|0|0|0,0:0|0:0|0:0|0:0,0:0:0:0:
177,288,61687,6,0,P|169:318|172:350,1,64,0|0,0:0|0:0,0:0:0:0:
233,224,62030,2,0,P|240:193|237:161,1,64,0|0,3:0|0:0,0:0:0:0:
131,120,62373,2,0,L|175:113,1,32,8|0,0:0|0:0,0:0:0:0:
282,81,62544,2,0,L|238:74,1,32,0|0,0:0|0:0,0:0:0:0:
134,107,62716,2,0,L|178:100,1,32,0|0,0:0|0:0,0:0:0:0:
285,68,62887,2,0,L|241:61,1,32,0|0,0:0|0:0,0:0:0:0:
106,30,63058,6,0,L|109:-17,3,32,0|0|0|0,3:0|0:0|0:0|0:0,0:0:0:0:
35,104,63401,2,0,L|32:57,3,32,0|0|0|0,3:0|0:0|0:0|0:0,0:0:0:0:
131,138,63744,2,0,L|134:91,3,32,0|0|0|0,3:0|0:0|0:0|0:0,0:0:0:0:
63,220,64087,2,0,L|60:173,3,32,0|0|0|0,3:0|0:0|0:0|0:0,0:0:0:0:
182,295,64430,6,0,L|280:301,1,80,8|8,2:0|0:0,0:0:0:0:
142,215,64773,2,0,L|44:221,1,80,8|8,0:0|0:0,0:0:0:0:
182,295,65116,5,8,0:0:0:0:
220,206,65287,1,8,0:0:0:0:
94,314,65458,1,8,0:0:0:0:
231,375,65630,1,8,0:0:0:0:
294,281,65801,5,0,0:0:0:0:
327,259,65886,1,0,0:0:0:0:
366,252,65972,1,0,0:0:0:0:
405,260,66058,1,0,0:0:0:0:
439,282,66144,2,0,L|432:339,3,40,0|0|0|0,0:0|0:0|0:0|0:0,0:0:0:0:
401,165,66487,5,0,0:0:0:0:
379,131,66572,1,0,0:0:0:0:
372,92,66658,1,0,0:0:0:0:
380,53,66744,1,0,0:0:0:0:
402,19,66830,2,0,L|458:26,3,40,0|0|0|0,0:0|0:0|0:0|0:0,0:0:0:0:
282,20,67173,5,0,0:0:0:0:
243,10,67258,1,0,0:0:0:0:
206,22,67344,1,0,0:0:0:0:
182,54,67430,1,0,0:0:0:0:
179,93,67515,1,2,2:0:0:0:
198,127,67601,1,2,2:0:0:0:
232,146,67687,1,2,2:0:0:0:
272,142,67773,1,2,2:0:0:0:
320,85,67858,5,4,0:0:0:0:
207,267,68544,6,0,P|117:287|209:330,1,240,0|0,3:0|1:0,0:0:0:0:
225,347,68887,6,0,L|226:386,1,32,0|0,0:0|1:0,0:0:0:0:
289,234,69058,2,0,L|290:273,1,32,0|0,0:0|0:0,0:0:0:0:
411,361,69230,6,0,L|429:363,1,16,8|0,0:0|1:0,0:0:0:0:
512,273,69744,5,0,0:0:0:0:
439,277,69830,1,0,0:0:0:0:
368,282,69916,2,0,B|323:312|323:312|516:304,1,240,0|0,3:0|1:0,0:0:0:0:
376,193,70258,6,0,P|356:237|387:302,1,96,0|0,0:0|1:0,0:0:0:0:
453,163,70601,6,0,L|454:148,1,16,8|0,0:0|1:0,0:0:0:0:
364,49,71116,5,0,0:0:0:0:
370,123,71202,1,0,0:0:0:0:
376,193,71288,2,0,B|406:238|406:238|398:45,1,240,0|0,3:0|1:0,0:0:0:0:
295,14,71630,6,0,P|273:20|243:20,1,40,0|0,0:0|1:0,0:0:0:0:
225,90,71801,2,0,P|203:84|173:84,1,40,0|0,0:0|1:0,0:0:0:0:
71,169,71973,6,0,B|52:127|52:127|65:-4,1,155.999992858887,8|0,0:0|1:0,0:0:0:0:
146,23,72316,1,0,0:0:0:0:
144,40,72401,1,0,0:0:0:0:
143,58,72487,2,0,L|138:120,1,51.999997619629,0|0,3:0|1:0,0:0:0:0:
163,250,72658,6,0,P|83:243|81:153,1,167.999994873047,0|0,0:0|1:0,0:0:0:0:
222,133,73001,2,0,B|221:188|221:188|247:238|247:238|245:323,1,167.999994873047,0|0,3:0|1:0,0:0:0:0:
175,384,73344,6,0,L|178:304,1,55.9999982910157,8|0,0:0|1:0,0:0:0:0:
163,250,73516,1,0,3:0:0:0:
266,373,73687,2,0,P|297:378|327:375,1,55.9999982910157,0|0,0:0|1:0,0:0:0:0:
388,239,73858,2,0,P|357:234|327:237,1,55.9999982910157,0|0,0:0|1:0,0:0:0:0:
422,350,74030,6,0,B|452:382|452:382|451:322|451:322|471:275|471:275|469:160,1,240,0|0,3:0|1:0,0:0:0:0:
387,133,74373,6,0,L|392:82,1,32,0|0,0:0|1:0,0:0:0:0:
443,31,74544,2,0,L|438:-19,1,32,0|0,0:0|0:0,0:0:0:0:
297,116,74716,6,0,L|280:116,1,16,8|0,0:0|0:0,0:0:0:0:
190,204,75230,5,0,0:0:0:0:
264,201,75316,1,0,0:0:0:0:
335,199,75401,2,0,B|363:196|380:168|380:168|276:122|196:187,1,240,0|0,3:0|1:0,0:0:0:0:
151,276,75744,6,0,L|154:302,2,20,0|0|0,0:0|0:0|0:0,0:0:0:0:
253,280,75916,1,0,0:0:0:0:
252,290,76001,1,0,0:0:0:0:
235,319,76087,6,0,L|235:335,1,16,8|0,0:0|1:0,0:0:0:0:
329,384,76601,5,0,0:0:0:0:
325,312,76687,1,0,0:0:0:0:
319,241,76772,2,0,B|316:213|288:196|288:196|242:300|307:380,1,240,0|0,3:0|1:0,0:0:0:0:
413,321,77116,6,0,L|419:262,1,40,0|0,0:0|1:0,0:0:0:0:
495,248,77287,2,0,L|489:189,1,40,0|0,0:0|1:0,0:0:0:0:
404,64,77458,6,0,P|373:57|333:65,1,60,8|0,3:2|1:0,0:0:0:0:
273,93,77801,6,0,P|302:95|332:84,1,40,0|0,0:0|0:0,0:0:0:0:
477,132,77973,6,0,P|435:145|393:136,1,80,0|0,3:0|0:0,0:0:0:0:
316,96,78401,1,0,0:0:0:0:
316,96,78487,2,0,L|313:165,1,60,0|0,3:0|1:0,0:0:0:0:
408,328,78830,1,8,0:0:0:0:
298,263,79001,6,0,P|275:258|251:263,1,40,0|0,3:0|1:0,0:0:0:0:
187,351,79173,2,0,P|210:356|242:349,1,47.9999985351563,0|0,0:0|1:0,0:0:0:0:
311,253,79344,2,0,P|288:245|249:251,1,55.9999982910157,0|0,0:0|1:0,0:0:0:0:
156,326,79516,6,0,P|208:345|291:320,1,120,0|0,3:0|1:0,0:0:0:0:
324,346,79858,6,0,P|269:385|296:283,1,240,0|0,0:0|1:0,0:0:0:0:
399,313,80201,6,0,L|416:313,1,16,8|0,0:0|1:0,0:0:0:0:
512,251,80717,5,0,0:0:0:0:
439,250,80802,1,0,0:0:0:0:
366,248,80888,2,0,B|326:261|326:261|425:317|524:243,1,240,0|0,3:0|1:0,0:0:0:0:
368,156,81231,6,0,P|354:198|376:261,1,96,0|0,0:0|1:0,0:0:0:0:
452,113,81573,6,0,L|452:96,1,16,8|0,0:0|1:0,0:0:0:0:
371,11,82088,5,0,0:0:0:0:
370,83,82173,1,0,0:0:0:0:
368,156,82258,2,0,B|381:196|381:196|437:97|363:-2,1,240,0|0,3:0|1:0,0:0:0:0:
285,67,82601,6,0,L|226:74,1,40,0|0,0:0|1:0,0:0:0:0:
202,153,82773,2,0,L|143:146,1,40,0|0,0:0|1:0,0:0:0:0:
67,44,82944,6,0,B|43:19|43:19|-9:74|48:157,1,155.999992858887,8|0,0:0|0:0,0:0:0:0:
118,145,83287,1,0,0:0:0:0:
121,162,83372,1,0,0:0:0:0:
119,179,83458,2,0,P|115:209|119:243,1,51.999997619629,0|0,3:0|1:0,0:0:0:0:
4,282,83630,6,0,P|71:303|112:217,1,167.999994873047,0|0,0:0|1:0,0:0:0:0:
4,282,83973,2,0,B|56:284|56:284|106:315|106:315|171:316,1,167.999994873047,0|0,3:0|1:0,0:0:0:0:
285,248,84316,6,0,L|220:249,1,55.9999982910157,8|0,0:0|1:0,0:0:0:0:
163,315,84487,1,0,3:0:0:0:
343,365,84658,6,0,P|348:333|341:295,1,55.9999982910157,0|0,0:0|1:0,0:0:0:0:
285,248,84830,2,0,P|280:216|287:178,1,55.9999982910157,0|0,0:0|1:0,0:0:0:0:
331,72,85001,6,0,B|353:46|351:11|351:11|467:150|284:235|277:81|151:155,1,420.000016021729,0|0,3:0|1:0,0:0:0:0:
216,239,85687,6,0,L|216:221,1,16,8|0,0:0|1:0,0:0:0:0:
133,190,86201,5,0,0:0:0:0:
136,263,86287,1,0,0:0:0:0:
142,336,86373,2,0,B|176:366|176:366|162:156,1,240,0|0,3:0|1:0,0:0:0:0:
222,124,86716,6,0,L|260:121,2,20,0|0|0,0:0|0:0|0:0,0:0:0:0:
221,43,86888,1,0,0:0:0:0:
211,42,86973,1,0,0:0:0:0:
182,25,87058,6,0,L|164:25,1,16,8|0,0:0|1:0,0:0:0:0:
124,130,87572,5,0,0:0:0:0:
196,125,87658,1,0,0:0:0:0:
268,118,87744,2,0,B|298:84|298:84|88:98,1,240,0|0,3:0|1:0,0:0:0:0:
19,248,88087,6,0,P|49:251|75:244,1,40,0|0,0:0|1:0,0:0:0:0:
130,206,88258,2,0,P|160:203|186:210,1,40,0|0,0:0|1:0,0:0:0:0:
303,303,88430,6,0,P|270:310|234:300,1,60,8|0,3:2|1:0,0:0:0:0:
174,279,88773,6,0,P|207:278|232:286,1,40
348,376,88944,6,0,P|311:388|270:381,1,80,0|0,3:0|0:0,0:0:0:0:
218,283,89373,1,0,0:0:0:0:
218,283,89458,2,0,L|220:213,1,60,0|0,3:0|1:0,0:0:0:0:
282,47,89801,1,8,0:0:0:0:
340,134,89973,6,0,P|363:139|387:134,1,40,0|0,3:0|1:0,0:0:0:0:
451,46,90145,2,0,P|428:41|396:48,1,47.9999985351563,0|0,0:0|1:0,0:0:0:0:
327,144,90316,2,0,P|350:152|389:146,1,55.9999982910157,0|0,0:0|1:0,0:0:0:0:
282,47,90487,6,0,P|205:67|299:116,1,240.000009155274,0|0,3:0|1:0,0:0:0:0:
91,38,91173,1,8,0:0:0:0:
34,111,91344,6,0,P|27:140|38:185,1,47.9999985351563,0|0,0:0|1:0,0:0:0:0:
126,236,91516,2,0,P|133:207|122:162,1,47.9999985351563,0|0,0:0|1:0,0:0:0:0:
45,122,91687,2,0,P|38:151|49:196,1,47.9999985351563,0|0,0:0|1:0,0:0:0:0:
137,247,91859,2,0,P|144:218|133:173,1,47.9999985351563,0|0,0:0|1:0,0:0:0:0:
56,133,92030,2,0,P|49:162|60:207,1,47.9999985351563,0|0,0:0|1:0,0:0:0:0:
152,260,92201,1,0,3:0:0:0:
152,260,92544,6,0,P|228:231|318:271,1,180.000006866455,8|0,0:0|1:0,0:0:0:0:
294,286,92887,2,0,B|270:299|270:299|267:197,1,120,0|0,0:0|1:0,0:0:0:0:
230,137,93230,2,0,P|230:188|284:122,1,191.999994140625,0|0,3:0|0:0,0:0:0:0:
380,218,93916,6,0,P|390:136|348:66,2,167.999994873047,8|0|0,0:0|0:0|0:0,0:0:0:0:
455,61,94601,2,0,P|417:14|332:-17,1,111.999996582031,0|0,0:0|0:0,0:0:0:0:
198,31,94944,6,0,P|218:100|263:37,1,167.999994873047,0|0,3:0|0:0,0:0:0:0:
278,28,95287,2,0,P|273:57|276:96,1,55.9999982910157,8|0,0:0|1:0,0:0:0:0:
313,200,95458,6,0,B|286:214|286:214|235:218,1,55.9999982910157,0|0,3:0|1:0,0:0:0:0:
342,124,95630,2,0,B|367:140|367:140|396:182,1,55.9999982910157,0|0,0:0|1:0,0:0:0:0:
262,137,95801,2,0,B|263:106|263:106|285:60,1,55.9999982910157,0|0,0:0|1:0,0:0:0:0:
456,160,95973,6,0,B|487:198|487:198|312:200,1,223.999993164063,0|0,3:0|0:0,0:0:0:0:
80,142,96658,1,8,0:0:0:0:
131,205,96830,6,0,P|138:234|130:276,1,47.9999985351563,0|0,0:0|1:0,0:0:0:0:
39,330,97001,2,0,P|32:301|43:256,1,47.9999985351563,0|0,0:0|1:0,0:0:0:0:
120,216,97172,2,0,P|127:245|116:290,1,47.9999985351563,0|0,0:0|1:0,0:0:0:0:
28,341,97344,2,0,P|21:312|32:267,1,47.9999985351563,0|0,0:0|1:0,0:0:0:0:
109,227,97515,2,0,P|116:256|105:301,1,47.9999985351563,0|0,0:0|1:0,0:0:0:0:
13,354,97686,1,0,3:0:0:0:
13,354,98030,6,0,P|84:329|197:378,1,180.000006866455,8|0,0:0|1:0,0:0:0:0:
193,374,98373,2,0,P|179:312|206:250,1,120.000004577637,0|0,0:0|1:0,0:0:0:0:
354,308,98630,1,0,0:0:0:0:
354,308,98716,6,0,B|382:345|382:345|267:337,1,143.999995605469,0|0,3:0|1:0,0:0:0:0:
263,325,99058,2,0,L|272:260,1,60.0000022888184,8|0,0:0|1:0,0:0:0:0:
433,197,99230,2,0,B|461:234|461:234|346:226,1,143.999995605469,0|0,3:0|1:0,0:0:0:0:
342,214,99572,2,0,L|351:149,1,60.0000022888184,8|0,0:0|1:0,0:0:0:0:
512,86,99744,2,0,B|540:123|540:123|425:115,1,143.999995605469,0|0,3:0|1:0,0:0:0:0:
364,79,100087,1,0,3:0:0:0:
224,276,100430,2,0,P|232:247|228:217,1,60.0000022888184,8|0,0:0|1:0,0:0:0:0:
154,97,100601,1,0,3:0:0:0:
86,164,100773,6,0,L|25:160,2,40,0|0|0,0:0|0:0|0:0,0:0:0:0:
342,214,101116,2,0,L|290:217,1,40,0|0,0:0|0:0,0:0:0:0:
184,273,101287,2,0,L|235:276,1,40,0|0,0:0|0:0,0:0:0:0:
479,325,101458,1,4,0:1:0:0:
