osu file format v14

[General]
AudioFilename: audio.mp3
AudioLeadIn: 0
PreviewTime: 68201
Countdown: 0
SampleSet: Soft
StackLeniency: 0.3
Mode: 0
LetterboxInBreaks: 0
WidescreenStoryboard: 1

[Editor]
Bookmarks: 21906,46601,46687,46773,46858,46944,47030,47116,47201,47287,47373,47458,47544,47630,47716,47801,47887,47930,47973,48058,48101,48144,48230,48316,48401,48487,48573,48658,48701,48744,48830,48873,48916,49001,49087,49173,49258,49344,49430,49473,49516,49601,49644,49687,49773,49858,49944,50030,50116,50201,50287,50373,50458,50544,50630,50673,50716,50801,50844,50887,50973,51016,51058,51144,51187,51230,51316,51401,51487,51530,51573,51658,51701,51744,51787,51830,51873,51916,51958,52001,52087,52130,52173,52258,52301,52344,52430,52516,52601,52687,52730,52773,52858,52901,52944,53030,53116,53201,53287,53373,53458,53501,53544,53630,53673,53716,53801,53887,53973,54058,54144,54230,54273,54316,54401,54444,54487,54530,54573,54658,54701,54744,54830,54873,54916,55001,55044,55087,55173,55258,55344,55430,55516,55558,55601,55687,55730,55773,55816,55858,55944,56030,56116,56201,56287,56373,56416,56458,56544,56630,56716,56801,56844,56887,56973,57016,57058,57144,57187,57230,57316,57401,57487,57573
DistanceSpacing: 1.3
BeatDivisor: 4
GridSize: 8
TimelineZoom: 1.5

[Metadata]
Title:LGND
TitleUnicode:LΞGΞND
Artist:Tha Trickaz
ArtistUnicode:Tha Trickaz
Creator:Mun
Version:INTERMEDIATE
Source:
Tags:waku sdafsf dubstep drumstep trap otodayo supa cloud city lp legend
BeatmapID:1456166
BeatmapSetID:670373

[Difficulty]
HPDrainRate:3
CircleSize:3
OverallDifficulty:5
ApproachRate:7
SliderMultiplier:1.2
SliderTickRate:1

[Events]
//Background and Video events
0,0,"stop_and_stare_by_nanomortis-d9tjzmt.png",0,0
//Break Periods
2,46800,56116
//Storyboard Layer 0 (Background)
//Storyboard Layer 1 (Fail)
//Storyboard Layer 2 (Pass)
//Storyboard Layer 3 (Foreground)
//Storyboard Sound Samples

[TimingPoints]
2716,342.857142857143,4,2,1,100,1,0
21916,-125,4,2,1,100,0,0
24316,-100,4,2,1,100,0,0
27401,-100,4,2,1,100,0,0
57573,-125,4,2,1,100,0,0
64430,-125,4,2,2,100,0,0
65801,-125,4,3,2,100,0,0
67516,-125,4,3,2,70,0,0
67858,-125,4,2,4,100,0,0
68544,-90.9090909090909,4,2,1,100,0,1
90487,-100,4,2,1,100,0,0

[Colours]
Combo1 : 255,156,21
Combo2 : 117,0,0
Combo3 : 221,92,30
Combo4 : 192,192,192

[HitObjects]
79,253,21916,6,0,P|116:246|180:258,1,96,0|0,2:0|0:0,0:0:0:0:
219,297,22430,2,0,P|265:306|313:299,1,96,0|0,2:0|0:0,0:0:0:0:
356,254,22944,1,0,2:0:0:0:
234,35,23630,5,0,0:0:0:0:
176,59,23801,2,0,P|163:104|180:155,1,96,0|0,2:0|0:0,0:0:0:0:
227,183,24316,2,0,P|233:219|227:250,1,60,0|0,0:0|0:0,0:0:0:0:
221,301,24658,6,0,B|277:316|277:316|337:302,1,120,0|0,3:0|0:0,0:0:0:0:
376,150,25344,1,8,0:0:0:0:
145,111,25858,6,0,B|175:144|175:144|180:248,1,120,0|0,0:0|0:0,0:0:0:0:
150,292,26373,2,0,P|200:280|268:305,1,120,0|8,3:0|0:0,0:0:0:0:
380,198,27058,2,0,P|399:225|406:253,1,60,0|0,0:0|0:0,0:0:0:0:
477,276,27401,6,0,B|507:243|507:243|512:139,1,120,0|0,3:0|0:0,0:0:0:0:
376,32,28087,1,8,0:0:0:0:
191,175,28601,6,0,B|179:205|188:232|195:232|209:262|191:302,1,120,0|0,0:0|0:0,0:0:0:0:
138,346,29116,2,0,B|120:327|112:300|119:276|119:276|93:282|70:278,1,120,0|8,3:0|0:0,0:0:0:0:
2,308,29630,1,0,3:0:0:0:
15,231,29801,2,0,B|21:202|21:202|14:169,1,60,0|0,0:0|0:0,0:0:0:0:
33,95,30144,6,0,P|96:104|161:78,1,120,0|0,3:0|0:0,0:0:0:0:
314,16,30830,1,8,0:0:0:0:
501,155,31344,6,0,B|471:188|471:188|466:292,1,120,0|0,0:0|0:0,0:0:0:0:
462,341,31858,2,0,P|417:325|389:261,1,120,0|8,3:0|0:0,0:0:0:0:
239,308,32544,1,0,0:0:0:0:
171,162,32887,6,0,P|229:135|289:154,1,120,0|8,3:0|0:0,0:0:0:0:
332,207,33401,2,0,P|384:233|441:220,1,120,0|8,3:0|0:0,0:0:0:0:
491,158,33916,1,0,3:0:0:0:
480,2,34258,1,0,3:0:0:0:
359,103,34601,5,8,0:0:0:0:
306,160,34773,2,0,P|296:212|328:293,1,120,0|8,3:0|0:0,0:0:0:0:
329,352,35287,2,0,P|283:339|261:342,1,60,0|0,0:0|0:0,0:0:0:0:
197,364,35630,6,0,B|186:304|186:304|219:234,1,120,0|0,3:0|0:0,0:0:0:0:
225,94,36316,1,8,0:0:0:0:
448,138,36830,6,0,P|439:197|455:254,1,120,0|0,0:0|0:0,0:0:0:0:
504,315,37344,2,0,B|428:318|428:318|395:348,1,120,0|8,3:0|0:0,0:0:0:0:
265,261,38030,2,0,B|286:241|286:241|300:214,1,60,0|0,0:0|0:0,0:0:0:0:
224,193,38373,6,0,B|188:220|188:220|84:215,1,120,0|0,3:0|0:0,0:0:0:0:
52,73,39058,1,8,0:0:0:0:
285,49,39573,6,0,P|296:106|261:152,1,120,0|0,0:0|0:0,0:0:0:0:
189,182,40087,2,0,P|177:235|221:290,1,120,0|8,3:0|0:0,0:0:0:0:
290,286,40601,1,0,3:0:0:0:
368,282,40773,2,0,B|406:275|406:275|446:280,1,60,0|0,0:0|0:0,0:0:0:0:
478,218,41116,6,0,B|445:188|445:188|341:183,1,120,0|0,3:0|0:0,0:0:0:0:
213,182,41801,1,8,0:0:0:0:
361,340,42316,6,0,P|380:284|354:217,1,120,0|0,0:0|0:0,0:0:0:0:
306,173,42830,2,0,B|268:149|268:149|165:162,1,120,0|8,3:0|0:0,0:0:0:0:
46,194,43516,2,0,L|36:134,1,60,0|0,0:0|0:0,0:0:0:0:
24,57,43858,6,0,P|68:28|147:44,1,120,0|8,3:0|0:0,0:0:0:0:
185,92,44373,2,0,P|235:120|314:104,1,120,0|8,3:0|0:0,0:0:0:0:
350,57,44887,1,0,3:0:0:0:
340,212,45230,5,0,3:0:0:0:
474,290,45573,1,8,0:0:0:0:
416,342,45744,2,0,P|346:339|302:302,1,120,0|8,3:0|0:0,0:0:0:0:
246,261,46258,2,0,B|216:294|216:294|211:398,1,120,0|4,3:0|2:1,0:0:0:0:
195,77,57573,6,0,P|208:123|198:187,1,96,0|0,3:0|0:0,0:0:0:0:
147,281,58258,2,0,B|173:257|173:257|233:254,1,96,8|0,0:0|0:0,0:0:0:0:
307,354,58944,6,0,P|308:299|343:255,1,96,0|0,0:0|3:0,0:0:0:0:
411,222,59630,2,0,L|417:162,1,48,8|0,0:0|0:0,0:0:0:0:
459,153,59973,2,0,L|453:93,1,48,0|0,0:0|0:0,0:0:0:0:
470,44,60316,6,0,B|436:30|436:30|379:48,1,96,0|0,3:0|0:0,0:0:0:0:
266,102,61001,2,0,B|232:115|232:115|175:97,1,96,8|0,0:0|0:0,0:0:0:0:
57,56,61687,6,0,L|74:172,1,96,0|0,0:0|3:0,0:0:0:0:
85,243,62373,2,0,L|95:298,1,48,8|0,0:0|0:0,0:0:0:0:
128,323,62716,2,0,L|138:268,1,48,0|0,0:0|0:0,0:0:0:0:
177,250,63058,6,0,P|238:239|274:246,1,96,0|0,3:0|3:0,0:0:0:0:
354,293,63744,2,0,L|351:191,1,96,0|0,3:0|3:0,0:0:0:0:
358,100,64430,6,0,P|295:88|259:100,1,96,8|8,2:0|0:0,0:0:0:0:
225,123,64944,1,8,0:0:0:0:
194,160,65116,2,0,P|198:209|173:269,1,96,8|8,0:0|0:0,0:0:0:0:
84,194,65801,1,0,0:0:0:0:
256,192,65887,12,4,67858,0:0:0:0:
109,285,68544,6,0,P|126:213|116:135,1,132.00000402832,0|0,3:0|0:0,0:0:0:0:
89,83,69058,1,0,0:0:0:0:
168,90,69230,2,0,B|221:93|221:93|242:83|242:83|306:86,1,132.00000402832,8|0,0:0|0:0,0:0:0:0:
365,126,69744,2,0,L|363:170,1,33.0000010070801,0|0,0:0|0:0,0:0:0:0:
361,202,69916,5,0,3:0:0:0:
311,330,70258,2,0,P|272:319|239:324,1,66.0000020141602,0|0,0:0|0:0,0:0:0:0:
162,303,70601,2,0,L|155:153,1,132.00000402832,8|0,0:0|0:0,0:0:0:0:
166,85,71116,2,0,L|126:83,1,33.0000010070801,0|0,0:0|0:0,0:0:0:0:
89,81,71287,5,0,3:0:0:0:
4,160,71630,2,0,L|7:226,1,66.0000020141602,0|0,0:0|0:0,0:0:0:0:
49,300,71973,2,0,B|91:286|91:286|187:326,1,132.00000402832,8|0,0:0|0:0,0:0:0:0:
251,282,72487,2,0,P|259:250|259:194,1,66.0000020141602,0|0,3:0|0:0,0:0:0:0:
383,90,73001,2,0,B|413:63|413:63|455:163,1,132.00000402832,0|8,3:0|0:0,0:0:0:0:
487,233,73516,1,0,3:0:0:0:
449,302,73687,2,0,P|410:298|371:309,1,66.0000020141602,0|0,0:0|0:0,0:0:0:0:
314,354,74030,6,0,P|244:368|172:340,1,132.00000402832,0|0,3:0|0:0,0:0:0:0:
125,280,74544,1,0,0:0:0:0:
185,219,74716,2,0,B|183:163|183:163|190:146|190:146|189:83,1,132.00000402832,8|0,0:0|0:0,0:0:0:0:
252,30,75230,2,0,L|306:30,1,33.0000010070801,0|0,0:0|0:0,0:0:0:0:
328,30,75401,5,0,3:0:0:0:
472,170,76087,6,0,L|333:163,1,132.00000402832,8|0,0:0|0:0,0:0:0:0:
264,188,76601,2,0,L|274:244,1,33.0000010070801,0|0,0:0|0:0,0:0:0:0:
280,262,76773,5,0,3:0:0:0:
197,372,77116,1,0,0:0:0:0:
76,300,77458,6,0,P|67:243|85:172,1,132.00000402832,8|0,3:2|0:0,0:0:0:0:
148,112,77973,2,0,B|228:145|228:145|271:131,1,132.00000402832,0|0,3:0|0:0,0:0:0:0:
343,85,78487,2,0,L|342:238,1,132.00000402832,0|8,3:0|0:0,0:0:0:0:
299,286,79001,2,0,P|249:295|224:292,2,66.0000020141602,0|0|0,3:0|0:0|0:0,0:0:0:0:
381,286,79516,6,0,B|405:275|414:251|414:251|460:271|505:239,1,132.00000402832,0|0,3:0|0:0,0:0:0:0:
505,75,80201,2,0,B|465:54|465:54|363:76,1,132.00000402832,8|0,0:0|0:0,0:0:0:0:
298,103,80716,2,0,L|308:144,1,33.0000010070801,0|0,0:0|0:0,0:0:0:0:
319,175,80887,5,0,3:0:0:0:
215,353,81573,2,0,B|242:325|242:325|237:273|237:273|195:250,1,132.00000402832,8|0,0:0|0:0,0:0:0:0:
137,199,82087,2,0,L|141:146,1,33.0000010070801,0|0,0:0|0:0,0:0:0:0:
144,123,82258,5,0,3:0:0:0:
282,20,82601,2,0,L|350:24,1,66.0000020141602,0|0,0:0|0:0,0:0:0:0:
398,93,82944,6,0,P|451:108|514:66,1,132.00000402832,8|0,0:0|0:0,0:0:0:0:
509,154,83458,2,0,B|508:207|508:207|495:230|495:230|495:293,1,132.00000402832,0|0,3:0|0:0,0:0:0:0:
452,357,83973,2,0,L|299:354,1,132.00000402832,0|8,3:0|0:0,0:0:0:0:
273,281,84487,1,0,3:0:0:0:
191,256,84658,2,0,P|204:220|198:174,1,66.0000020141602,0|0,0:0|0:0,0:0:0:0:
168,113,85001,6,0,B|216:97|257:114|257:114|263:131|263:131|305:151|364:131,1,198.000006042481,0|0,3:0|0:0,0:0:0:0:
422,84,85687,2,0,B|442:123|442:123|420:225,1,132.00000402832,8|0,0:0|0:0,0:0:0:0:
390,288,86201,2,0,L|358:287,1,33.0000010070801,0|0,0:0|0:0,0:0:0:0:
313,283,86373,5,0,3:0:0:0:
50,300,87058,2,0,L|81:156,1,132.00000402832,8|0,0:0|0:0,0:0:0:0:
136,107,87573,2,0,L|187:106,1,33.0000010070801,0|0,0:0|0:0,0:0:0:0:
211,104,87744,5,0,3:0:0:0:
355,197,88087,1,0,0:0:0:0:
371,17,88430,6,0,B|472:35|472:35|443:54,1,132.00000402832,8|0,3:2|1:0,0:0:0:0:
381,106,88944,2,0,B|359:132|365:168|372:169|387:196|355:241,1,132.00000402832,0|0,3:0|0:0,0:0:0:0:
301,287,89458,2,0,P|366:290|401:343,1,132.00000402832,0|8,3:0|0:0,0:0:0:0:
469,289,89973,2,0,P|467:250|474:218,2,66.0000020141602,0|0|0,3:0|0:0|0:0,0:0:0:0:
406,351,90487,6,0,L|273:351,1,120,0|0,3:0|1:0,0:0:0:0:
83,245,91344,2,0,P|93:202|88:174,2,60,0|0|0,0:0|0:0|0:0,0:0:0:0:
153,279,91858,6,0,L|218:275,1,60,0|0,0:0|0:0,0:0:0:0:
446,239,92544,2,0,B|443:143|443:143|406:177,1,120,8|0,0:0|0:0,0:0:0:0:
321,219,93230,6,0,P|270:234|186:223,1,120,0|0,3:0|0:0,0:0:0:0:
146,123,93916,2,0,L|149:29,2,90,8|0|0,0:0|0:0|0:0,0:0:0:0:
186,167,94601,6,0,P|218:160|309:201,1,120,0|0,0:0|3:0,0:0:0:0:
292,366,95458,2,0,P|245:351|227:352,2,60,0|0|0,3:0|0:0|0:0,0:0:0:0:
350,351,95973,6,0,L|483:354,1,120,0|0,3:0|0:0,0:0:0:0:
492,120,96830,2,0,L|494:51,2,60,0|0|0,0:0|0:0|0:0,0:0:0:0:
479,197,97344,6,0,P|443:178|416:175,1,60,0|0,0:0|0:0,0:0:0:0:
190,160,98030,2,0,P|162:204|178:290,2,120,8|0|0,0:0|0:0|3:0,0:0:0:0:
323,78,99058,2,0,P|369:76|398:85,1,60,8|0,0:0|3:0,0:0:0:0:
382,235,99573,2,0,P|336:237|307:228,1,60,8|0,0:0|3:0,0:0:0:0:
191,160,100087,5,0,3:0:0:0:
387,176,100430,2,8,P|387:220|368:254,1,60,8|0,0:0|3:0,0:0:0:0:
381,234,101458,5,4,0:1:0:0:
