osu file format v14

[General]
AudioFilename: audio.mp3
AudioLeadIn: 0
PreviewTime: 68201
Countdown: 0
SampleSet: Soft
StackLeniency: 0.3
Mode: 0
LetterboxInBreaks: 0
WidescreenStoryboard: 1

[Editor]
Bookmarks: 21906
DistanceSpacing: 1.6
BeatDivisor: 4
GridSize: 8
TimelineZoom: 2.2

[Metadata]
Title:LGND
TitleUnicode:LΞGΞND
Artist:Tha Trickaz
ArtistUnicode:Tha Trickaz
Creator:Mun
Version:ETERNITY
Source:
Tags:waku sdafsf dubstep drumstep trap otodayo supa cloud city lp legend
BeatmapID:1417797
BeatmapSetID:670373

[Difficulty]
HPDrainRate:5
CircleSize:4.2
OverallDifficulty:8.7
ApproachRate:9.4
SliderMultiplier:1.8
SliderTickRate:1

[Events]
//Background and Video events
0,0,"stop_and_stare_by_nanomortis-d9tjzmt.png",0,0
//Break Periods
2,46801,56973
//Storyboard Layer 0 (Background)
//Storyboard Layer 1 (Fail)
//Storyboard Layer 2 (Pass)
//Storyboard Layer 3 (Foreground)
//Storyboard Sound Samples

[TimingPoints]
2716,342.857142857143,4,2,1,100,1,0
57573,-125,4,2,1,100,0,0
64430,-100,4,2,2,100,0,0
65801,-100,4,3,2,100,0,0
67516,-100,4,3,2,70,0,0
67858,-100,4,2,4,100,0,0
68201,-100,4,2,1,100,0,0
68544,-50,4,2,1,100,0,1
68887,-125,4,2,1,100,0,1
69230,-1000,4,2,1,100,0,1
69744,-50,4,2,1,100,0,1
70258,-125,4,2,1,100,0,1
70601,-1000,4,2,1,100,0,1
71116,-50,4,2,1,100,0,1
71630,-100,4,2,1,100,0,1
71973,-76.9230769230769,4,2,1,100,0,1
72658,-71.4285714285714,4,2,1,100,0,1
74030,-50,4,2,1,100,0,1
74373,-125,4,2,1,100,0,1
74716,-1000,4,2,1,100,0,1
75230,-50,4,2,1,100,0,1
75744,-100,4,2,1,100,0,1
76087,-1000,4,2,1,100,0,1
76601,-50,4,2,1,100,0,1
77116,-100,4,2,1,100,0,1
77458,-200,4,2,1,100,0,1
77801,-100,4,2,1,100,0,1
77973,-200,4,2,1,100,0,1
78316,-100,4,2,1,100,0,1
78487,-200,4,2,1,100,0,1
79001,-100,4,2,1,100,0,1
79173,-83.3333333333333,4,2,1,100,0,1
79344,-71.4285714285714,4,2,1,100,0,1
79516,-100,4,2,1,100,0,1
79773,-100,4,2,1,100,0,1
79858,-50,4,2,1,100,0,1
80201,-1000,4,2,1,100,0,1
80716,-50,4,2,1,100,0,1
81230,-125,4,2,1,100,0,1
81573,-1000,4,2,1,100,0,1
82087,-50,4,2,1,100,0,1
82601,-100,4,2,1,100,0,1
82944,-76.9230769230769,4,2,1,100,0,1
83630,-71.4285714285714,4,2,1,100,0,1
85001,-66.6666666666667,4,2,1,100,0,1
85687,-1000,4,2,1,100,0,1
86201,-50,4,2,1,100,0,1
86716,-100,4,2,1,100,0,1
87058,-1000,4,2,1,100,0,1
87573,-50,4,2,1,100,0,1
88087,-100,4,2,1,100,0,1
88430,-142.857142857143,4,2,1,100,0,1
89973,-166.666666666667,4,2,1,100,0,1
90144,-125,4,2,1,100,0,1
90316,-100,4,2,1,100,0,1
90487,-66.6666666666667,4,2,1,100,0,0
93916,-71.4285714285714,4,2,1,100,0,0
98716,-76.9230769230769,4,2,1,100,0,0
101458,-125,4,2,1,100,0,0
178258,-66.6666666666667,4,2,1,100,0,0
222144,-66.6666666666667,4,2,1,100,0,0

[Colours]
Combo1 : 255,156,21
Combo2 : 117,0,0
Combo3 : 221,92,30
Combo4 : 192,192,192

[HitObjects]
138,108,21916,6,0,B|164:192|164:192|149:250,1,135,0|0,2:0|1:0,0:0:0:0:
116,315,22258,1,0,0:0:0:0:
89,191,22430,2,0,L|246:192,1,135,0|0,2:0|1:0,0:0:0:0:
261,272,22772,1,0,0:0:0:0:
40,112,22944,1,0,2:0:0:0:
40,112,23630,5,0,0:0:0:0:
89,191,23801,2,0,L|249:191,1,135,0|0,2:0|1:0,0:0:0:0:
280,267,24144,1,0,0:0:0:0:
331,154,24316,2,0,P|328:176|331:198,1,45,0|0,0:0|1:0,0:0:0:0:
373,302,24487,2,0,P|377:280|376:258,1,45,0|0,0:0|1:0,0:0:0:0:
352,136,24658,6,0,B|336:176|352:224|352:224|368:272|349:312,1,180,0|0,3:0|0:0,0:0:0:0:
432,184,25173,1,0,0:0:0:0:
261,208,25344,2,0,P|320:209|334:327,1,180,8|0,0:0|0:0,0:0:0:0:
465,367,25858,6,0,P|456:325|459:255,1,90
465,258,26201,1,0,0:0:0:0:
350,117,26373,2,0,B|429:134|429:134|516:110,1,135,0|0,3:0|1:0,0:0:0:0:
512,39,26716,1,8,0:0:0:0:
350,117,26887,1,0,0:0:0:0:
447,298,27058,2,0,L|448:185,1,90
129,274,27401,6,0,P|176:327|287:288,1,180,0|0,3:0|0:0,0:0:0:0:
350,117,27916,1,0,0:0:0:0:
278,187,28087,2,0,B|274:306|274:306|323:267,1,180,8|0,0:0|0:0,0:0:0:0:
206,257,28601,6,0,B|204:347,1,90
217,352,28944,1,0,0:0:0:0:
152,176,29116,2,0,B|131:223|131:223|131:307,1,135,0|0,3:0|1:0,0:0:0:0:
229,357,29458,1,8,0:0:0:0:
278,187,29630,1,0,3:0:0:0:
131,306,29801,2,0,P|78:294|126:287,1,135,0|0,0:0|1:0,0:0:0:0:
23,374,30144,6,0,P|-3:328|45:215,1,180,0|0,3:0|0:0,0:0:0:0:
176,158,30658,1,0,0:0:0:0:
59,61,30830,2,0,P|84:106|36:219,1,180,8|0,0:0|0:0,0:0:0:0:
187,70,31344,6,0,P|172:126|181:174,1,90
194,169,31686,1,0,0:0:0:0:
123,337,31858,2,0,P|192:320|262:329,1,135,0|0,3:0|1:0,0:0:0:0:
333,383,32201,1,8,0:0:0:0:
391,226,32372,1,0,0:0:0:0:
412,324,32544,1,0,0:0:0:0:
412,324,32887,6,0,B|458:315|458:315|520:328,1,90,0|0,3:0|0:0,0:0:0:0:
284,277,33230,1,8,0:0:0:0:
409,236,33401,6,0,B|455:227|455:227|517:240,1,90,0|0,3:0|0:0,0:0:0:0:
281,189,33744,1,8,0:0:0:0:
407,148,33916,6,0,B|453:139|453:139|515:152,1,90,0|0,3:0|0:0,0:0:0:0:
333,383,34258,1,0,3:0:0:0:
281,189,34601,5,8,0:0:0:0:
407,148,34773,2,0,B|453:139|453:139|515:152,1,90,0|0,3:0|0:0,0:0:0:0:
277,96,35115,5,8,0:0:0:0:
509,137,35287,2,0,L|448:126,1,45,0|0,0:0|1:0,0:0:0:0:
409,236,35458,2,0,L|470:225,1,45,0|0,0:0|1:0,0:0:0:0:
495,147,35630,6,0,B|377:124|377:124|290:167,1,180,0|0,3:0|0:0,0:0:0:0:
292,291,36145,1,0,0:0:0:0:
384,216,36316,2,0,L|384:24,1,180,8|0,0:0|0:0,0:0:0:0:
470,139,36830,6,0,L|471:40,1,90
463,34,37173,1,0,0:0:0:0:
304,280,37345,2,0,B|304:192|304:192|279:141,1,135,0|0,3:0|1:0,0:0:0:0:
200,104,37688,1,8,0:0:0:0:
336,64,37859,1,0,0:0:0:0:
224,312,38030,2,0,L|225:218,1,90
112,64,38373,6,0,B|112:131|112:131|96:168|96:168|96:240,1,180,0|0,3:0|0:0,0:0:0:0:
147,344,38888,1,0,0:0:0:0:
158,195,39058,2,0,B|158:148|158:148|102:172|102:172|102:244,1,180,8|0,0:0|0:0,0:0:0:0:
240,269,39573,6,0,L|240:179,1,90
250,163,39916,1,0,0:0:0:0:
356,355,40087,2,0,B|341:290|341:290|360:217,1,135,0|0,3:0|1:0,0:0:0:0:
441,188,40430,1,8,0:0:0:0:
250,163,40602,1,0,3:0:0:0:
481,291,40773,2,0,P|428:279|476:272,1,135,0|0,0:0|1:0,0:0:0:0:
505,259,41116,6,0,B|525:143|525:143|505:69,1,180,0|0,3:0|0:0,0:0:0:0:
408,6,41630,1,0,0:0:0:0:
346,113,41801,2,0,P|432:128|508:82,1,180,8|0,0:0|0:0,0:0:0:0:
251,200,42316,6,0,P|302:186|347:194,1,90
349,200,42658,1,0,0:0:0:0:
477,342,42830,2,0,P|457:294|470:213,1,135,0|0,3:0|1:0,0:0:0:0:
512,145,43173,1,8,0:0:0:0:
398,372,43344,1,0,0:0:0:0:
349,200,43516,1,0,0:0:0:0:
349,200,43858,6,0,P|337:156|345:102,1,90,0|0,3:0|0:0,0:0:0:0:
409,275,44201,1,8,0:0:0:0:
238,207,44373,6,0,P|226:163|234:109,1,90,0|0,3:0|0:0,0:0:0:0:
298,282,44716,1,8,0:0:0:0:
127,212,44887,6,0,P|115:168|123:114,1,90,0|0,3:0|0:0,0:0:0:0:
409,275,45230,1,0,3:0:0:0:
187,287,45572,5,8,0:0:0:0:
18,219,45744,2,0,P|6:175|14:121,1,90,0|0,3:0|0:0,0:0:0:0:
76,289,46086,5,8,0:0:0:0:
18,0,46258,2,0,P|26:69|-2:153,1,135,0|0,3:0|1:0,0:0:0:0:
0,141,46601,1,4,2:1:0:0:
205,59,57573,6,0,L|199:181,1,108,0|0,3:0|0:0,0:0:0:0:
135,14,57916,2,0,L|129:136,1,108
119,276,58258,2,0,L|122:204,1,72,8|0,0:0|0:0,0:0:0:0:
273,173,58516,1,0,0:0:0:0:
284,184,58601,2,0,L|295:318,1,108
383,246,58944,6,0,L|383:210,1,36
459,314,59116,1,0,0:0:0:0:
493,136,59287,1,0,3:0:0:0:
482,149,59373,2,0,L|482:185,1,36
406,105,59544,1,0,0:0:0:0:
391,94,59630,2,0,L|391:31,1,36,8|0,0:0|0:0,0:0:0:0:
328,156,59801,2,0,L|328:219,1,36
378,87,59973,2,0,L|378:24,1,36
345,168,60144,2,0,L|345:231,1,36
252,37,60316,6,0,L|254:135,1,72,0|0,3:0|0:0,0:0:0:0:
262,203,60573,1,0,0:0:0:0:
264,224,60658,1,0,0:0:0:0:
171,169,60830,1,0,0:0:0:0:
174,147,60916,1,0,0:0:0:0:
179,126,61001,2,0,L|179:30,1,72,8|0,0:0|0:0,0:0:0:0:
96,0,61258,1,0,0:0:0:0:
105,19,61344,2,0,L|105:83,1,36
24,244,61516,1,0,0:0:0:0:
33,225,61602,6,0,L|33:161,1,36
0,82,61773,2,0,L|0:146,1,36
126,287,61944,1,0,0:0:0:0:
129,276,62030,1,0,3:0:0:0:
133,265,62116,1,0,0:0:0:0:
137,254,62202,2,0,L|137:190,1,36
0,82,62373,6,0,L|0:146,1,36,8|0,0:0|0:0,0:0:0:0:
33,225,62544,2,0,L|33:161,1,36
105,55,62716,2,0,L|105:119,1,36
137,254,62887,2,0,L|137:190,1,36
257,122,63058,5,0,3:0:0:0:
246,123,63144,1,0,0:0:0:0:
235,122,63230,2,0,L|171:122,1,36
320,188,63401,5,0,3:0:0:0:
331,189,63487,1,0,0:0:0:0:
342,188,63573,2,0,L|406:188,1,36
239,260,63744,6,0,L|175:260,1,36,0|0,3:0|0:0,0:0:0:0:
335,337,63916,2,0,L|399:337,1,36
227,277,64087,2,0,L|163:277,1,36,0|0,3:0|0:0,0:0:0:0:
351,318,64258,2,0,L|415:318,1,36
378,188,64430,6,0,L|378:124,1,45,8|0,2:0|0:0,0:0:0:0:
332,18,64601,2,0,L|332:82,1,45,8|0,0:0|0:0,0:0:0:0:
300,242,64773,2,0,L|300:178,1,45,8|0,0:0|0:0,0:0:0:0:
243,34,64944,2,0,L|243:98,1,45,8|0,0:0|0:0,0:0:0:0:
220,292,65116,2,0,L|220:228,1,45,8|0,0:0|0:0,0:0:0:0:
156,52,65287,2,0,L|156:116,1,45,8|0,0:0|0:0,0:0:0:0:
142,335,65458,2,0,L|142:271,1,45,8|0,0:0|0:0,0:0:0:0:
73,73,65630,2,0,L|73:137,1,45,8|0,0:0|0:0,0:0:0:0:
20,283,65801,5,0,0:0:0:0:
57,306,65886,1,0,0:0:0:0:
102,309,65972,1,0,0:0:0:0:
142,290,66058,1,0,0:0:0:0:
169,254,66143,1,0,0:0:0:0:
175,210,66229,1,0,0:0:0:0:
159,168,66315,1,0,0:0:0:0:
126,139,66401,1,0,0:0:0:0:
83,129,66487,5,0,0:0:0:0:
117,157,66572,1,0,0:0:0:0:
160,166,66658,1,0,0:0:0:0:
204,155,66744,1,0,0:0:0:0:
241,129,66830,1,0,0:0:0:0:
271,96,66915,1,0,0:0:0:0:
314,87,67001,1,0,0:0:0:0:
358,98,67087,1,0,0:0:0:0:
391,128,67173,6,0,L|417:136,1,22.5
394,156,67258,2,0,L|420:164,1,22.5
397,184,67344,2,0,L|423:192,1,22.5
400,212,67430,2,0,L|426:220,1,22.5
406,237,67516,6,0,L|392:238,14,11.25,2|0|2|0|2|0|2|0|2|0|2|0|2|0|2,2:0|2:0|2:0|2:0|2:0|2:0|2:0|2:0|2:0|2:0|2:0|2:0|2:0|2:0|2:0,2:0:0:0:
408,304,67858,5,4,0:0:0:0:
318,257,68201,6,0,L|311:166,1,60
216,301,68430,1,0,0:0:0:0:
232,319,68544,6,0,B|223:239|223:239|186:195|186:195|213:143|213:143|205:64,1,270,0|0,3:0|1:0,0:0:0:0:
136,117,68887,2,0,L|132:82,1,36,0|0,0:0|1:0,0:0:0:0:
286,65,69058,1,0,0:0:0:0:
290,87,69144,1,0,0:0:0:0:
214,128,69230,6,0,L|212:105,1,22.5,8|0,0:0|1:0,0:0:0:0:
212,88,69744,5,0,0:0:0:0:
212,232,69830,1,0,0:0:0:0:
212,376,69916,2,0,B|151:369|100:288|121:227|121:227|120:264|133:291|171:313,1,270,0|0,3:0|1:0,0:0:0:0:
67,166,70258,6,0,B|128:150|128:150|175:171,1,108,0|0,0:0|1:0,0:0:0:0:
315,119,70601,6,0,L|308:95,1,22.5,8|0,0:0|1:0,0:0:0:0:
297,74,71116,5,0,0:0:0:0:
299,216,71201,1,0,0:0:0:0:
300,360,71287,2,0,B|343:284|447:290|488:343|488:343|418:391,1,270,0|0,3:0|1:0,0:0:0:0:
243,309,71630,6,0,P|267:281|288:267,1,45,0|0,0:0|1:0,0:0:0:0:
385,231,71801,2,0,P|421:231|446:238,1,45,0|0,0:0|1:0,0:0:0:0:
447,370,71973,6,0,B|422:307|422:307|465:203,1,175.499991966248,8|0,0:0|0:0,0:0:0:0:
510,113,72316,1,0,0:0:0:0:
471,102,72401,1,0,0:0:0:0:
500,73,72487,2,0,L|481:146,1,58.4999973220826,0|0,3:0|1:0,0:0:0:0:
358,226,72658,6,0,P|339:165|405:59,1,188.999994232178,0|0,0:0|1:0,0:0:0:0:
266,174,73001,2,0,B|262:118|287:81|287:81|258:104|230:112|164:96,1,188.999994232178,0|0,3:0|1:0,0:0:0:0:
225,16,73344,1,8,0:0:0:0:
206,324,73516,1,0,3:0:0:0:
116,168,73687,2,0,P|139:194|200:214,1,94.499997116089,0|0,0:0|1:0,0:0:0:0:
204,229,73858,2,0,P|169:236|121:278,1,94.499997116089,0|0,0:0|1:0,0:0:0:0:
48,352,74030,6,0,B|48:256|48:256|80:192|80:192|80:64,1,270,0|0,3:0|1:0,0:0:0:0:
6,97,74373,6,0,L|6:61,1,36,0|0,0:0|1:0,0:0:0:0:
87,0,74544,1,0,0:0:0:0:
86,19,74630,1,0,0:0:0:0:
122,99,74716,6,0,L|126:77,1,22.5,8|0,0:0|1:0,0:0:0:0:
132,55,75230,5,0,0:0:0:0:
129,199,75316,1,0,0:0:0:0:
128,341,75401,2,0,B|197:303|235:372|310:350|310:350|276:383|215:372,1,270,0|0,3:0|1:0,0:0:0:0:
274,253,75744,6,0,L|276:282,2,22.5
240,186,75916,1,0,0:0:0:0:
262,165,76001,1,0,0:0:0:0:
215,83,76087,6,0,L|221:59,1,22.5,8|0,0:0|1:0,0:0:0:0:
225,43,76601,5,0,0:0:0:0:
240,186,76687,1,0,0:0:0:0:
253,329,76773,2,0,B|330:340|382:277|374:211|374:211|323:195|288:250,1,270,0|0,3:0|1:0,0:0:0:0:
440,297,77116,6,0,P|449:269|450:242,1,45,0|0,0:0|1:0,0:0:0:0:
465,124,77287,2,0,P|440:139|421:159,1,45,0|0,0:0|1:0,0:0:0:0:
303,75,77458,6,0,P|307:108|296:139,1,67.5,8|0,3:2|1:0,0:0:0:0:
240,186,77801,2,0,P|231:214|230:242,1,45
150,224,77973,2,0,P|154:257|143:288,1,67.5,0|0,3:0|1:0,0:0:0:0:
229,229,78316,2,0,P|237:208|240:185,1,45
29,166,78487,2,0,P|62:161|93:172,1,67.5,0|0,3:0|1:0,0:0:0:0:
54,260,78830,1,8,0:0:0:0:
82,105,79001,6,0,L|94:181,1,67.5,0|0,3:0|1:0,0:0:0:0:
173,189,79173,2,0,L|160:108,1,80.9999975280763,0|0,0:0|1:0,0:0:0:0:
238,111,79344,2,0,L|252:204,1,94.499997116089,0|0,0:0|1:0,0:0:0:0:
363,202,79516,6,0,P|393:164|352:189,1,135,0|0,3:0|1:0,0:0:0:0:
368,241,79858,6,0,P|440:171|314:157,1,270,0|0,0:0|1:0,0:0:0:0:
419,53,80201,6,0,L|412:30,1,22.5,8|0,0:0|1:0,0:0:0:0:
405,11,80716,5,0,0:0:0:0:
403,153,80801,1,0,0:0:0:0:
404,297,80887,2,0,B|365:328|311:302|311:302|331:260|316:218|316:218|268:251|202:223,1,270,0|0,3:0|1:0,0:0:0:0:
230,60,81230,2,0,B|265:92|265:92|262:161,1,108,0|0,0:0|1:0,0:0:0:0:
386,98,81573,6,0,P|387:85|386:73,1,22.5,8|0,0:0|1:0,0:0:0:0:
375,58,82087,5,0,0:0:0:0:
356,201,82173,1,0,0:0:0:0:
338,342,82258,2,0,B|327:263|327:263|303:241|303:241|336:198|336:198|315:176|315:176|308:98,1,270,0|0,3:0|1:0,0:0:0:0:
219,87,82601,6,0,P|218:120|224:136,1,45,0|0,0:0|1:0,0:0:0:0:
400,121,82773,2,0,P|400:87|394:71,1,45,0|0,0:0|1:0,0:0:0:0:
222,132,82944,6,0,B|107:156|107:156|53:119,1,175.499991966248,8|0,0:0|0:0,0:0:0:0:
6,225,83287,1,0,0:0:0:0:
30,245,83373,1,0,0:0:0:0:
1,256,83458,2,0,L|45:205,1,58.4999973220826,0|0,3:0|1:0,0:0:0:0:
212,242,83630,6,0,B|202:294|153:322|109:309|109:309|146:261,1,188.999994232178,0|0,0:0|1:0,0:0:0:0:
280,287,83973,2,0,B|336:271|336:271|368:287|368:287|400:271|400:271|456:287,1,188.999994232178,0|0,3:0|1:0,0:0:0:0:
512,355,84316,1,8,0:0:0:0:
193,290,84487,1,0,3:0:0:0:
284,171,84658,2,0,P|318:205|367:221,1,94.499997116089,0|0,0:0|1:0,0:0:0:0:
383,233,84830,2,0,P|333:239|283:286,1,94.499997116089,0|0,0:0|1:0,0:0:0:0:
193,290,85001,6,0,B|127:302|98:217|171:184|208:217|208:217|200:179|151:163|109:178|109:178|63:195|12:195|-16:174|-16:174|0:160|40:160,1,472.500018024445,0|0,3:0|1:0,0:0:0:0:
120,104,85687,6,0,L|100:94,1,22.5,8|0,0:0|1:0,0:0:0:0:
75,82,86201,5,0,0:0:0:0:
73,226,86287,1,0,0:0:0:0:
74,370,86373,2,0,B|32:324|35:264|72:226|72:226|131:252|204:206,1,270,0|0,3:0|1:0,0:0:0:0:
164,119,86716,6,0,L|176:150,2,22.5
247,79,86887,1,0,0:0:0:0:
254,62,86973,1,0,0:0:0:0:
331,123,87058,6,0,L|327:100,1,22.5,8|0,0:0|1:0,0:0:0:0:
323,81,87573,5,0,0:0:0:0:
326,223,87658,1,0,0:0:0:0:
331,367,87744,2,0,B|296:342|286:310|301:287|301:287|336:301|366:283|379:266|379:266|413:298|384:364,1,270,0|0,3:0|1:0,0:0:0:0:
226,331,88087,6,0,P|223:309|230:277,1,45,0|0,0:0|1:0,0:0:0:0:
466,288,88258,2,0,P|469:310|466:332,1,45,0|0,0:0|1:0,0:0:0:0:
346,231,88430,6,0,B|346:138|346:138|371:176,1,125.999996154785,8|0,3:2|1:0,0:0:0:0:
271,119,88944,2,0,P|288:87|372:68,1,125.999996154785,0|0,3:0|0:0,0:0:0:0:
269,26,89458,2,0,B|280:72|280:72|268:131,1,94.499997116089,0|0,3:0|1:0,0:0:0:0:
171,160,89801,1,8,0:0:0:0:
86,73,89973,6,0,L|82:119,1,40.4999987640381,0|0,3:0|1:0,0:0:0:0:
171,160,90144,2,0,L|175:215,1,54,0|0,0:0|1:0,0:0:0:0:
61,231,90316,2,0,L|54:302,1,67.5,0|0,0:0|1:0,0:0:0:0:
190,364,90487,6,0,B|182:287|182:287|195:267|195:267|158:241|158:241|175:206|175:206|166:107,1,270.000010299683,0|0,3:0|0:0,0:0:0:0:
253,216,91001,1,0,0:0:0:0:
253,216,91087,1,0,0:0:0:0:
253,216,91173,1,8,0:0:0:0:
251,71,91344,6,0,P|236:109|243:155,1,67.5000025749208,0|0,0:0|1:0,0:0:0:0:
317,124,91516,2,0,P|342:155|385:172,1,67.5000025749208,0|0,0:0|1:0,0:0:0:0:
395,93,91687,2,0,P|435:86|471:57,1,67.5000025749208,0|0,0:0|1:0,0:0:0:0:
445,157,91858,2,0,P|430:195|437:241,1,67.5000025749208,0|0,0:0|1:0,0:0:0:0:
365,168,92030,2,0,P|339:136|296:119,1,67.5000025749208,0|0,0:0|1:0,0:0:0:0:
195,266,92201,1,0,3:0:0:0:
81,61,92544,6,0,B|43:82|33:151|60:192|60:192|55:148|97:107,1,202.500007724762,8|0,0:0|1:0,0:0:0:0:
137,184,92887,2,0,P|60:186|42:295,1,202.500007724762,0|0,0:0|1:0,0:0:0:0:
366,261,93230,6,0,B|247:245|247:245|209:264|209:264|89:248,1,270.000010299683,0|0,3:0|0:0,0:0:0:0:
290,168,93916,6,0,B|413:185|413:185|361:132,1,188.999994232178,8|0,0:0|1:0,0:0:0:0:
424,257,94258,2,0,P|479:222|481:159,1,125.999996154785
241,36,94601,6,0,B|270:61|343:71|370:37|370:37|350:14|304:28,1,188.999994232178,0|0,0:0|1:0,0:0:0:0:
177,86,94944,2,0,L|177:279,1,188.999994232178,0|0,3:0|0:0,0:0:0:0:
267,341,95287,1,8,0:0:0:0:
97,212,95458,2,0,L|97:306,1,94.499997116089,0|0,3:0|1:0,0:0:0:0:
178,276,95630,2,0,L|177:181,1,94.499997116089,0|0,0:0|1:0,0:0:0:0:
256,145,95801,2,0,L|256:239,1,94.499997116089,0|0,0:0|1:0,0:0:0:0:
337,208,95973,6,0,B|338:91|338:91|405:62|405:62|405:126,1,251.999992309571,0|0,3:0|0:0,0:0:0:0:
158,58,96487,1,0,0:0:0:0:
158,58,96573,1,0,0:0:0:0:
158,58,96658,5,8,0:0:0:0:
249,305,96830,2,0,P|261:267|254:219,1,62.9999980773926,0|0,0:0|1:0,0:0:0:0:
173,226,97001,2,0,P|164:187|134:149,1,62.9999980773926,0|0,0:0|1:0,0:0:0:0:
20,155,97173,6,0,P|46:171|67:196,1,62.9999980773926,0|0,0:0|1:0,0:0:0:0:
173,226,97344,2,0,P|173:194|184:165,1,62.9999980773926,0|0,0:0|1:0,0:0:0:0:
158,58,97516,2,0,P|130:72|99:78,1,62.9999980773926,0|0,0:0|1:0,0:0:0:0:
0,240,97687,1,0,3:0:0:0:
369,253,98030,6,0,B|375:123|375:123|426:63,1,188.999994232178,8|0,0:0|1:0,0:0:0:0:
295,33,98373,2,0,L|289:190,1,125.999996154785,0|0,0:0|1:0,0:0:0:0:
214,324,98630,1,0,0:0:0:0:
206,308,98716,6,0,B|274:266|330:312|330:312|280:335,1,175.499991966248,0|0,3:0|1:0,0:0:0:0:
172,239,99058,1,8,0:0:0:0:
400,273,99230,2,0,P|410:309|404:338,1,58.4999973220826,0|0,3:0|1:0,0:0:0:0:
333,138,99401,2,0,L|319:195,1,58.4999973220826,0|0,0:0|1:0,0:0:0:0:
300,199,99573,2,0,L|314:142,1,58.4999973220826,8|0,0:0|1:0,0:0:0:0:
399,68,99744,2,0,B|415:129|415:129|376:266,1,175.499991966248,0|0,3:0|1:0,0:0:0:0:
326,33,100087,6,0,P|384:-11|476:92,1,233.999989288331,0|8,3:0|0:0,0:0:0:0:
300,199,100601,1,0,3:0:0:0:
224,126,100773,2,0,L|214:197,1,58.4999973220826
201,264,100944,1,0,0:0:0:0:
81,118,101116,6,0,P|110:136|137:141,1,58.4999973220826
224,126,101287,2,0,P|254:109|271:89,1,58.4999973220826
41,41,101458,5,4,0:1:0:0:
