osu file format v14

[General]
AudioFilename: audio.mp3
AudioLeadIn: 0
PreviewTime: 68201
Countdown: 0
SampleSet: Soft
StackLeniency: 0.3
Mode: 0
LetterboxInBreaks: 0
WidescreenStoryboard: 1

[Editor]
DistanceSpacing: 1
BeatDivisor: 4
GridSize: 8
TimelineZoom: 1.5

[Metadata]
Title:LGND
TitleUnicode:LΞGΞND
Artist:Tha Trickaz
ArtistUnicode:Tha Trickaz
Creator:Mun
Version:ANOTHER
Source:
Tags:waku sdafsf dubstep drumstep trap otodayo supa cloud city lp legend
BeatmapID:1431590
BeatmapSetID:670373

[Difficulty]
HPDrainRate:6
CircleSize:3
OverallDifficulty:8
ApproachRate:9
SliderMultiplier:1.7
SliderTickRate:1

[Events]
//Background and Video events
0,0,"stop_and_stare_by_nanomortis-d9tjzmt.png",0,0
//Break Periods
2,46801,56973
//Storyboard Layer 0 (Background)
//Storyboard Layer 1 (Fail)
//Storyboard Layer 2 (Pass)
//Storyboard Layer 3 (Foreground)
//Storyboard Sound Samples

[TimingPoints]
2716,342.857142857143,4,2,1,100,1,0
24316,-66.6666666666667,4,2,1,100,0,0
24658,-142.857142857143,4,2,1,100,0,0
32887,-100,4,2,1,100,0,0
35287,-66.6666666666667,4,2,1,100,0,0
35630,-100,4,2,1,100,0,0
57573,-111.111111111111,4,2,1,100,0,0
64430,-111.111111111111,4,2,2,100,0,0
65801,-111.111111111111,4,3,2,100,0,0
67516,-111.111111111111,4,3,2,70,0,0
67858,-111.111111111111,4,2,4,100,0,0
68201,-66.6666666666667,4,2,1,100,0,0
68544,-66.6666666666667,4,2,1,100,0,1
68887,-100,4,2,1,100,0,1
69230,-200,4,2,1,100,0,1
69744,-66.6666666666667,4,2,1,100,0,1
70258,-100,4,2,1,100,0,1
70601,-200,4,2,1,100,0,1
71116,-66.6666666666667,4,2,1,100,0,1
71630,-100,4,2,1,100,0,1
71973,-66.6666666666667,4,2,1,100,0,1
74373,-100,4,2,1,100,0,1
74716,-200,4,2,1,100,0,1
75230,-66.6666666666667,4,2,1,100,0,1
75744,-100,4,2,1,100,0,1
76087,-200,4,2,1,100,0,1
76601,-66.6666666666667,4,2,1,100,0,1
77116,-100,4,2,1,100,0,1
77458,-142.857142857143,4,2,1,100,0,1
79173,-100,4,2,1,100,0,1
79344,-76.9230769230769,4,2,1,100,0,1
79516,-100,4,2,1,100,0,1
80201,-200,4,2,1,100,0,1
80716,-66.6666666666667,4,2,1,100,0,1
81230,-100,4,2,1,100,0,1
81573,-200,4,2,1,100,0,1
82087,-66.6666666666667,4,2,1,100,0,1
82601,-100,4,2,1,100,0,1
83630,-125,4,2,1,100,0,1
83973,-166.666666666667,4,2,1,100,0,1
84658,-66.6666666666667,4,2,1,100,0,1
85001,-100,4,2,1,100,0,1
85687,-200,4,2,1,100,0,1
86201,-66.6666666666667,4,2,1,100,0,1
86716,-100,4,2,1,100,0,1
87058,-200,4,2,1,100,0,1
87573,-66.6666666666667,4,2,1,100,0,1
88087,-100,4,2,1,100,0,1
88430,-142.857142857143,4,2,1,100,0,1
89973,-66.6666666666667,4,2,1,100,0,1
90144,-58.8235294117647,4,2,1,100,0,1
90316,-52.6315789473684,4,2,1,100,0,1
90487,-66.6666666666667,4,2,1,100,0,0
90830,-125,4,2,1,100,0,0
91344,-66.6666666666667,4,2,1,100,0,0
92544,-100,4,2,1,100,0,0
93916,-100,4,2,1,100,0,0
94944,-166.666666666667,4,2,1,100,0,0
95458,-66.6666666666667,4,2,1,100,0,0
95630,-58.8235294117647,4,2,1,100,0,0
95801,-52.6315789473684,4,2,1,100,0,0
95973,-50,4,2,1,100,0,0
96316,-100,4,2,1,100,0,0
96830,-66.6666666666667,4,2,1,100,0,0
98030,-100,4,2,1,100,0,0
98716,-83.3333333333333,4,2,1,100,0,0
100087,-66.6666666666667,4,2,1,100,0,0

[Colours]
Combo1 : 255,156,21
Combo2 : 117,0,0
Combo3 : 221,92,30
Combo4 : 192,192,192

[HitObjects]
144,128,24316,6,0,B|151:148|151:148|155:105,1,63.7500024318696,0|0,0:0|1:0,0:0:0:0:
253,194,24487,2,0,B|246:174|246:174|241:216,1,63.7500024318696,0|0,0:0|1:0,0:0:0:0:
127,311,24658,6,0,P|171:295|250:314,1,118.999996368408,0|0,3:0|0:0,0:0:0:0:
342,365,25173,1,0,0:0:0:0:
342,365,25258,1,0,0:0:0:0:
342,365,25344,2,0,L|337:234,1,118.999996368408,8|0,0:0|0:0,0:0:0:0:
449,194,25858,6,0,B|450:274,1,59.4999981842042,0|0,0:0|0:0,0:0:0:0:
435,266,26201,1,0,0:0:0:0:
364,144,26373,2,0,P|393:112|454:98,1,89.2499972763062,0|0,3:0|1:0,0:0:0:0:
511,133,26716,1,8,0:0:0:0:
435,266,26887,1,0,0:0:0:0:
358,134,27058,2,0,B|356:103|356:103|344:163,1,89.2499972763062,0|0,0:0|1:0,0:0:0:0:
254,181,27401,6,0,B|271:105|271:105|261:53,1,118.999996368408,0|0,3:0|0:0,0:0:0:0:
254,44,27916,1,0,0:0:0:0:
152,244,28087,2,0,B|185:233|211:251|211:251|243:272|288:257,1,118.999996368408,8|0,0:0|0:0,0:0:0:0:
399,238,28601,6,0,P|364:255|338:258,1,59.4999981842042,0|0,0:0|0:0,0:0:0:0:
327,243,28944,1,0,0:0:0:0:
343,75,29116,2,0,B|341:116|341:116|347:129|347:129|345:168,1,89.2499972763062,0|0,3:0|1:0,0:0:0:0:
327,243,29458,1,8,0:0:0:0:
260,157,29630,1,0,3:0:0:0:
435,228,29801,2,0,L|435:325,1,89.2499972763062,0|0,0:0|1:0,0:0:0:0:
477,362,30144,6,0,P|420:347|346:368,1,118.999996368408,0|0,3:0|0:0,0:0:0:0:
351,371,30658,1,0,0:0:0:0:
288,195,30830,2,0,L|288:316,1,118.999996368408,8|0,0:0|0:0,0:0:0:0:
200,340,31344,6,0,L|200:262,1,59.4999981842042,0|0,0:0|0:0,0:0:0:0:
188,262,31687,1,0,0:0:0:0:
159,101,31858,2,0,B|150:146|150:146|157:200,1,89.2499972763062,0|0,3:0|1:0,0:0:0:0:
188,262,32201,1,8,0:0:0:0:
238,153,32373,1,0,0:0:0:0:
69,177,32544,2,0,L|89:285,1,89.2499972763062,0|0,0:0|0:0,0:0:0:0:
78,351,32887,6,0,P|25:331|7:297,1,85,0|0,3:0|0:0,0:0:0:0:
69,177,33230,1,8,0:0:0:0:
248,309,33401,2,0,L|163:317,1,85,0|0,3:0|0:0,0:0:0:0:
238,153,33744,1,8,0:0:0:0:
370,287,33916,2,0,B|316:291|316:291|298:304|298:304|219:311,1,127.5,0|0,3:0|1:0,0:0:0:0:
163,317,34258,1,0,3:0:0:0:
238,153,34601,5,8,0:0:0:0:
375,202,34773,2,0,L|371:287,1,85,0|0,3:0|0:0,0:0:0:0:
242,68,35116,5,8,0:0:0:0:
375,202,35287,2,0,P|345:214|309:214,1,63.7500024318696,0|0,0:0|1:0,0:0:0:0:
293,213,35458,2,0,P|261:208|229:190,1,63.7500024318696,0|0,0:0|1:0,0:0:0:0:
221,173,35630,6,0,L|221:349,1,170,0|0,3:0|0:0,0:0:0:0:
127,140,36144,1,0,0:0:0:0:
127,140,36230,1,0,0:0:0:0:
127,140,36316,2,0,P|160:93|285:97,1,170,8|0,0:0|0:0,0:0:0:0:
426,148,36830,6,0,P|373:158|332:149,1,85,0|0,0:0|0:0,0:0:0:0:
331,135,37173,1,0,0:0:0:0:
379,242,37344,2,0,L|378:378,1,127.5,0|0,3:0|1:0,0:0:0:0:
465,373,37687,1,8,0:0:0:0:
287,272,37858,1,0,0:0:0:0:
460,225,38030,2,0,P|411:243|361:237,1,85,0|0,0:0|0:0,0:0:0:0:
285,102,38373,6,0,L|287:301,1,170,0|0,3:0|0:0,0:0:0:0:
213,374,38888,1,0,0:0:0:0:
190,106,39058,2,0,B|190:196|190:196|146:272,1,170,8|0,0:0|0:0,0:0:0:0:
0,320,39573,6,0,P|51:318|97:338,1,85,0|0,0:0|0:0,0:0:0:0:
88,349,39916,1,0,0:0:0:0:
295,337,40087,2,0,P|226:325|171:361,1,127.5,0|0,3:0|1:0,0:0:0:0:
149,265,40430,1,8,0:0:0:0:
306,349,40602,1,0,3:0:0:0:
337,193,40773,2,0,P|298:209|335:181,1,127.5,0|0,0:0|1:0,0:0:0:0:
222,258,41116,6,0,P|199:200|256:94,1,170,0|0,3:0|0:0,0:0:0:0:
344,20,41630,1,0,0:0:0:0:
344,20,41716,1,0,0:0:0:0:
344,20,41801,2,0,L|168:28,1,170,8|0,0:0|0:0,0:0:0:0:
93,128,42316,6,0,P|99:68|90:30,1,85,0|0,0:0|0:0,0:0:0:0:
75,27,42658,1,0,0:0:0:0:
0,209,42830,2,0,L|146:210,1,127.5,0|0,3:0|1:0,0:0:0:0:
187,137,43173,1,8,0:0:0:0:
148,293,43344,1,0,0:0:0:0:
137,57,43516,2,0,B|189:46|189:46|293:72,1,127.5,0|0,0:0|1:0,0:0:0:0:
323,141,43858,6,0,L|314:245,1,85,0|0,3:0|0:0,0:0:0:0:
203,294,44201,1,8,0:0:0:0:
365,300,44373,6,0,P|303:317|269:307,1,85,0|0,3:0|0:0,0:0:0:0:
162,211,44716,1,8,0:0:0:0:
445,314,44887,6,0,B|407:296|407:296|360:300,1,85,0|0,3:0|0:0,0:0:0:0:
203,294,45230,5,0,3:0:0:0:
445,314,45573,1,8,0:0:0:0:
375,111,45744,6,0,B|385:154|385:154|376:200,1,85,0|0,3:0|0:0,0:0:0:0:
264,247,46087,1,8,0:0:0:0:
445,314,46258,6,0,P|394:331|348:316,1,85,0|0,3:0|0:0,0:0:0:0:
375,111,46601,1,4,2:1:0:0:
161,110,57573,6,0,P|138:164|149:228,1,114.749996498108,0|0,3:0|0:0,0:0:0:0:
235,245,57916,2,0,P|241:301|218:353,1,114.749996498108,0|0,0:0|0:0,0:0:0:0:
260,347,58258,6,0,B|298:332|298:332|342:347,1,76.4999976654053,8|0,0:0|0:0,0:0:0:0:
450,304,58516,1,0,0:0:0:0:
431,317,58601,2,2,B|469:332|469:332|513:317,1,76.4999976654053,0|0,0:0|0:0,0:0:0:0:
506,201,58858,5,0,0:0:0:0:
490,185,58944,2,0,L|486:236,1,38.2499988327027,0|0,0:0|0:0,0:0:0:0:
397,101,59116,2,0,L|401:152,1,38.2499988327027,0|0,0:0|0:0,0:0:0:0:
308,214,59287,1,0,3:0:0:0:
326,229,59373,2,0,L|322:178,1,38.2499988327027,0|0,0:0|0:0,0:0:0:0:
284,328,59544,1,0,0:0:0:0:
260,316,59630,6,0,L|264:367,1,38.2499988327027,8|0,0:0|0:0,0:0:0:0:
177,215,59801,2,0,L|173:266,1,38.2499988327027,0|0,0:0|0:0,0:0:0:0:
269,111,59973,2,0,L|273:162,1,38.2499988327027,0|0,0:0|0:0,0:0:0:0:
176,9,60144,2,0,L|172:60,1,38.2499988327027,0|0,0:0|0:0,0:0:0:0:
87,115,60316,6,0,L|79:206,1,76.4999976654053,0|0,3:0|0:0,0:0:0:0:
195,151,60573,1,0,0:0:0:0:
182,138,60658,2,0,L|174:229,1,76.4999976654053,0|0,0:0|0:0,0:0:0:0:
288,167,60916,1,0,0:0:0:0:
275,154,61001,2,0,L|267:245,1,76.4999976654053,8|0,0:0|0:0,0:0:0:0:
377,177,61258,1,0,0:0:0:0:
364,164,61344,2,0,L|356:255,1,76.4999976654053,0|0,0:0|0:0,0:0:0:0:
473,188,61601,5,0,0:0:0:0:
460,174,61687,2,0,L|454:241,1,38.2499988327027,0|0,0:0|0:0,0:0:0:0:
360,278,61858,2,0,L|354:210,1,38.2499988327027,0|0,0:0|0:0,0:0:0:0:
275,154,62030,1,0,3:0:0:0:
262,140,62115,2,0,L|256:207,1,38.2499988327027,0|0,0:0|0:0,0:0:0:0:
181,289,62287,1,0,0:0:0:0:
168,303,62372,6,0,L|162:235,1,38.2499988327027,8|0,0:0|0:0,0:0:0:0:
41,256,62544,2,0,L|108:250,1,38.2499988327027,0|0,0:0|0:0,0:0:0:0:
88,129,62716,2,0,L|93:196,1,38.2499988327027,0|0,0:0|0:0,0:0:0:0:
215,176,62887,2,0,L|147:181,1,38.2499988327027,0|0,0:0|0:0,0:0:0:0:
308,105,63058,5,0,3:0:0:0:
318,134,63144,1,0,0:0:0:0:
324,163,63230,1,0,0:0:0:0:
322,193,63316,1,0,0:0:0:0:
315,223,63401,2,0,P|305:253|291:276,1,38.2499988327027,0|0,3:0|0:0,0:0:0:0:
244,360,63573,2,0,P|234:330|220:307,1,38.2499988327027,0|0,0:0|0:0,0:0:0:0:
62,177,63744,5,0,3:0:0:0:
91,167,63830,1,0,0:0:0:0:
121,161,63916,1,0,0:0:0:0:
151,163,64002,1,0,0:0:0:0:
180,170,64087,2,0,P|210:180|233:194,1,38.2499988327027,0|0,3:0|0:0,0:0:0:0:
301,258,64258,2,0,P|331:248|354:234,1,38.2499988327027,0|0,0:0|0:0,0:0:0:0:
423,140,64430,6,0,L|419:199,1,38.2499988327027,8|0,2:0|0:0,0:0:0:0:
427,238,64601,2,0,L|431:179,1,38.2499988327027,8|0,0:0|0:0,0:0:0:0:
402,134,64773,6,0,L|421:202,1,38.2499988327027,8|0,0:0|0:0,0:0:0:0:
447,243,64944,2,0,L|427:174,1,38.2499988327027,8|0,0:0|0:0,0:0:0:0:
377,137,65116,6,0,L|416:191,1,38.2499988327027,8|0,0:0|0:0,0:0:0:0:
472,240,65287,2,0,L|437:192,1,38.2499988327027,8|0,0:0|0:0,0:0:0:0:
343,146,65458,6,0,L|394:180,1,38.2499988327027,8|0,0:0|0:0,0:0:0:0:
505,230,65630,2,0,L|466:204,1,38.2499988327027,8|0,0:0|0:0,0:0:0:0:
360,258,65801,5,0,0:0:0:0:
325,275,65887,1,0,0:0:0:0:
287,282,65973,1,0,0:0:0:0:
249,279,66058,1,0,0:0:0:0:
212,266,66144,2,0,L|204:221,3,38.2499988327027,0|0|0|0,0:0|0:0|0:0|0:0,0:0:0:0:
140,137,66487,5,0,0:0:0:0:
173,118,66572,1,0,0:0:0:0:
210,113,66658,1,0,0:0:0:0:
247,121,66744,1,0,0:0:0:0:
279,143,66830,1,0,0:0:0:0:
312,161,66915,1,0,0:0:0:0:
349,166,67001,1,0,0:0:0:0:
386,158,67087,1,0,0:0:0:0:
418,136,67173,6,0,L|419:107,7,19.1249994163513,0|0|0|0|0|0|0|0,0:0|0:0|0:0|0:0|0:0|0:0|0:0|0:0,0:0:0:0:
435,127,67516,2,0,L|435:97,7,19.1249994163513,2|2|2|2|2|2|2|2,2:0|2:0|2:0|2:0|2:0|2:0|2:0|2:0,0:0:0:0:
454,104,67858,1,4,0:0:0:0:
37,86,68201,2,0,P|82:112|129:103,1,85.0000032424928,0|0,0:0|0:0,0:0:0:0:
195,36,68430,1,0,0:0:0:0:
176,16,68544,6,0,B|176:96|176:96|160:128|160:128|160:256,1,191.250007295609,0|0,3:0|1:0,0:0:0:0:
240,208,68887,6,0,L|240:160,1,42.5,0|0,0:0|1:0,0:0:0:0:
96,32,69058,1,0,0:0:0:0:
96,48,69144,1,0,0:0:0:0:
96,64,69230,6,0,P|128:100|185:113,1,106.25,8|0,0:0|1:0,0:0:0:0:
299,40,69744,5,0,0:0:0:0:
309,116,69830,1,0,0:0:0:0:
319,192,69916,2,0,B|365:225|427:223|453:187|453:187|383:173,1,191.250007295609,0|0,3:0|1:0,0:0:0:0:
336,292,70258,6,0,P|400:301|464:285,1,127.5,0|0,0:0|1:0,0:0:0:0:
232,260,70601,6,0,B|217:300|217:300|223:369,1,106.25,8|0,0:0|1:0,0:0:0:0:
103,330,71116,5,0,0:0:0:0:
94,254,71201,1,0,0:0:0:0:
86,177,71287,2,0,B|136:199|184:172|184:172|235:146|319:187,1,191.250007295609,0|0,3:0|1:0,0:0:0:0:
149,49,71630,6,0,P|135:81|132:97,1,42.5,0|0,0:0|1:0,0:0:0:0:
216,299,71801,2,0,P|226:280|232:260,1,42.5,0|0,0:0|1:0,0:0:0:0:
271,169,71973,6,0,P|260:248|310:356,1,191.250007295609,8|0,0:0|0:0,0:0:0:0:
512,264,72316,1,0,0:0:0:0:
487,259,72401,1,0,0:0:0:0:
462,253,72487,2,0,L|376:241,1,63.7500024318696,0|0,3:0|1:0,0:0:0:0:
271,169,72658,6,0,B|328:182|328:182|470:144,1,191.250007295609,0|0,0:0|1:0,0:0:0:0:
406,87,73001,2,0,P|378:161|478:223,1,191.250007295609,0|0,3:0|1:0,0:0:0:0:
486,74,73344,1,8,0:0:0:0:
271,169,73516,1,0,3:0:0:0:
339,347,73687,2,0,P|349:312|339:277,1,63.7500024318696,0|0,0:0|1:0,0:0:0:0:
453,226,73858,2,0,P|443:191|453:156,1,63.7500024318696,0|0,0:0|1:0,0:0:0:0:
288,72,74030,6,0,B|288:128|288:128|272:168|272:168|288:208|288:208|288:264,1,191.250007295609,0|0,3:0|1:0,0:0:0:0:
205,282,74373,6,0,L|205:229,1,42.5,0|0,0:0|1:0,0:0:0:0:
367,190,74544,1,0,0:0:0:0:
366,210,74630,1,0,0:0:0:0:
366,229,74716,6,0,B|379:173|379:173|366:113,1,106.25,8|0,0:0|1:0,0:0:0:0:
288,72,75230,1,0,0:0:0:0:
360,47,75316,1,0,0:0:0:0:
431,22,75401,2,0,B|403:89|403:89|434:223,1,191.250007295609,0|0,3:0|1:0,0:0:0:0:
416,335,75744,6,0,L|418:302,3,21.25,0|0|0|0,0:0|0:0|0:0|0:0,0:0:0:0:
395,344,75916,1,0,0:0:0:0:
370,342,76001,1,0,0:0:0:0:
326,319,76087,6,0,B|273:331|273:331|211:315,1,106.25,8|0,0:0|1:0,0:0:0:0:
100,276,76601,5,0,0:0:0:0:
172,252,76687,1,0,0:0:0:0:
244,228,76773,2,0,B|300:222|326:188|326:188|371:211|436:191,1,191.250007295609,0|0,3:0|1:0,0:0:0:0:
385,74,77116,6,0,L|381:121,1,42.5,0|0,0:0|1:0,0:0:0:0:
223,96,77287,2,0,L|243:138,1,42.5,0|0,0:0|1:0,0:0:0:0:
351,335,77458,6,0,L|325:179,1,148.74999546051,8|0,3:2|0:0,0:0:0:0:
166,280,77973,2,0,B|267:317|267:317|233:277,1,148.74999546051,0|0,3:0|0:0,0:0:0:0:
306,147,78487,2,0,L|234:208,1,89.2499972763062,0|0,3:0|1:0,0:0:0:0:
166,280,78830,1,8,0:0:0:0:
87,193,79001,6,0,L|90:242,1,29.7499990921021,0|0,3:0|1:0,0:0:0:0:
238,118,79173,2,0,L|231:177,1,42.5,0|0,0:0|1:0,0:0:0:0:
72,58,79344,2,0,L|79:117,1,55.2499974708558,0|0,0:0|1:0,0:0:0:0:
284,231,79516,6,0,B|257:254|213:246|213:246|246:295|301:262|339:246|391:283,1,255,0|0,3:0|1:0,0:0:0:0:
463,127,80201,6,0,B|477:180|477:180|468:248,1,106.25,8|0,0:0|1:0,0:0:0:0:
381,276,80716,5,0,0:0:0:0:
363,202,80801,1,0,0:0:0:0:
346,127,80887,2,0,B|322:97|327:60|327:60|294:97|246:107|171:56,1,191.250007295609,0|0,3:0|1:0,0:0:0:0:
413,74,81230,6,0,B|493:65|493:65|548:92,1,127.5,0|0,0:0|1:0,0:0:0:0:
472,257,81573,6,0,P|465:217|473:147,1,106.25,8|0,0:0|1:0,0:0:0:0:
413,74,82087,5,0,0:0:0:0:
337,85,82173,1,0,0:0:0:0:
261,94,82258,2,0,B|225:111|191:107|191:107|184:171|121:197,1,191.250007295609,0|0,3:0|1:0,0:0:0:0:
49,100,82601,6,0,P|77:99|107:105,1,42.5,0|0,0:0|1:0,0:0:0:0:
140,299,82773,2,0,P|112:300|82:294,1,42.5,0|0,0:0|1:0,0:0:0:0:
122,196,82944,6,0,B|190:184|190:184|266:199,1,127.5,8|0,0:0|0:0,0:0:0:0:
305,288,83287,1,0,0:0:0:0:
302,297,83373,1,0,0:0:0:0:
298,305,83458,2,0,L|297:232,1,42.5,0|0,3:0|1:0,0:0:0:0:
345,42,83630,2,0,L|354:163,1,102,0|0,0:0|1:0,0:0:0:0:
426,307,83973,6,0,B|422:263|422:263|430:225,1,76.4999976654053,0|0,3:0|1:0,0:0:0:0:
443,204,84316,1,8,0:0:0:0:
440,324,84487,1,0,3:0:0:0:
346,156,84658,6,0,P|343:132|353:146,1,63.7500024318696,0|0,0:0|1:0,0:0:0:0:
297,262,84830,2,0,P|321:257|304:274,1,63.7500024318696,0|0,0:0|1:0,0:0:0:0:
200,158,85001,6,0,B|256:173|290:134|317:88|373:88|396:126|392:173|353:203|304:196|289:138,1,297.5,0|0,3:0|1:0,0:0:0:0:
198,52,85687,6,0,L|201:167,1,106.25,8|0,0:0|1:0,0:0:0:0:
75,241,86201,5,0,0:0:0:0:
73,164,86287,1,0,0:0:0:0:
72,87,86373,2,0,B|100:44|170:29|199:52|199:52|165:50|121:72,1,191.250007295609,0|0,3:0|1:0,0:0:0:0:
343,64,86716,6,0,L|316:66,3,21.25,0|0|0|0,0:0|0:0|0:0|0:0,0:0:0:0:
281,87,86887,1,0,0:0:0:0:
268,110,86973,1,0,0:0:0:0:
281,166,87058,6,0,B|331:176|331:176|392:170,1,106.25,8|0,0:0|1:0,0:0:0:0:
480,57,87573,5,0,0:0:0:0:
480,132,87658,1,0,0:0:0:0:
480,208,87744,2,0,B|473:232|478:260|478:260|432:238|406:257|370:282|303:222,1,191.250007295609,0|0,3:0|1:0,0:0:0:0:
440,378,88087,2,0,L|436:318,1,42.5,0|0,0:0|1:0,0:0:0:0:
388,128,88258,2,0,L|384:188,1,42.5,0|0,0:0|1:0,0:0:0:0:
264,358,88430,6,0,B|246:317|263:276|263:276|279:232|249:197,1,148.74999546051,8|0,3:2|0:0,0:0:0:0:
140,159,88944,2,0,P|204:156|262:221,1,148.74999546051,0|0,3:0|0:0,0:0:0:0:
340,313,89458,2,0,P|383:322|426:311,1,89.2499972763062,0|0,3:0|1:0,0:0:0:0:
381,215,89801,1,8,0:0:0:0:
297,32,89973,6,0,B|272:26|253:45|253:45|267:40|291:48,1,63.7500024318696,0|0,0:0|1:0,0:0:0:0:
166,25,90144,2,0,B|142:36|137:65|137:65|148:50|171:41,1,72.2500013780594,0|0,0:0|1:0,0:0:0:0:
41,58,90316,2,0,B|31:87|46:114|46:114|42:94|55:66,1,80.7499978437424,0|0,0:0|1:0,0:0:0:0:
139,224,90487,6,0,P|197:200|259:212,1,127.500004863739,0|0,3:0|0:0,0:0:0:0:
127,301,90830,2,0,P|136:268|132:234,1,68
215,112,91173,1,8,0:0:0:0:
415,242,91344,6,0,B|424:267|424:267|425:305,1,63.7500024318696,0|0,0:0|1:0,0:0:0:0:
317,234,91516,2,0,B|292:230|292:230|259:212,1,63.7500024318696,0|0,0:0|1:0,0:0:0:0:
372,152,91687,2,0,B|389:133|389:133|422:114,1,63.7500024318696,0|0,0:0|1:0,0:0:0:0:
258,211,91858,6,0,L|201:175,1,63.7500024318696,0|0,0:0|1:0,0:0:0:0:
422,113,92030,2,0,L|479:81,1,63.7500024318696,0|0,0:0|1:0,0:0:0:0:
422,305,92201,1,0,3:0:0:0:
258,211,92544,6,0,B|334:186|334:186|392:206,1,127.5,8|0,0:0|1:0,0:0:0:0:
331,274,92887,2,0,L|209:320,1,127.5,0|0,0:0|1:0,0:0:0:0:
149,374,93230,6,0,P|167:314|73:269,1,170,0|0,3:0|0:0,0:0:0:0:
98,81,93916,6,0,B|107:145|107:145|174:170,2,127.5,8|0|0,0:0|0:0|0:0,0:0:0:0:
186,83,94601,2,0,L|308:123,1,127.5,0|0,0:0|1:0,0:0:0:0:
394,150,94944,6,0,L|403:74,1,76.4999976654053,0|0,3:0|0:0,0:0:0:0:
329,8,95287,1,8,0:0:0:0:
408,163,95458,6,0,B|413:117|413:117|394:152,1,63.7500024318696,0|0,3:0|1:0,0:0:0:0:
241,221,95630,2,0,B|235:169|235:169|255:204,1,72.2500013780594,0|0,0:0|1:0,0:0:0:0:
371,309,95801,2,0,B|379:250|379:250|360:285,1,80.7499978437424,0|0,0:0|1:0,0:0:0:0:
254,339,95973,6,0,L|231:124,1,170,0|0,3:0|0:0,0:0:0:0:
235,169,96316,2,0,P|217:228|240:275,1,85,0|0,0:0|0:0,0:0:0:0:
371,309,96658,1,8,0:0:0:0:
419,133,96830,6,0,P|403:161|401:193,1,63.7500024318696,0|0,0:0|1:0,0:0:0:0:
277,213,97001,2,0,P|260:185|234:168,1,63.7500024318696,0|0,0:0|1:0,0:0:0:0:
279,50,97173,2,0,P|310:49|339:35,1,63.7500024318696,0|0,0:0|1:0,0:0:0:0:
345,245,97344,6,0,L|332:169,1,63.7500024318696,0|0,0:0|1:0,0:0:0:0:
216,94,97516,2,0,L|288:120,1,63.7500024318696,0|0,0:0|1:0,0:0:0:0:
414,56,97687,1,0,3:0:0:0:
152,158,98030,6,0,P|126:97|149:33,1,127.5,8|0,0:0|1:0,0:0:0:0:
65,179,98373,2,0,L|66:299,1,85,0|0,0:0|1:0,0:0:0:0:
81,280,98630,1,0,0:0:0:0:
100,298,98716,6,0,L|323:292,1,203.999993774414,0|8,3:0|0:0,0:0:0:0:
411,334,99230,1,0,3:0:0:0:
116,316,99573,1,8,0:0:0:0:
411,334,99744,1,0,3:0:0:0:
303,292,100087,6,0,B|252:286|219:316|219:316|183:297|175:266|175:266|140:299|87:302,1,255.000009727478,0|8,3:0|0:0,0:0:0:0:
92,195,100601,1,0,3:0:0:0:
88,302,100773,38,0,P|114:253|95:140,1,127.500004863739,0|0,0:0|0:0,0:0:0:0:
145,360,101116,2,0,P|164:336|182:302,1,63.7500024318696,0|0,0:0|0:0,0:0:0:0:
202,225,101287,2,0,P|201:194|193:156,1,63.7500024318696,0|0,0:0|0:0,0:0:0:0:
14,223,101458,1,4,0:1:0:0:
