osu file format v14

[General]
AudioFilename: audio.mp3
AudioLeadIn: 0
PreviewTime: 68201
Countdown: 0
SampleSet: Soft
StackLeniency: 0.3
Mode: 0
LetterboxInBreaks: 0
WidescreenStoryboard: 1

[Editor]
Bookmarks: 21906
DistanceSpacing: 1
BeatDivisor: 3
GridSize: 8
TimelineZoom: 1.5

[Metadata]
Title:LGND
TitleUnicode:LΞGΞND
Artist:Tha Trickaz
ArtistUnicode:Tha Trickaz
Creator:Mun
Version:HYPER
Source:
Tags:waku sdafsf dubstep drumstep trap otodayo supa cloud city lp legend
BeatmapID:1426892
BeatmapSetID:670373

[Difficulty]
HPDrainRate:5
CircleSize:3.5
OverallDifficulty:6
ApproachRate:8.4
SliderMultiplier:1.4
SliderTickRate:1

[Events]
//Background and Video events
0,0,"stop_and_stare_by_nanomortis-d9tjzmt.png",0,0
//Break Periods
2,46801,56823
//Storyboard Layer 0 (Background)
//Storyboard Layer 1 (Fail)
//Storyboard Layer 2 (Pass)
//Storyboard Layer 3 (Foreground)
//Storyboard Sound Samples

[TimingPoints]
2716,342.857142857143,4,2,1,100,1,0
21916,-125,4,2,1,100,0,0
27058,-83.3333333333333,4,2,1,100,0,0
27401,-125,4,2,1,100,0,0
32887,-100,4,2,1,100,0,0
35630,-125,4,2,1,100,0,0
38030,-83.3333333333333,4,2,1,100,0,0
38373,-125,4,2,1,100,0,0
43858,-100,4,2,1,100,0,0
57573,-142.857142857143,4,2,1,100,0,0
60316,-125,4,2,1,100,0,0
63058,-111.111111111111,4,2,1,100,0,0
64430,-99.9999999999999,4,2,2,100,0,0
65801,-83.3333333333333,4,3,2,100,0,0
67173,-142.857142857143,4,3,2,100,0,0
67516,-200,4,3,2,70,0,0
67858,-200,4,2,4,100,0,0
68201,-76.9230769230769,4,2,1,100,0,0
68544,-76.9230769230769,4,2,1,100,0,1
69230,-142.857142857143,4,2,1,100,0,1
69744,-76.9230769230769,4,2,1,100,0,1
70258,-100,4,2,1,100,0,1
70601,-142.857142857143,4,2,1,100,0,1
71116,-76.9230769230769,4,2,1,100,0,1
71630,-100,4,2,1,100,0,1
71973,-76.9230769230769,4,2,1,100,0,1
72658,-100,4,2,1,100,0,1
73687,-66.6666666666667,4,2,1,100,0,1
74030,-76.9230769230769,4,2,1,100,0,1
74716,-142.857142857143,4,2,1,100,0,1
75230,-76.9230769230769,4,2,1,100,0,1
75744,-100,4,2,1,100,0,1
76087,-142.857142857143,4,2,1,100,0,1
76601,-76.9230769230769,4,2,1,100,0,1
77116,-100,4,2,1,100,0,1
77458,-125,4,2,1,100,0,1
77973,-83.3333333333333,4,2,1,100,0,1
79001,-66.6666666666667,4,2,1,100,0,1
79516,-83.3333333333333,4,2,1,100,0,1
80201,-142.857142857143,4,2,1,100,0,1
80716,-76.9230769230769,4,2,1,100,0,1
81230,-100,4,2,1,100,0,1
81573,-142.857142857143,4,2,1,100,0,1
82087,-76.9230769230769,4,2,1,100,0,1
82601,-100,4,2,1,100,0,1
82944,-76.9230769230769,4,2,1,100,0,1
83630,-100,4,2,1,100,0,1
84658,-66.6666666666667,4,2,1,100,0,1
85001,-76.9230769230769,4,2,1,100,0,1
85687,-142.857142857143,4,2,1,100,0,1
86201,-76.9230769230769,4,2,1,100,0,1
86716,-100,4,2,1,100,0,1
87058,-142.857142857143,4,2,1,100,0,1
87573,-76.9230769230769,4,2,1,100,0,1
88087,-100,4,2,1,100,0,1
89973,-66.6666666666667,4,2,1,100,0,1
90487,-100,4,2,1,100,0,0

[Colours]
Combo1 : 255,156,21
Combo2 : 117,0,0
Combo3 : 221,92,30
Combo4 : 192,192,192

[HitObjects]
142,299,21916,6,0,P|150:266|126:181,1,112,0|0,2:0|0:0,0:0:0:0:
74,130,22430,2,0,P|107:138|192:114,1,112,0|0,2:0|0:0,0:0:0:0:
220,46,22944,1,0,2:0:0:0:
220,46,23630,5,0,0:0:0:0:
279,104,23801,2,0,B|295:160|295:160|281:223,1,112,0|0,2:0|0:0,0:0:0:0:
210,255,24316,2,0,L|171:261,1,28,0|0,0:0|1:0,0:0:0:0:
142,274,24487,2,0,L|103:268,1,28,0|0,0:0|1:0,0:0:0:0:
46,245,24658,6,0,P|59:191|45:111,1,112,0|0,3:0|0:0,0:0:0:0:
6,65,25173,1,0,0:0:0:0:
163,139,25344,2,0,B|106:126|106:126|48:136,1,112,8|0,0:0|0:0,0:0:0:0:
214,211,25858,6,0,P|239:181|237:94,1,112,0|0,0:0|0:0,0:0:0:0:
180,54,26373,1,0,3:0:0:0:
402,122,26716,2,0,L|395:179,1,56,8|0,0:0|0:0,0:0:0:0:
473,267,27058,2,0,B|431:248|409:263|388:278|340:246,1,125.999996154785,0|0,0:0|0:0,0:0:0:0:
281,222,27401,6,0,B|296:276|296:276|276:337,1,112,0|0,3:0|0:0,0:0:0:0:
197,354,27916,1,0,0:0:0:0:
364,300,28087,1,8,0:0:0:0:
112,305,28601,2,0,B|125:250|125:250|112:179,1,112,0|0,0:0|0:0,0:0:0:0:
44,148,29116,1,0,3:0:0:0:
135,27,29458,5,8,0:0:0:0:
115,195,29630,1,0,3:0:0:0:
44,148,29801,2,0,P|69:123|136:113,1,84,0|0,0:0|1:0,0:0:0:0:
186,143,30144,6,0,B|240:158|240:158|300:146,1,112,0|0,3:0|0:0,0:0:0:0:
365,82,30658,1,0,0:0:0:0:
365,82,30744,1,0,0:0:0:0:
365,82,30830,2,0,P|353:139|353:195,1,112,8|0,0:0|0:0,0:0:0:0:
430,226,31344,6,0,P|436:198|433:168,1,56,0|0,0:0|0:0,0:0:0:0:
351,273,31687,1,0,0:0:0:0:
276,222,31858,2,0,P|274:168|301:127,1,84,0|0,3:0|1:0,0:0:0:0:
354,90,32201,2,0,P|357:60|346:26,1,56,8|0,0:0|0:0,0:0:0:0:
193,56,32544,2,0,L|289:65,1,84,0|0,0:0|0:0,0:0:0:0:
354,90,32887,6,0,B|361:127|361:127|355:168,1,70,0|0,3:0|0:0,0:0:0:0:
275,230,33230,1,8,0:0:0:0:
268,75,33401,6,0,B|275:112|275:112|269:153,1,70,0|0,3:0|0:0,0:0:0:0:
189,215,33744,1,8,0:0:0:0:
182,60,33916,6,0,B|189:97|189:97|183:138,1,70,0|0,3:0|0:0,0:0:0:0:
98,52,34258,1,0,3:0:0:0:
189,215,34601,5,8,0:0:0:0:
270,144,34773,2,0,B|275:112|275:112|268:75,1,70,0|0,3:0|0:0,0:0:0:0:
275,230,35116,5,8,0:0:0:0:
376,197,35288,2,0,P|396:196|415:202,1,35,0|0,0:0|1:0,0:0:0:0:
455,220,35458,2,0,P|468:234|476:253,1,35,0|0,0:0|1:0,0:0:0:0:
382,299,35630,6,0,L|266:253,1,112,0|0,3:0|0:0,0:0:0:0:
238,182,36145,1,0,0:0:0:0:
250,358,36316,2,0,P|276:326|272:247,1,112,8|0,0:0|0:0,0:0:0:0:
193,252,36830,6,0,B|137:262|137:262|77:240,1,112,0|0,0:0|0:0,0:0:0:0:
43,169,37344,1,0,3:0:0:0:
149,38,37687,2,0,P|155:80|152:101,1,56,8|0,0:0|0:0,0:0:0:0:
43,169,38030,2,0,B|74:164|105:180|105:180|132:192|185:182,1,125.999996154785,0|0,0:0|0:0,0:0:0:0:
232,123,38373,6,0,P|223:171|236:240,1,112,0|0,3:0|0:0,0:0:0:0:
358,306,38888,1,0,0:0:0:0:
201,300,39058,1,8,0:0:0:0:
201,300,39573,2,0,P|163:311|92:293,1,112,0|0,0:0|0:0,0:0:0:0:
51,220,40088,1,0,3:0:0:0:
216,181,40430,5,8,0:0:0:0:
51,220,40602,1,0,3:0:0:0:
71,137,40773,2,0,P|103:151|135:211,1,84,0|0,0:0|1:0,0:0:0:0:
119,277,41116,6,0,B|102:330|102:330|120:386,1,112,0|0,3:0|0:0,0:0:0:0:
51,220,41630,1,0,0:0:0:0:
51,220,41716,1,0,0:0:0:0:
51,220,41801,2,0,P|65:153|55:104,1,112,8|0,0:0|0:0,0:0:0:0:
7,42,42316,6,0,P|47:29|84:36,1,56,0|0,0:0|0:0,0:0:0:0:
132,73,42659,1,0,0:0:0:0:
284,39,42830,2,0,P|246:31|191:37,1,84,0|0,3:0|1:0,0:0:0:0:
132,73,43173,2,0,L|130:136,1,56,8|0,0:0|0:0,0:0:0:0:
170,280,43516,2,0,L|171:196,1,84,0|0,0:0|0:0,0:0:0:0:
246,142,43858,6,0,P|258:177|255:217,1,70,0|0,3:0|0:0,0:0:0:0:
170,280,44201,1,8,0:0:0:0:
160,128,44373,6,0,P|172:163|169:203,1,70,0|0,3:0|0:0,0:0:0:0:
84,266,44716,1,8,0:0:0:0:
74,114,44887,6,0,P|86:149|83:189,1,70,0|0,3:0|0:0,0:0:0:0:
0,160,45230,1,0,3:0:0:0:
84,266,45573,5,8,0:0:0:0:
89,186,45745,2,0,P|90:151|79:119,1,70,0|0,3:0|0:0,0:0:0:0:
170,280,46087,5,8,0:0:0:0:
176,194,46259,2,0,P|176:159|165:127,1,70,0|0,3:0|0:0,0:0:0:0:
120,352,46601,1,4,2:1:0:0:
111,222,57573,6,0,P|151:231|223:222,1,97.9999970092774,0|0,3:0|0:0,0:0:0:0:
204,128,58258,2,0,B|194:166|194:166|200:209,1,73.4999977569581,8|0,0:0|0:0,0:0:0:0:
207,226,58601,2,0,L|223:301,1,73.4999977569581,0|0,0:0|0:0,0:0:0:0:
231,320,58944,6,0,L|239:347,2,24.4999992523194,0|0|0,0:0|0:0|0:0,0:0:0:0:
327,336,59287,2,0,P|354:333|391:338,1,48.9999985046387,0|0,3:0|0:0,0:0:0:0:
444,361,59630,2,0,L|447:320,1,24.4999992523194,8|0,0:0|0:0,0:0:0:0:
463,304,59801,2,0,L|466:263,1,24.4999992523194,0|0,0:0|0:0,0:0:0:0:
396,227,59973,2,0,L|399:186,1,24.4999992523194,0|0,0:0|0:0,0:0:0:0:
415,170,60144,2,0,L|418:129,1,24.4999992523194,0|0,0:0|0:0,0:0:0:0:
377,67,60316,6,0,P|329:73|279:59,1,84,0|0,3:0|0:0,0:0:0:0:
262,92,60658,2,0,P|214:86|164:100,1,84,0|0,0:0|0:0,0:0:0:0:
141,74,61001,2,0,L|133:134,1,56,8|0,0:0|0:0,0:0:0:0:
110,145,61258,1,0,0:0:0:0:
87,162,61344,2,0,L|77:251,1,84,0|0,0:0|0:0,0:0:0:0:
60,268,61687,6,0,P|111:264|161:294,1,112,0|0,0:0|3:0,0:0:0:0:
189,369,62201,1,0,0:0:0:0:
215,233,62373,2,0,L|254:228,1,28,8|0,0:0|0:0,0:0:0:0:
265,213,62544,2,0,L|304:208,1,28,0|0,0:0|0:0,0:0:0:0:
364,246,62716,2,0,L|403:241,1,28,0|0,0:0|0:0,0:0:0:0:
414,226,62887,2,0,L|453:221,1,28,0|0,0:0|0:0,0:0:0:0:
507,256,63058,6,0,L|509:300,3,31.4999990386963,0|0|0|0,3:0|0:0|0:0|0:0,0:0:0:0:
488,312,63401,2,0,L|486:356,3,31.4999990386963,0|0|0|0,3:0|0:0|0:0|0:0,0:0:0:0:
404,372,63744,6,0,L|406:328,3,31.4999990386963,0|0|0|0,3:0|0:0|0:0|0:0,0:0:0:0:
385,315,64087,2,0,L|383:271,3,31.4999990386963,0|0|0|0,3:0|0:0|0:0|0:0,0:0:0:0:
329,236,64430,1,8,2:0:0:0:
326,210,64601,1,8,0:0:0:0:
455,209,64773,1,8,0:0:0:0:
454,232,64944,1,8,0:0:0:0:
428,138,65116,6,0,L|438:104,1,35,8|0,0:0|0:0,0:0:0:0:
448,71,65287,2,0,L|411:85,1,35,8|0,0:0|0:0,0:0:0:0:
330,104,65458,6,0,L|340:70,1,35,8|0,0:0|0:0,0:0:0:0:
350,37,65630,2,0,L|310:52,1,35,8|0,0:0|0:0,0:0:0:0:
237,80,65801,6,0,P|216:77|184:83,3,41.9999987182618,0|0|0|0,0:0|0:0|0:0|0:0,0:0:0:0:
158,98,66144,2,0,P|137:101|105:95,3,41.9999987182618,0|0|0|0,0:0|0:0|0:0|0:0,0:0:0:0:
43,58,66487,2,0,L|26:108,3,41.9999987182618,0|0|0|0,0:0|0:0|0:0|0:0,0:0:0:0:
43,137,66830,2,0,L|26:187,3,41.9999987182618,0|0|0|0,0:0|0:0|0:0|0:0,0:0:0:0:
36,254,67173,6,0,L|68:252,3,24.4999992523194,0|0|0|0,0:0|0:0|0:0|0:0,0:0:0:0:
104,273,67516,6,0,L|136:271,3,17.5,2|2|2|2,2:0|2:0|2:0|2:0,0:0:0:0:
152,283,67858,1,4,0:0:0:0:
331,214,68201,2,0,P|327:184|314:157,2,60.6666638895672,0|0|0,0:0|0:0|0:0,0:0:0:0:
337,245,68544,6,0,B|371:267|403:252|403:245|436:230|490:262,1,136.499993751526,0|0,3:0|1:0,0:0:0:0:
433,324,68887,1,0,0:0:0:0:
313,322,69058,5,0,0:0:0:0:
313,322,69144,1,0,0:0:0:0:
313,322,69230,2,0,P|320:267|306:221,1,97.9999970092774,8|0,0:0|0:0,0:0:0:0:
235,171,69744,5,0,0:0:0:0:
190,176,69830,1,0,0:0:0:0:
144,181,69916,2,0,B|144:238|144:238|157:261|157:261|157:342,1,136.499993751526,0|0,3:0|1:0,0:0:0:0:
94,360,70258,2,0,B|41:350|41:350|-12:357,1,105,0|0,0:0|1:0,0:0:0:0:
13,275,70601,6,0,L|16:168,1,97.9999970092774,8|0,0:0|0:0,0:0:0:0:
126,45,71116,5,0,0:0:0:0:
122,90,71201,1,0,0:0:0:0:
119,135,71287,2,0,B|146:164|201:161|225:134|225:134|211:123|191:132,1,136.499993751526,0|0,3:0|1:0,0:0:0:0:
304,118,71630,2,0,P|275:75|235:57,1,70,0|0,0:0|0:0,0:0:0:0:
266,204,71973,6,0,B|348:205|348:205|401:265,1,136.499993751526,8|0,0:0|0:0,0:0:0:0:
455,315,72316,1,0,0:0:0:0:
455,315,72401,1,0,0:0:0:0:
455,315,72487,2,0,L|458:259,1,45.4999979171754,0|0,3:0|1:0,0:0:0:0:
448,182,72658,6,0,P|421:133|440:75,1,105,0|0,0:0|1:0,0:0:0:0:
493,35,73001,2,0,L|361:32,1,105,0|0,3:0|1:0,0:0:0:0:
299,31,73344,1,8,0:0:0:0:
329,131,73516,1,0,3:0:0:0:
186,92,73687,2,0,B|224:94|224:94|181:108,1,52.5000020027161,0|0,0:0|0:0,0:0:0:0:
144,142,73858,2,0,B|106:140|106:140|149:126,1,52.5000020027161,0|0,0:0|0:0,0:0:0:0:
233,101,74030,6,0,B|232:145|232:145|242:170|242:170|231:198|231:198|230:268,1,136.499993751526,0|0,3:0|1:0,0:0:0:0:
309,218,74373,1,0,0:0:0:0:
209,310,74544,5,0,0:0:0:0:
209,310,74630,1,0,0:0:0:0:
209,310,74716,2,0,P|158:272|151:225,1,97.9999970092774,8|0,0:0|0:0,0:0:0:0:
86,84,75230,5,0,0:0:0:0:
85,129,75316,1,0,0:0:0:0:
84,174,75401,2,0,B|86:275|86:275|43:232,1,136.499993751526,0|0,3:0|1:0,0:0:0:0:
5,306,75744,6,0,L|69:370,1,70,0|0,0:0|0:0,0:0:0:0:
135,348,76001,1,0,0:0:0:0:
164,341,76087,2,0,L|166:234,1,97.9999970092774,8|0,0:0|0:0,0:0:0:0:
173,73,76601,5,0,0:0:0:0:
171,118,76687,1,0,0:0:0:0:
170,163,76773,2,0,B|199:184|234:167|234:167|269:189|315:168,1,136.499993751526,0|0,3:0|1:0,0:0:0:0:
340,104,77116,2,0,P|307:94|273:99,1,70,0|0,0:0|0:0,0:0:0:0:
382,176,77458,6,0,L|379:287,1,112,8|0,3:2|0:0,0:0:0:0:
374,294,77973,2,0,B|378:270|353:239|353:239|396:226|396:226|376:193|379:167,1,167.999994873047,0|0,3:0|0:0,0:0:0:0:
500,209,78487,2,0,P|462:179|477:105,1,125.999996154785,0|0,3:0|1:0,0:0:0:0:
512,96,78830,1,8,0:0:0:0:
385,43,79001,6,0,P|359:53|323:45,1,52.5000020027161,0|0,3:0|1:0,0:0:0:0:
266,85,79173,2,0,P|240:75|204:83,1,52.5000020027161,0|0,0:0|1:0,0:0:0:0:
144,42,79344,2,0,P|118:52|82:44,1,52.5000020027161,0|0,0:0|1:0,0:0:0:0:
18,85,79516,6,0,B|37:132|99:138|99:138|133:168|111:232|43:236|16:197|28:162,1,251.999992309571,0|0,3:0|0:0,0:0:0:0:
191,149,80201,6,0,P|192:190|161:248,1,97.9999970092774,8|0,0:0|0:0,0:0:0:0:
0,291,80716,5,0,0:0:0:0:
45,292,80801,1,0,0:0:0:0:
90,293,80887,2,0,B|66:256|81:226|95:226|117:189|90:137,1,136.499993751526,0|0,3:0|1:0,0:0:0:0:
70,142,81230,2,0,P|103:125|111:41,1,105,0|0,0:0|1:0,0:0:0:0:
202,101,81573,6,0,L|313:99,1,97.9999970092774,8|0,0:0|0:0,0:0:0:0:
409,43,82087,5,0,0:0:0:0:
409,88,82173,1,0,0:0:0:0:
408,133,82258,2,0,B|407:192|407:192|396:212|396:212|398:273,1,136.499993751526,0|0,3:0|1:0,0:0:0:0:
419,324,82601,6,0,P|384:312|325:321,1,70,0|0,0:0|0:0,0:0:0:0:
265,344,82944,2,0,B|276:252|276:252|249:204,1,136.499993751526,8|0,0:0|0:0,0:0:0:0:
210,136,83287,1,0,0:0:0:0:
204,128,83373,1,0,0:0:0:0:
198,120,83458,2,0,L|181:187,1,45.4999979171754,0|0,3:0|1:0,0:0:0:0:
178,246,83630,6,0,P|134:231|104:169,1,105,0|0,0:0|1:0,0:0:0:0:
86,111,83973,2,0,L|82:243,1,105,0|0,3:0|1:0,0:0:0:0:
66,244,84316,1,8,0:0:0:0:
173,322,84487,1,0,3:0:0:0:
251,194,84658,2,0,L|246:247,1,52.5000020027161,0|0,0:0|1:0,0:0:0:0:
171,210,84830,2,0,L|176:157,1,52.5000020027161,0|0,0:0|1:0,0:0:0:0:
244,106,85001,6,0,B|291:76|335:100|335:106|379:140|421:113|421:113|447:93|433:57|404:50|378:70|375:95,1,272.999987503052,0|0,3:0|0:0,0:0:0:0:
496,145,85687,6,0,P|511:98|501:46,1,97.9999970092774,8|0,0:0|0:0,0:0:0:0:
406,92,86201,5,0,0:0:0:0:
403,137,86287,1,0,0:0:0:0:
400,182,86373,2,0,B|357:208|357:208|309:191|309:191|295:152,1,136.499993751526,0|0,3:0|1:0,0:0:0:0:
217,156,86716,6,0,L|246:243,1,70,0|0,0:0|0:0,0:0:0:0:
217,295,86973,1,0,0:0:0:0:
207,328,87058,6,0,P|158:316|102:328,1,97.9999970092774,8|0,0:0|0:0,0:0:0:0:
37,341,87573,5,0,0:0:0:0:
43,296,87658,1,0,0:0:0:0:
47,250,87744,2,0,B|23:182|23:182|119:186,1,136.499993751526,0|0,3:0|1:0,0:0:0:0:
142,109,88087,6,0,L|66:105,1,70,0|0,0:0|0:0,0:0:0:0:
194,47,88430,6,0,B|218:69|224:92|221:120|221:120|249:137|289:107,1,140,8|0,3:2|1:0,0:0:0:0:
210,197,88944,2,0,B|242:212|277:201|277:197|311:184|353:200,1,140,0|0,3:0|0:0,0:0:0:0:
299,371,89458,2,0,B|295:298|295:298|312:270,1,105,0|0,3:0|1:0,0:0:0:0:
347,197,89801,1,8,0:0:0:0:
457,277,89973,2,0,L|466:219,1,52.5000020027161,0|0,3:0|1:0,0:0:0:0:
472,141,90144,2,0,L|417:162,1,52.5000020027161,0|0,0:0|1:0,0:0:0:0:
347,197,90316,2,0,L|392:233,1,52.5000020027161,0|0,0:0|1:0,0:0:0:0:
457,277,90487,6,0,B|460:367,1,70,0|0,3:0|0:0,0:0:0:0:
278,239,91173,1,8,0:0:0:0:
295,350,91344,2,0,P|305:318|300:274,2,70,0|0|0,0:0|0:0|0:0,0:0:0:0:
151,307,91858,2,0,L|226:305,1,70,0|0,0:0|0:0,0:0:0:0:
295,350,92201,1,0,3:0:0:0:
385,212,92544,6,0,P|380:284|394:326,1,105,8|0,0:0|1:0,0:0:0:0:
406,336,92887,2,0,P|353:324|294:337,1,105,0|0,0:0|1:0,0:0:0:0:
220,305,93230,2,0,L|219:208,1,70,0|0,3:0|0:0,0:0:0:0:
206,123,93916,6,0,L|207:237,2,105,8|0|0,0:0|0:0|0:0,0:0:0:0:
132,17,94601,2,0,P|200:39|246:30,1,105,0|0,0:0|1:0,0:0:0:0:
311,4,94944,6,0,L|319:145,1,140,0|8,3:0|0:0,0:0:0:0:
259,269,95458,2,0,L|266:234,1,35,0|0,3:0|1:0,0:0:0:0:
215,180,95630,2,0,L|222:145,1,35,0|0,0:0|1:0,0:0:0:0:
171,91,95801,2,0,L|178:56,1,35,0|0,0:0|1:0,0:0:0:0:
98,113,95973,2,0,L|79:199,1,70,0|0,3:0|0:0,0:0:0:0:
44,337,96658,5,8,0:0:0:0:
87,266,96830,2,0,L|162:276,2,70,0|0|0,0:0|0:0|0:0,0:0:0:0:
20,204,97344,2,0,L|10:134,1,70,0|0,0:0|0:0,0:0:0:0:
112,177,97687,1,0,3:0:0:0:
112,177,98030,6,0,L|239:175,1,105,8|0,0:0|1:0,0:0:0:0:
237,192,98373,2,0,L|364:190,1,105,0|0,0:0|0:0,0:0:0:0:
371,221,98716,6,0,P|362:173|420:105,1,140,0|8,3:0|0:0,0:0:0:0:
509,108,99230,1,0,3:0:0:0:
388,19,99573,1,8,0:0:0:0:
509,108,99744,1,0,3:0:0:0:
277,110,100087,6,0,P|346:96|415:106,1,140,0|8,3:0|0:0,0:0:0:0:
371,221,100601,1,0,3:0:0:0:
371,221,101458,5,4,0:1:0:0:
