osu file format v14

[General]
AudioFilename: audio.mp3
AudioLeadIn: 0
PreviewTime: 68201
Countdown: 0
SampleSet: Soft
StackLeniency: 0.3
Mode: 0
LetterboxInBreaks: 0
WidescreenStoryboard: 1

[Editor]
Bookmarks: 21906,46601,46687,46858,46944,47030,47116,47201,47287,47373,47458,47544,47630,47716,47801,47887,47973,48058,48144,48230,48401,48573,48658,48744,48830,49001,49173,49258,49344,49430,49516,49601,49773,49858,49944,50030,50116,50201,50287,50458,50630,50716,50801,50887,51058,51230,51401,51487,51573,51658,51744,51830,51916,52087,52258,52344,52430,52516,52601,52773,52858,52944,53030,53116,53287,53458,53544,53630,53716,53801,53887,53973,54058,54144,54230,54401,54487,54573,54658,54744,54830,54916,55001,55173,55258,55344,55430,55601,55773,55944,56030,56201,56373,56458,56544,56630,56716,56801,56973,57058,57144,57230,57316,57487
DistanceSpacing: 2
BeatDivisor: 4
GridSize: 8
TimelineZoom: 1.5

[Metadata]
Title:LGND
TitleUnicode:LΞGΞND
Artist:Tha Trickaz
ArtistUnicode:Tha Trickaz
Creator:Mun
Version:DIFFICULT
Source:
Tags:waku sdafsf dubstep drumstep trap otodayo supa cloud city lp legend
BeatmapID:1428869
BeatmapSetID:670373

[Difficulty]
HPDrainRate:4
CircleSize:3
OverallDifficulty:5
ApproachRate:7.5
SliderMultiplier:1.2
SliderTickRate:1

[Events]
//Background and Video events
0,0,"stop_and_stare_by_nanomortis-d9tjzmt.png",0,0
//Break Periods
2,46801,56748
//Storyboard Layer 0 (Background)
//Storyboard Layer 1 (Fail)
//Storyboard Layer 2 (Pass)
//Storyboard Layer 3 (Foreground)
//Storyboard Sound Samples

[TimingPoints]
2716,342.857142857143,4,2,1,100,1,0
21916,-125,4,2,1,100,0,0
24316,-76.9230769230769,4,2,1,100,0,0
24658,-100,4,2,1,100,0,0
27401,-100,4,2,1,100,0,0
35287,-76.9230769230769,4,2,1,100,0,0
35630,-100,4,2,1,100,0,0
57573,-125,4,2,1,100,0,0
64430,-125,4,2,2,100,0,0
65801,-125,4,3,2,100,0,0
67516,-125,4,3,2,70,0,0
67858,-125,4,2,4,100,0,0
68201,-125,4,2,1,100,0,0
68544,-76.9230769230769,4,2,1,100,0,1
71116,-100,4,2,1,100,0,1
73687,-76.9230769230769,4,2,1,100,0,1
77458,-100,4,2,1,100,0,1
80201,-76.9230769230769,4,2,1,100,0,1
82944,-100,4,2,1,100,0,1
84658,-76.9230769230769,4,2,1,100,0,1
88430,-100,4,2,1,100,0,1
90487,-100,4,2,1,100,0,0

[Colours]
Combo1 : 255,156,21
Combo2 : 117,0,0
Combo3 : 221,92,30
Combo4 : 192,192,192

[HitObjects]
129,121,21916,6,0,P|133:159|115:230,1,96,0|0,2:0|0:0,0:0:0:0:
78,272,22430,2,0,B|123:263|123:263|178:272,1,96,0|0,2:0|0:0,0:0:0:0:
233,316,22944,1,0,2:0:0:0:
362,58,23630,1,0,0:0:0:0:
362,58,23801,2,0,P|313:74|256:71,1,96,0|0,2:0|0:0,0:0:0:0:
193,23,24316,6,0,P|189:57|174:94,1,38.9999982147218,0|0,0:0|1:0,0:0:0:0:
177,84,24487,2,0,P|156:111|125:135,1,38.9999982147218,0|0,0:0|1:0,0:0:0:0:
122,133,24658,6,0,B|168:133|168:133|201:145|201:145|261:146,1,120,0|0,3:0|0:0,0:0:0:0:
362,58,25344,1,8,0:0:0:0:
248,230,25858,6,0,L|250:350,1,120,0|0,0:0|0:0,0:0:0:0:
353,287,26373,2,0,B|355:209|355:209|395:152,1,120,0|8,3:0|0:0,0:0:0:0:
448,12,27058,2,0,B|443:59|443:59|456:111,1,90,0|0,0:0|0:0,0:0:0:0:
473,131,27401,6,0,P|458:194|475:263,1,120,0|0,3:0|0:0,0:0:0:0:
336,337,28087,1,8,0:0:0:0:
355,165,28601,6,0,B|381:197|381:197|380:284,1,120,0|0,0:0|0:0,0:0:0:0:
286,338,29116,2,0,L|287:215,1,120,0|8,3:0|0:0,0:0:0:0:
207,175,29630,1,0,3:0:0:0:
121,202,29801,2,0,L|123:98,1,90,0|0,0:0|1:0,0:0:0:0:
153,78,30144,6,0,P|80:91|22:75,1,120,0|0,3:0|0:0,0:0:0:0:
205,17,30830,1,8,0:0:0:0:
345,235,31344,2,0,L|326:353,1,120,0|0,0:0|0:0,0:0:0:0:
236,346,31858,2,0,B|243:304|243:304|203:323|142:300,1,120,0|8,3:0|0:0,0:0:0:0:
112,235,32373,2,0,L|119:159,1,60,0|0,0:0|0:0,0:0:0:0:
290,126,32887,6,0,P|349:142|414:122,1,120,0|8,3:0|0:0,0:0:0:0:
478,75,33401,2,0,P|463:134|473:207,1,120,0|8,3:0|0:0,0:0:0:0:
505,275,33916,1,0,3:0:0:0:
329,238,34258,5,0,3:0:0:0:
244,79,34601,1,8,0:0:0:0:
329,118,34773,2,0,L|328:242,1,120,0|8,3:0|0:0,0:0:0:0:
217,316,35287,2,0,P|205:283|206:259,1,38.9999982147218,0|0,0:0|1:0,0:0:0:0:
204,260,35458,2,0,P|216:227|232:209,1,38.9999982147218,0|0,0:0|1:0,0:0:0:0:
241,203,35630,6,0,L|108:203,1,120,0|0,3:0|0:0,0:0:0:0:
265,94,36316,1,8,0:0:0:0:
437,301,36830,6,0,B|465:243|465:243|457:162,1,120,0|0,0:0|0:0,0:0:0:0:
394,125,37344,2,0,B|388:69|388:69|416:11,1,120,0|8,3:0|0:0,0:0:0:0:
302,70,38030,2,0,L|313:160,1,90,0|0,0:0|1:0,0:0:0:0:
331,187,38373,2,0,P|263:175|193:192,1,120,0|0,3:0|0:0,0:0:0:0:
366,279,39058,1,8,0:0:0:0:
152,113,39573,6,0,P|239:117|281:94,1,120,0|0,0:0|0:0,0:0:0:0:
342,51,40087,2,0,L|349:177,1,120,0|8,3:0|0:0,0:0:0:0:
287,237,40601,1,0,3:0:0:0:
348,303,40773,2,0,P|395:289|441:297,1,90,0|0,0:0|1:0,0:0:0:0:
460,313,41116,6,0,L|460:192,1,120,0|0,3:0|0:0,0:0:0:0:
287,237,41801,1,8,0:0:0:0:
507,81,42316,6,0,P|433:91|378:81,1,120,0|0,0:0|0:0,0:0:0:0:
309,40,42830,2,0,L|306:171,1,120,0|8,3:0|0:0,0:0:0:0:
220,186,43344,2,0,L|220:126,1,60,0|0,0:0|0:0,0:0:0:0:
135,284,43858,6,0,P|174:266|252:299,1,120,0|8,3:0|0:0,0:0:0:0:
311,349,44373,2,0,P|350:367|428:334,1,120,0|8,3:0|0:0,0:0:0:0:
471,269,44887,1,0,3:0:0:0:
375,116,45230,5,0,3:0:0:0:
239,234,45573,1,8,0:0:0:0:
183,163,45744,2,0,L|180:38,1,120,0|8,3:0|0:0,0:0:0:0:
90,29,46258,2,0,L|92:133,1,90,0|0,3:0|1:0,0:0:0:0:
69,158,46601,1,4,2:1:0:0:
369,152,57573,6,0,B|324:161|324:161|266:143,1,96,0|0,3:0|0:0,0:0:0:0:
194,106,58258,2,0,L|195:197,1,72,8|0,0:0|0:0,0:0:0:0:
211,196,58601,2,0,L|212:287,1,72,0|0,0:0|0:0,0:0:0:0:
226,286,58944,6,0,L|228:327,2,24,0|0|0,0:0|0:0|0:0,0:0:0:0:
313,324,59287,2,0,L|312:301,2,24,0|0|0,3:0|0:0|0:0,0:0:0:0:
399,339,59630,2,0,L|396:281,1,48,8|0,0:0|0:0,0:0:0:0:
430,219,59973,2,0,L|427:161,1,48,0|0,0:0|0:0,0:0:0:0:
467,96,60316,6,0,P|416:89|364:104,1,96,0|0,3:0|0:0,0:0:0:0:
294,154,61001,2,0,L|296:46,1,96,8|0,0:0|0:0,0:0:0:0:
208,17,61687,2,0,L|206:112,1,96,0|0,0:0|3:0,0:0:0:0:
156,203,62373,2,0,P|200:211|218:208,1,48,8|0,0:0|0:0,0:0:0:0:
280,162,62716,2,0,P|304:163|327:170,1,48,0|0,0:0|0:0,0:0:0:0:
395,217,63058,6,0,B|381:171|381:171|396:112,1,96,0|0,3:0|3:0,0:0:0:0:
461,75,63573,1,0,0:0:0:0:
380,40,63744,2,0,P|357:42|331:39,1,48,0|0,3:0|0:0,0:0:0:0:
255,79,64087,2,0,P|234:75|206:78,1,48,0|0,3:0|0:0,0:0:0:0:
133,37,64430,6,0,P|86:47|33:38,1,96,8|8,2:0|0:0,0:0:0:0:
36,136,64944,1,8,0:0:0:0:
102,205,65116,2,0,L|104:316,1,96,8|8,0:0|0:0,0:0:0:0:
256,192,65801,12,4,67858,0:0:0:0:
121,317,68544,6,0,B|121:272|121:272|134:241|134:241|120:207|120:207|121:145,1,155.999992858887,0|0,3:0|0:0,0:0:0:0:
79,84,69058,1,0,0:0:0:0:
172,93,69230,6,0,B|216:111|242:89|242:82|286:62|344:96,1,155.999992858887,8|0,0:0|0:0,0:0:0:0:
400,140,69744,5,0,0:0:0:0:
400,167,69830,1,0,0:0:0:0:
400,194,69916,1,0,3:0:0:0:
272,352,70258,2,0,L|276:257,1,77.9999964294435,0|0,0:0|0:0,0:0:0:0:
261,188,70601,6,0,B|220:197|191:235|189:273|189:273|156:254|133:259,1,155.999992858887,8|0,0:0|0:0,0:0:0:0:
77,308,71116,5,0,0:0:0:0:
77,333,71202,1,0,0:0:0:0:
77,357,71287,1,0,3:0:0:0:
139,177,71630,2,0,P|131:139|141:100,1,60,0|0,0:0|0:0,0:0:0:0:
212,37,71973,6,0,B|261:37|261:37|286:53|286:53|336:53,1,120,8|0,0:0|0:0,0:0:0:0:
410,17,72487,2,0,P|411:88|365:137,1,120,0|0,3:0|0:0,0:0:0:0:
297,153,73001,2,0,B|353:160|365:206|365:206|353:226|352:247,1,120,0|8,3:0|0:0,0:0:0:0:
439,263,73516,1,0,3:0:0:0:
312,309,73687,2,0,P|281:317|254:315,1,38.9999982147218,0|0,0:0|0:0,0:0:0:0:
242,316,73858,2,0,P|219:314|198:307,1,38.9999982147218,0|0,0:0|0:0,0:0:0:0:
176,288,74030,6,0,B|175:240|175:240|184:224|184:224|184:204|184:204|174:187|174:187|173:133,1,155.999992858887,0|0,3:0|0:0,0:0:0:0:
187,41,74544,1,0,0:0:0:0:
274,73,74716,6,0,B|324:49|324:49|435:89,1,155.999992858887,8|0,0:0|0:0,0:0:0:0:
500,117,75230,5,0,0:0:0:0:
497,139,75316,1,0,0:0:0:0:
494,161,75401,1,0,3:0:0:0:
94,237,76087,6,0,B|209:233|209:233|178:299,1,155.999992858887,8|0,0:0|0:0,0:0:0:0:
165,349,76601,5,0,0:0:0:0:
188,353,76687,1,0,0:0:0:0:
211,356,76773,1,0,3:0:0:0:
332,281,77116,2,0,P|348:245|351:208,1,77.9999964294435,0|0,0:0|0:0,0:0:0:0:
247,217,77458,6,0,L|248:83,1,120,8|0,3:2|0:0,0:0:0:0:
169,51,77973,2,0,B|221:14|221:14|300:17,1,120,0|0,3:0|0:0,0:0:0:0:
334,85,78487,2,0,B|356:107|392:109|415:94|415:94|417:141,1,120,0|8,3:0|0:0,0:0:0:0:
420,216,79001,2,0,L|422:288,2,60,0|0|0,3:0|0:0|0:0,0:0:0:0:
343,157,79516,6,0,B|387:138|428:142|457:176|457:176|435:218|396:221,1,180,0|0,3:0|0:0,0:0:0:0:
332,245,80201,6,0,B|286:237|267:202|267:202|240:162|180:164,1,155.999992858887,8|0,0:0|0:0,0:0:0:0:
193,250,80716,5,0,0:0:0:0:
192,273,80801,1,0,0:0:0:0:
191,297,80887,1,0,3:0:0:0:
29,342,81230,2,0,P|21:303|27:261,1,77.9999964294435,0|0,0:0|0:0,0:0:0:0:
89,191,81573,6,0,B|88:147|88:147|72:122|72:122|90:96|90:96|90:46,1,155.999992858887,8|0,0:0|0:0,0:0:0:0:
165,21,82087,5,0,0:0:0:0:
189,22,82173,1,0,0:0:0:0:
212,23,82258,1,0,3:0:0:0:
342,32,82601,2,0,P|324:90|331:108,1,77.9999964294435,0|0,0:0|0:0,0:0:0:0:
379,177,82944,6,0,B|393:214|380:242|380:242|361:278|381:314,1,120,8|0,0:0|0:0,0:0:0:0:
427,364,83458,2,0,B|368:348|368:348|289:360,1,120,0|0,3:0|0:0,0:0:0:0:
242,296,83973,2,0,B|226:375|226:375|181:337,1,120,0|8,3:0|0:0,0:0:0:0:
170,241,84487,1,0,3:0:0:0:
202,129,84658,2,0,P|172:113|149:111,1,38.9999982147218,0|0,0:0|0:0,0:0:0:0:
143,111,84830,2,0,P|109:118|90:131,1,38.9999982147218,0|0,0:0|0:0,0:0:0:0:
91,136,85001,6,0,P|102:81|12:144,1,272.999987503052,0|0,3:0|1:0,0:0:0:0:
27,155,85687,6,0,B|27:220|27:220|40:248|40:248|41:318,1,155.999992858887,8|0,0:0|0:0,0:0:0:0:
119,358,86201,5,0,0:0:0:0:
141,353,86287,1,0,0:0:0:0:
164,347,86373,1,0,3:0:0:0:
241,91,87058,6,0,B|230:131|261:163|261:163|231:196|246:256,1,155.999992858887,8|0,0:0|0:0,0:0:0:0:
264,311,87573,5,0,0:0:0:0:
237,317,87658,1,0,0:0:0:0:
210,323,87744,1,0,3:0:0:0:
168,203,88087,2,0,B|132:196|132:196|91:203,1,77.9999964294435,0|0,0:0|0:0,0:0:0:0:
36,270,88430,6,0,B|62:293|104:290|104:290|92:316|93:345,1,120,8|0,3:2|1:0,0:0:0:0:
180,367,88944,2,0,L|188:239,1,120,0|0,3:0|0:0,0:0:0:0:
253,185,89458,2,0,P|300:195|366:152,1,120,0|8,3:0|0:0,0:0:0:0:
388,74,89973,2,0,L|389:2,2,60,0|0|0,3:0|0:0|0:0,0:0:0:0:
360,161,90487,6,0,B|367:196|367:196|361:235,1,60,0|0,3:0|0:0,0:0:0:0:
279,332,91344,6,0,L|281:257,2,60,0|0|0,0:0|0:0|0:0,0:0:0:0:
197,298,91858,2,0,L|197:235,1,60,0|0,0:0|0:0,0:0:0:0:
355,151,92544,2,0,P|339:216|358:277,1,120,8|0,0:0|0:0,0:0:0:0:
445,342,93230,6,0,P|480:349|522:345,1,60,0|0,3:0|0:0,0:0:0:0:
351,266,93916,6,0,L|352:365,2,90,8|0|0,0:0|0:0|0:0,0:0:0:0:
413,207,94601,2,0,P|377:187|291:207,1,120,0|0,0:0|3:0,0:0:0:0:
157,306,95458,2,0,L|152:365,2,60,0|0|0,3:0|0:0|0:0,0:0:0:0:
219,243,95973,6,0,L|222:174,1,60,0|0,3:0|0:0,0:0:0:0:
461,170,96830,6,0,P|424:179|395:176,2,60,0|0|0,0:0|0:0|0:0,0:0:0:0:
508,89,97344,2,0,P|471:80|442:83,1,60,0|0,0:0|0:0,0:0:0:0:
282,149,98030,2,0,P|226:161|160:142,2,120,8|0|0,0:0|0:0|3:0,0:0:0:0:
490,64,99058,6,0,L|492:5,1,60,8|0,0:0|3:0,0:0:0:0:
477,185,99573,1,8,0:0:0:0:
381,112,99744,2,0,P|307:94|269:108,1,90,0|0,3:0|1:0,0:0:0:0:
273,120,100087,6,0,B|258:155|258:155|273:246,1,120,0|8,3:0|0:0,0:0:0:0:
391,265,100601,1,0,3:0:0:0:
391,265,101458,1,4,0:1:0:0:
