osu file format v14

[General]
AudioFilename: audio.mp3
AudioLeadIn: 0
PreviewTime: -1
Countdown: 1
SampleSet: Normal
StackLeniency: 0.7
Mode: 0
LetterboxInBreaks: 0
WidescreenStoryboard: 0

[Editor]
DistanceSpacing: 0.4
BeatDivisor: 3
GridSize: 4
TimelineZoom: 1

[Metadata]
Title:OG Purp
TitleUnicode:OG Purp
Artist:Tha Trickaz Creaky Jackals
ArtistUnicode:Tha Trickaz ✖ Creaky Jackals
Creator:klaw1
Version:Omae wa Mou Shindeiru
Source:
Tags:
BeatmapID:1425758
BeatmapSetID:673729

[Difficulty]
HPDrainRate:5
CircleSize:4.5
OverallDifficulty:5
ApproachRate:10
SliderMultiplier:1.4
SliderTickRate:1

[Events]
//Background and Video events
0,0,"Gods-of-Land-vs-Water-Epic-Wallpaper.jpeg",0,0
//Break Periods
2,27400,39550
2,78225,89175
//Storyboard Layer 0 (Background)
//Storyboard Layer 1 (Fail)
//Storyboard Layer 2 (Pass)
//Storyboard Layer 3 (Foreground)
//Storyboard Sound Samples

[TimingPoints]
0,400,4,1,0,100,1,0
4000,-200,4,1,0,100,0,1
4800,-100,4,1,0,100,0,1
7200,800,4,1,0,100,1,0
7200,-100,4,1,0,100,0,0
8000,400,4,1,0,100,1,0
10400,-50,4,1,0,100,0,0
10500,-200,4,1,0,100,0,0
14000,-100,4,1,0,100,0,0
14100,-133.333333333333,4,1,0,100,0,0
14200,-133.333333333333,4,1,0,100,0,0
14300,-100,4,1,0,100,0,0
48000,-50,4,1,0,100,0,0
63200,2000,4,1,0,100,1,0
63200,-200,4,1,0,100,0,0
63325,400,4,1,0,100,1,0
63325,-66.6666666666667,4,1,0,100,0,0
91458,200,4,1,0,100,1,0
91458,-66.6666666666667,4,1,0,100,0,0

[HitObjects]
131,157,2000,5,0,0:0:0:0:
193,228,2200,2,0,P|278:258|324:225,1,140
289,162,2800,1,0,0:0:0:0:
135,98,3200,1,0,0:0:0:0:
169,218,3600,2,0,B|214:199|212:152|211:152,1,70
176,88,4000,2,0,B|168:108|168:108|168:116|168:116|164:116|164:116|164:120|164:120|168:120|168:120|168:124|168:124|164:124|164:124|160:124|160:124|160:128|160:128|164:128|164:128|164:132|164:132|160:132|160:132|156:132|156:132|156:136|156:136|160:136|160:136|160:140|160:140|156:140|156:140|152:140|152:140|152:144|152:144|156:144|156:144|156:148|156:148|152:148|152:148|148:148|148:148|148:152|148:152|152:152|152:152|152:156|152:156|148:156|148:156|144:156|144:156|144:160|144:160|148:160|148:160|148:164|148:164,1,140
232,200,5200,5,0,0:0:0:0:
288,160,5400,2,0,B|300:132|292:116|272:112|256:120,1,70
136,79,5800,2,0,P|88:74|75:102,1,70
108,172,6400,1,0,0:0:0:0:
236,248,6600,1,0,0:0:0:0:
236,248,6700,1,0,0:0:0:0:
236,248,6800,1,0,0:0:0:0:
308,192,7000,1,0,0:0:0:0:
288,112,7200,2,0,P|248:128|232:160,2,70
296,232,8400,6,0,L|372:192,1,70
344,128,8800,1,0,0:0:0:0:
280,88,9000,1,0,0:0:0:0:
220,152,9200,2,0,P|248:216|304:200,1,140
296,88,10000,1,0,0:0:0:0:
188,76,10400,1,0,0:0:0:0:
112,52,10800,5,0,0:0:0:0:
140,120,11200,2,0,L|184:180,1,70
248,188,12000,1,0,0:0:0:0:
356,136,12400,2,0,L|352:176,1,35
160,144,13200,2,0,L|204:200,1,70
84,104,14000,2,0,P|64:88|96:76,1,70
384,112,14800,5,0,0:0:0:0:
304,156,15000,1,0,0:0:0:0:
304,156,15100,1,0,0:0:0:0:
304,156,15200,1,0,0:0:0:0:
208,104,15400,1,0,0:0:0:0:
208,104,15500,1,0,0:0:0:0:
200,100,15600,2,0,P|136:76|132:132,1,140
180,184,16400,5,0,0:0:0:0:
296,212,16600,1,0,0:0:0:0:
300,212,16700,1,0,0:0:0:0:
300,212,16800,1,0,0:0:0:0:
360,116,17200,5,0,0:0:0:0:
112,140,17600,1,0,0:0:0:0:
296,168,18000,5,0,0:0:0:0:
392,112,18200,1,0,0:0:0:0:
392,112,18300,1,0,0:0:0:0:
392,112,18400,1,0,0:0:0:0:
292,72,18600,1,0,0:0:0:0:
292,72,18700,1,0,0:0:0:0:
292,72,18800,1,0,0:0:0:0:
132,104,19200,1,0,0:0:0:0:
248,168,19400,1,0,0:0:0:0:
248,168,19500,1,0,0:0:0:0:
248,168,19600,1,0,0:0:0:0:
352,176,19800,1,0,0:0:0:0:
352,176,19900,1,0,0:0:0:0:
352,176,20000,2,0,P|408:232|352:268,1,140
256,192,20800,12,0,27200,0:0:0:0:
104,172,40000,5,0,0:0:0:0:
176,128,40400,2,0,P|224:96|252:92,1,70
352,144,41200,2,0,P|352:184|328:184,1,70
168,248,42000,2,0,P|112:248|112:220,1,70
112,176,42800,2,0,P|112:128|156:128,1,70
348,96,43600,2,0,L|284:164,1,70
156,156,44400,2,0,L|224:208,1,70
96,92,45200,2,0,L|48:156,1,70
200,208,46000,2,0,L|284:208,1,70
120,124,46400,5,0,0:0:0:0:
156,32,46500,2,0,L|200:64,1,52.5
264,132,46800,1,0,0:0:0:0:
308,192,46900,2,0,B|280:200|272:196|248:184,1,52.5
208,244,47200,1,0,0:0:0:0:
136,204,47300,2,0,L|184:168,1,52.5
152,88,47600,1,0,0:0:0:0:
200,32,47700,2,0,L|264:36,1,52.5
328,48,48000,6,0,L|252:84,1,70
168,124,48200,2,0,L|248:152,1,70
352,200,48400,2,0,L|260:232,1,70
160,268,48600,2,0,L|244:312,1,70
296,288,48800,2,0,L|360:240,1,70
168,200,49000,2,0,L|116:148,1,70
352,124,49200,2,0,L|408:80,1,70
184,104,49400,2,0,L|128:48,1,70
40,96,49600,2,0,L|104:160,1,70
448,160,49800,2,0,L|384:216,1,70
72,260,50000,2,0,L|144:300,1,70
436,320,50200,2,0,L|348:344,1,70
208,316,50400,2,0,L|276:264,1,70
312,328,50600,2,0,L|236:240,1,70
176,236,50800,2,0,L|248:208,1,70
300,228,51000,2,0,L|236:172,1,70
256,192,51200,12,0,52400,0:0:0:0:
182,196,52800,6,0,P|114:115|213:148,1,280
328,209,53400,1,0,0:0:0:0:
218,193,53600,1,0,0:0:0:0:
65,195,53800,2,0,P|117:79|179:71,1,140
347,73,54400,1,0,0:0:0:0:
152,260,54600,2,0,P|88:200|116:152,1,140
73,56,55000,2,0,P|192:35|234:81,1,140
296,168,55600,6,0,P|268:248|236:236,1,140
100,199,56000,2,0,P|89:127|168:96,1,140
265,137,56400,1,0,0:0:0:0:
222,260,56600,2,0,L|102:189,1,140
91,71,57000,1,0,0:0:0:0:
101,66,57100,1,0,0:0:0:0:
187,68,57300,1,0,0:0:0:0:
192,73,57400,1,0,0:0:0:0:
99,167,57600,6,0,P|127:246|196:227,1,140
230,188,58000,1,0,0:0:0:0:
277,70,58400,1,0,0:0:0:0:
396,149,58800,1,0,0:0:0:0:
275,221,59000,1,0,0:0:0:0:
112,208,59200,6,0,B|72:100|128:56|272:168,1,280
168,264,59800,1,0,0:0:0:0:
236,256,60000,2,0,P|284:180|232:160,1,140
164,152,60400,1,0,0:0:0:0:
156,248,60800,2,0,L|224:220,1,70
208,156,61000,2,0,L|140:124,1,70
140,56,61200,2,0,L|216:56,1,70
276,112,61400,2,0,L|208:152,1,70
208,224,61600,1,0,0:0:0:0:
176,244,62400,5,0,0:0:0:0:
376,128,62600,1,0,0:0:0:0:
168,108,62800,1,0,0:0:0:0:
344,240,63000,1,0,0:0:0:0:
276,112,63200,2,0,L|276:120,1,8.75
164,176,63625,5,0,0:0:0:0:
252,264,63825,1,0,0:0:0:0:
144,284,64025,1,0,0:0:0:0:
80,164,64225,1,0,0:0:0:0:
152,136,64425,1,0,0:0:0:0:
232,264,64625,1,0,0:0:0:0:
232,264,64725,1,0,0:0:0:0:
232,264,64825,1,0,0:0:0:0:
279,181,65225,1,0,0:0:0:0:
140,116,66025,6,0,L|200:128,1,52.5000020027161
288,140,66225,2,0,L|256:184,1,52.5000020027161
192,244,66425,2,0,L|244:248,1,52.5000020027161
356,60,66625,2,0,L|304:60,1,52.5000020027161
112,224,66825,1,0,0:0:0:0:
136,80,67225,2,0,L|240:136,1,105.000004005432
272,232,67625,2,0,L|148:280,1,105.000004005432
208,120,68025,1,0,0:0:0:0:
376,116,68425,5,0,0:0:0:0:
376,116,68625,1,0,0:0:0:0:
224,96,68825,1,0,0:0:0:0:
88,144,69225,1,0,0:0:0:0:
152,176,69425,1,0,0:0:0:0:
240,168,69625,1,0,0:0:0:0:
300,132,69825,1,0,0:0:0:0:
300,132,69925,1,0,0:0:0:0:
204,80,70125,1,0,0:0:0:0:
204,80,70225,1,0,0:0:0:0:
72,112,70425,1,0,0:0:0:0:
140,208,70625,1,0,0:0:0:0:
152,204,70725,1,0,0:0:0:0:
260,204,70925,1,0,0:0:0:0:
260,204,71025,1,0,0:0:0:0:
272,56,71225,1,0,0:0:0:0:
336,120,72025,5,0,0:0:0:0:
72,56,72425,2,0,L|120:92,1,52.5000020027161
316,276,72625,2,0,L|356:224,1,52.5000020027161
336,64,72825,2,0,L|280:80,1,52.5000020027161
108,144,73025,2,0,L|176:180,1,52.5000020027161
280,116,73225,1,0,0:0:0:0:
152,44,73625,5,0,0:0:0:0:
248,168,73825,1,0,0:0:0:0:
256,276,74025,2,0,P|176:292|160:264,1,105.000004005432
152,68,75225,5,0,0:0:0:0:
184,180,75425,1,0,0:0:0:0:
316,156,75625,1,0,0:0:0:0:
224,72,75825,1,0,0:0:0:0:
108,152,76025,1,0,0:0:0:0:
76,184,76425,5,0,0:0:0:0:
224,220,76625,1,0,0:0:0:0:
364,172,76825,2,0,P|352:104|300:108,1,105.000004005432
172,108,77225,1,0,0:0:0:0:
184,240,77425,1,0,0:0:0:0:
184,240,77525,1,0,0:0:0:0:
184,240,77625,1,0,0:0:0:0:
256,240,78025,1,0,0:0:0:0:
256,192,89625,12,0,90825,0:0:0:0:
24,240,91225,6,0,L|96:216,1,52.5000020027161
164,84,91591,2,0,L|272:84,1,70.0000026702882
292,160,91724,2,0,L|248:220,1,70.0000026702882
116,172,91858,1,0,0:0:0:0:
252,96,91991,1,0,0:0:0:0:
88,60,92124,1,0,0:0:0:0:
168,204,92258,2,0,L|252:224,1,70.0000026702882
288,168,92391,1,0,0:0:0:0:
224,60,92524,2,0,L|156:100,1,140.000005340576
196,240,92791,1,0,0:0:0:0:
288,232,92924,2,0,L|316:168,1,70.0000026702882
260,88,93058,1,0,0:0:0:0:
128,88,93191,1,0,0:0:0:0:
192,208,93324,1,0,0:0:0:0:
328,160,93458,1,0,0:0:0:0:
96,156,93558,1,0,0:0:0:0:
200,124,94408,5,0,0:0:0:0:
340,104,94791,1,0,0:0:0:0:
212,252,94924,1,0,0:0:0:0:
116,56,95058,1,0,0:0:0:0:
352,152,95191,2,0,L|304:220,1,70.0000026702882
104,308,95324,2,0,L|76:228,1,70.0000026702882
80,112,95458,1,0,0:0:0:0:
348,68,95591,1,0,0:0:0:0:
196,272,95724,1,0,0:0:0:0:
216,68,95858,1,0,0:0:0:0:
404,172,95991,2,0,L|340:240,1,70.0000026702882
136,232,96124,2,0,L|180:136,1,70.0000026702882
412,80,96258,1,0,0:0:0:0:
236,320,96391,1,0,0:0:0:0:
132,64,96524,1,0,0:0:0:0:
228,48,96658,2,0,L|300:88,1,70.0000026702882
380,104,97608,5,0,0:0:0:0:
92,48,97991,1,0,0:0:0:0:
392,304,98124,1,0,0:0:0:0:
376,36,98258,1,0,0:0:0:0:
88,280,98391,1,0,0:0:0:0:
396,168,98524,2,0,L|356:96,1,70.0000026702882
216,32,98658,2,0,L|140:112,1,70.0000026702882
168,292,98791,1,0,0:0:0:0:
464,104,98924,1,0,0:0:0:0:
104,68,99058,1,0,0:0:0:0:
360,272,99191,1,0,0:0:0:0:
239,36,99324,1,0,0:0:0:0:
164,284,99458,2,0,L|260:208,1,70.0000026702882
452,104,99591,2,0,L|340:120,1,70.0000026702882
96,168,99724,1,0,0:0:0:0:
396,272,99858,1,0,0:0:0:0:
312,52,99991,1,0,0:0:0:0:
188,124,104008,5,0,0:0:0:0:
232,216,104391,1,0,0:0:0:0:
344,156,104524,1,0,0:0:0:0:
232,100,104658,1,0,0:0:0:0:
172,220,104791,1,0,0:0:0:0:
352,200,104924,2,0,L|304:124,1,70.0000026702882
220,96,105058,2,0,L|148:120,1,70.0000026702882
340,328,105191,1,0,0:0:0:0:
376,204,105324,1,0,0:0:0:0:
324,72,105458,1,0,0:0:0:0:
164,108,105591,1,0,0:0:0:0:
224,232,105724,2,0,L|324:228,1,70.0000026702882
356,144,105858,2,0,L|272:120,1,70.0000026702882
208,144,105991,1,0,0:0:0:0:
268,188,106124,1,0,0:0:0:0:
264,124,106258,1,0,0:0:0:0:
152,212,107591,5,0,0:0:0:0:
240,88,107724,1,0,0:0:0:0:
248,252,107858,1,0,0:0:0:0:
340,112,107991,1,0,0:0:0:0:
148,224,108124,1,0,0:0:0:0:
412,240,108258,1,0,0:0:0:0:
152,92,108391,1,0,0:0:0:0:
388,344,108524,1,0,0:0:0:0:
256,32,108658,1,0,0:0:0:0:
248,332,108791,1,0,0:0:0:0:
376,48,108924,1,0,0:0:0:0:
156,272,109058,1,0,0:0:0:0:
452,116,109191,1,0,0:0:0:0:
92,160,109324,1,0,0:0:0:0:
456,192,109458,1,0,0:0:0:0:
108,84,109591,1,0,0:0:0:0:
152,108,110408,6,0,L|296:268,1,210.000008010865
260,40,110791,1,0,0:0:0:0:
132,264,110924,1,0,0:0:0:0:
440,152,111058,1,0,0:0:0:0:
96,76,111191,1,0,0:0:0:0:
404,296,111324,1,0,0:0:0:0:
240,40,111458,2,0,L|320:80,1,70.0000026702882
352,264,111591,2,0,L|256:280,1,70.0000026702882
372,52,111724,1,0,0:0:0:0:
132,264,111858,1,0,0:0:0:0:
432,164,111991,1,0,0:0:0:0:
124,88,112124,1,0,0:0:0:0:
412,112,112258,2,0,L|352:168,1,70.0000026702882
112,284,112391,2,0,L|144:200,1,70.0000026702882
376,256,112524,1,0,0:0:0:0:
152,40,112658,1,0,0:0:0:0:
304,173,112791,1,0,0:0:0:0:
113,69,113591,5,0,0:0:0:0:
118,77,113791,1,0,0:0:0:0:
176,117,113991,5,0,0:0:0:0:
183,117,114191,1,0,0:0:0:0:
261,119,114391,1,0,0:0:0:0:
386,64,114791,1,0,0:0:0:0:
388,70,114991,1,0,0:0:0:0:
388,182,115191,1,0,0:0:0:0:
388,182,115391,1,0,0:0:0:0:
237,172,115591,1,0,0:0:0:0:
278,67,115791,1,0,0:0:0:0:
278,67,115991,1,0,0:0:0:0:
