osu file format v14

[General]
AudioFilename: audio.mp3
AudioLeadIn: 0
PreviewTime: 144112
Countdown: 1
SampleSet: Drum
StackLeniency: 0.5
Mode: 0
LetterboxInBreaks: 0
WidescreenStoryboard: 0

[Editor]
Bookmarks: 28912,86512,105712,124912,182512,201712,220912,240112
DistanceSpacing: 1
BeatDivisor: 4
GridSize: 4
TimelineZoom: 2.3

[Metadata]
Title:Weed & Cocaine
TitleUnicode:Weed & Cocaine
Artist:Tha KroniK
ArtistUnicode:Tha KroniK
Creator:PrivatHansi1
Version:(Frenchcore)
Source:
Tags:
BeatmapID:1815102
BeatmapSetID:868379

[Difficulty]
HPDrainRate:6
CircleSize:4.2
OverallDifficulty:7.5
ApproachRate:9.9
SliderMultiplier:1.4
SliderTickRate:3

[Events]
//Background and Video events
0,0,"uD9XwK.jpg",0,0
//Break Periods
//Storyboard Layer 0 (Background)
//Storyboard Layer 1 (Fail)
//Storyboard Layer 2 (Pass)
//Storyboard Layer 3 (Foreground)
//Storyboard Layer 4 (Overlay)
//Storyboard Sound Samples

[TimingPoints]
112,300,4,3,0,70,1,0
2512,-100,4,3,0,35,0,0
4912,-100,4,3,0,70,0,0
8812,-133.333333333333,4,3,0,70,0,0
9112,-66.6666666666667,4,3,0,70,0,0
9412,-100,4,3,0,70,0,0
13912,-66.6666666666667,4,3,0,70,0,0
14512,-100,4,3,0,70,0,0
18712,-66.6666666666667,4,3,0,70,0,0
19312,-100,4,3,0,70,0,0
23512,-66.6666666666667,4,3,0,70,0,0
24112,-100,4,3,0,70,0,0
28912,-66.6666666666667,4,3,0,70,0,0
97012,-50,4,3,0,70,0,0
97312,-66.6666666666667,4,3,0,70,0,0
100312,-50,4,3,0,70,0,0
100912,-66.6666666666667,4,3,0,70,0,0
124912,-50,4,3,0,75,0,1
163312,-66.6666666666667,4,3,0,70,0,0
183262,-133.333333333333,4,3,0,70,0,0
183412,-66.6666666666667,4,3,0,70,0,0
184462,-133.333333333333,4,3,0,70,0,0
184612,-66.6666666666667,4,3,0,70,0,0

[Colours]
Combo1 : 153,255,62
Combo2 : 255,138,197
Combo3 : 0,128,192
Combo4 : 192,192,192
Combo5 : 255,208,66

[HitObjects]
256,192,2512,12,0,4762,0:0:0:0:
458,240,4912,6,0,P|438:288|392:312,1,105,2|0,0:0|0:0,0:0:0:0:
276,263,5212,2,0,L|376:232,1,105
232,328,5512,2,0,P|200:284|200:236,1,105
272,184,5812,1,0,0:0:0:0:
68,321,5962,1,0,0:0:0:0:
50,112,6112,2,0,B|96:60|96:60|88:24,1,105,2|0,0:0|0:0,0:0:0:0:
168,28,6412,2,0,B|180:80|180:80|228:100,1,105
188,168,6712,2,0,P|128:200|112:240,1,105
196,252,7012,5,0,0:0:0:0:
208,276,7087,2,0,L|256:288,2,35,0|0|0,0:0|0:0|0:0,0:0:0:0:
148,328,7312,2,0,L|80:368,1,70,2|0,0:0|0:0,0:0:0:0:
324,244,7612,2,0,L|472:260,2,140
340,140,8362,1,0,0:0:0:0:
168,260,8512,1,2,0:0:0:0:
152,156,8662,1,0,0:0:0:0:
152,156,8812,2,0,P|184:120|192:88,1,78.7500030040742,0|0,0:0|0:0,0:0:0:0:
55,216,9112,6,0,P|58:139|112:84,1,157.500006008148,0|0,0:0|0:0,0:0:0:0:
140,332,9412,2,0,P|136:298|116:268,1,70
60,328,9637,1,0,0:0:0:0:
320,306,9712,2,0,B|251:319|251:319|216:312,1,105,2|0,0:0|0:0,0:0:0:0:
143,136,10012,2,0,B|163:107|163:107|222:67,1,105
300,76,10312,1,0,0:0:0:0:
448,225,10462,1,0,0:0:0:0:
246,279,10612,1,0,0:0:0:0:
246,279,10762,1,0,0:0:0:0:
444,348,10912,6,0,L|324:364,1,105,2|0,0:0|0:0,0:0:0:0:
348,284,11212,2,0,P|240:256|208:276,1,140,0|0,0:0|0:0,0:0:0:0:
195,287,11662,1,0,0:0:0:0:
272,360,11812,1,0,0:0:0:0:
139,182,11962,2,0,L|100:240,1,70,0|2,0:0|0:0,0:0:0:0:
246,68,12262,6,0,P|192:110|124:100,1,140,0|0,0:0|0:0,0:0:0:0:
168,24,12712,1,0,0:0:0:0:
368,84,12862,1,0,0:0:0:0:
162,121,13012,1,0,0:0:0:0:
405,291,13162,1,0,0:0:0:0:
198,328,13312,2,0,P|148:268|260:196,1,245,2|0,0:0|0:0,0:0:0:0:
220,260,13912,6,0,P|320:232|328:176,1,157.500006008148,0|0,0:0|0:0,0:0:0:0:
500,28,14212,2,0,B|512:140|512:140|480:184,1,157.500006008148,0|0,0:0|0:0,0:0:0:0:
432,120,14512,6,0,B|424:52|424:52|384:32,1,105,2|0,0:0|0:0,0:0:0:0:
320,4,14812,1,0,0:0:0:0:
321,344,14962,1,0,0:0:0:0:
121,69,15112,1,0,0:0:0:0:
444,174,15262,1,0,0:0:0:0:
121,279,15412,1,0,0:0:0:0:
320,4,15562,1,0,0:0:0:0:
351,22,15712,2,0,P|380:124|368:152,1,140,2|0,0:0|0:0,0:0:0:0:
280,208,16162,2,0,L|412:256,1,140,0|0,0:0|0:0,0:0:0:0:
212,316,16612,5,0,0:0:0:0:
111,342,16762,1,0,0:0:0:0:
9,368,16912,2,0,B|30:316|30:316|24:300,2,70,2|0|0,0:0|0:0|0:0,0:0:0:0:
60,164,17362,2,0,P|128:192|160:256,1,140
140,324,17812,1,0,0:0:0:0:
368,108,17962,2,0,P|312:248|340:296,1,210
432,332,18562,1,0,0:0:0:0:
224,320,18712,2,0,P|112:344|76:328,1,157.500006008148,2|0,0:0|0:0,0:0:0:0:
120,13,19012,2,0,P|100:88|128:160,1,157.500006008148,2|0,0:0|0:0,0:0:0:0:
184,104,19312,6,0,P|184:60|200:40,2,70,2|0|0,0:0|0:0|0:0,0:0:0:0:
272,48,19762,2,0,P|300:108|280:180,1,140,0|0,0:0|0:0,0:0:0:0:
88,256,20212,1,0,0:0:0:0:
168,321,20362,1,0,0:0:0:0:
270,314,20512,2,0,P|324:268|392:280,1,140,2|0,0:0|0:0,0:0:0:0:
344,352,20962,1,0,0:0:0:0:
344,352,21112,2,0,L|384:184,1,140,0|0,0:0|0:0,0:0:0:0:
192,116,21712,2,0,P|292:120|320:144,1,140,2|0,0:0|0:0,0:0:0:0:
236,216,22162,5,0,0:0:0:0:
178,281,22312,1,0,0:0:0:0:
119,346,22462,1,0,0:0:0:0:
119,346,22612,2,0,B|124:256|124:256|112:240,1,105,0|0,0:0|0:0,0:0:0:0:
64,184,22912,2,0,P|40:236|52:284,1,105,2|0,0:0|0:0,0:0:0:0:
507,279,23212,2,0,P|465:250|448:200,1,105,0|0,0:0|0:0,0:0:0:0:
2,146,23512,6,0,P|73:179|110:247,1,157.500006008148,0|0,0:0|0:0,0:0:0:0:
453,161,23812,2,0,P|475:81|446:15,1,157.500006008148,0|0,0:0|0:0,0:0:0:0:
364,116,24112,6,0,P|331:171|328:224,1,105,2|0,0:0|0:0,0:0:0:0:
100,78,24412,1,0,0:0:0:0:
100,78,24562,1,0,0:0:0:0:
100,78,24712,2,0,P|40:128|36:164,1,105
116,160,25012,2,0,P|144:204|140:256,1,105
300,336,25312,2,0,L|276:271,2,70,2|0|0,0:0|0:0|0:0,0:0:0:0:
336,216,25762,2,0,P|260:184|212:212,1,140
176,308,26212,2,4,L|180:168,1,140,0|8,0:0|0:0,0:0:0:0:
256,192,26662,12,0,28762,0:0:0:0:
372,32,28912,5,8,0:0:0:0:
400,188,29062,1,0,0:0:0:0:
245,215,29212,1,0,0:0:0:0:
217,60,29362,1,0,0:0:0:0:
308,124,29512,1,0,0:0:0:0:
290,363,29662,1,0,0:0:0:0:
55,341,29812,1,0,0:0:0:0:
75,107,29962,2,0,P|104:156|96:204,2,105.000004005432,0|8|0,0:0|0:0|0:0,0:0:0:0:
24,168,30412,6,0,L|128:228,1,105.000004005432
388,64,30712,1,0,0:0:0:0:
432,216,30862,1,0,0:0:0:0:
152,360,31012,1,0,0:0:0:0:
196,208,31162,2,0,B|185:158|185:158|200:104,2,105.000004005432,0|8|0,0:0|0:0|0:0,0:0:0:0:
348,248,31612,1,0,0:0:0:0:
392,220,31687,1,0,0:0:0:0:
415,174,31762,5,0,0:0:0:0:
410,122,31837,1,0,0:0:0:0:
380,80,31912,2,0,L|328:72,3,52.5000020027161
200,164,32212,1,0,0:0:0:0:
217,185,32287,1,0,0:0:0:0:
224,210,32362,2,0,P|188:280|192:304,1,105.000004005432,0|8,0:0|0:0,0:0:0:0:
450,245,32662,1,0,0:0:0:0:
415,284,32737,1,0,0:0:0:0:
366,304,32812,1,0,0:0:0:0:
314,301,32887,1,0,0:0:0:0:
268,276,32962,2,0,L|252:220,1,52.5000020027161
180,196,33112,6,0,B|161:281|161:281|144:300,1,105.000004005432,8|0,0:0|0:0,0:0:0:0:
124,144,33412,2,0,B|176:160|216:140|216:140|232:148,1,105.000004005432,8|8,0:0|0:0,0:0:0:0:
168,48,33712,1,8,0:0:0:0:
308,352,33862,1,0,0:0:0:0:
344,336,34012,2,0,P|388:276|392:248,1,105.000004005432
201,56,34312,2,0,P|151:69|112:105,1,105.000004005432
140,248,34612,1,0,0:0:0:0:
244,144,34762,2,0,L|136:120,1,105.000004005432,0|8,0:0|0:0,0:0:0:0:
388,162,35062,5,0,0:0:0:0:
388,162,35212,2,0,L|299:218,1,105.000004005432
396,328,35512,2,0,P|344:328|296:304,1,105.000004005432
152,332,35812,2,0,B|152:316|160:304|160:304|156:280,2,52.5000020027161
127,338,36037,1,0,0:0:0:0:
100,344,36112,2,0,L|220:368,1,105.000004005432,8|0,0:0|0:0,0:0:0:0:
474,195,36412,2,0,L|416:108,1,105.000004005432
420,256,36712,1,0,0:0:0:0:
420,256,36862,1,0,0:0:0:0:
144,160,37012,5,0,0:0:0:0:
264,300,37162,1,0,0:0:0:0:
264,300,37312,2,0,P|200:320|160:312,1,105.000004005432
248,84,37612,2,0,P|313:64|352:73,1,105.000004005432,8|0,0:0|0:0,0:0:0:0:
339,263,37912,2,0,P|307:323|273:345,1,105.000004005432,8|0,0:0|0:0,0:0:0:0:
424,368,38212,1,0,0:0:0:0:
140,296,38362,1,0,0:0:0:0:
126,274,38437,1,0,0:0:0:0:
112,252,38512,2,0,P|124:176|144:156,1,105.000004005432,8|0,0:0|0:0,0:0:0:0:
436,160,38812,6,0,L|324:144,1,105.000004005432
208,228,39112,2,0,L|320:244,1,105.000004005432
408,356,39412,1,0,0:0:0:0:
416,331,39487,1,0,0:0:0:0:
416,304,39562,2,0,B|412:280|412:280|376:248|376:208,1,105.000004005432,0|8,0:0|0:0,0:0:0:0:
496,178,39862,2,0,B|515:146|500:100|500:100|509:77,2,105.000004005432
403,36,40312,2,0,B|376:32|348:60|348:60|340:40|318:30,1,105.000004005432
240,36,40612,1,0,0:0:0:0:
204,49,40687,1,0,0:0:0:0:
175,76,40762,5,0,0:0:0:0:
159,112,40837,1,0,0:0:0:0:
159,151,40912,2,0,L|227:231,1,105.000004005432,8|0,0:0|0:0,0:0:0:0:
488,364,41212,1,0,0:0:0:0:
192,88,41362,2,0,P|132:84|96:116,2,105.000004005432
52,324,41812,1,0,0:0:0:0:
494,243,41962,2,0,B|488:196|512:160|512:160|496:168,2,105.000004005432,0|8|0,0:0|0:0|0:0,0:0:0:0:
508,344,42412,1,0,0:0:0:0:
19,366,42562,1,0,0:0:0:0:
404,224,42712,6,0,L|272:200,1,105.000004005432
344,76,43012,1,0,0:0:0:0:
344,76,43162,2,0,L|212:100,1,105.000004005432,0|8,0:0|0:0,0:0:0:0:
140,192,43462,2,0,B|116:208|116:208|92:212,2,52.5000020027161
276,196,43762,2,0,B|256:260|256:260|264:304,1,105.000004005432
440,88,44062,2,0,L|336:72,1,105.000004005432
380,204,44362,1,0,0:0:0:0:
380,204,44512,6,0,L|280:248,1,105.000004005432,8|0,0:0|0:0,0:0:0:0:
184,340,44812,1,0,0:0:0:0:
191,315,44887,1,0,0:0:0:0:
190,289,44962,1,0,0:0:0:0:
180,265,45037,1,0,0:0:0:0:
164,244,45112,2,0,B|100:220|100:220|64:228,1,105.000004005432
90,137,45412,1,0,0:0:0:0:
90,137,45487,1,0,0:0:0:0:
90,137,45562,2,0,P|122:97|127:45,1,105.000004005432,0|12,0:0|0:0,0:0:0:0:
256,192,45862,12,0,47962,0:0:0:0:
440,296,48112,6,0,P|368:324|356:344,1,105.000004005432,0|0,0:0|0:0,0:0:0:0:
53,249,48412,2,0,P|84:178|78:156,1,105.000004005432
429,371,48712,1,0,0:0:0:0:
8,188,48862,1,0,0:0:0:0:
396,60,49012,1,0,0:0:0:0:
396,60,49162,1,0,0:0:0:0:
396,60,49237,1,0,0:0:0:0:
396,60,49312,2,0,P|416:136|408:164,1,105.000004005432,0|0,0:0|0:0,0:0:0:0:
488,272,49612,5,0,0:0:0:0:
253,252,49762,2,0,L|356:232,1,105.000004005432,0|0,0:0|0:0,0:0:0:0:
368,328,50062,1,0,0:0:0:0:
256,166,50212,1,0,0:0:0:0:
98,256,50362,1,0,0:0:0:0:
140,108,50512,2,0,P|208:88|256:112,1,105.000004005432,0|0,0:0|0:0,0:0:0:0:
192,268,50812,2,0,P|208:243|196:168,1,105.000004005432
291,263,51112,2,0,L|140:216,1,157.500006008148,0|0,0:0|0:0,0:0:0:0:
320,332,51412,5,0,0:0:0:0:
451,274,51562,1,0,0:0:0:0:
324,324,51712,1,0,0:0:0:0:
346,189,51862,1,0,0:0:0:0:
452,113,52012,1,0,0:0:0:0:
318,127,52162,1,0,0:0:0:0:
398,238,52312,1,0,0:0:0:0:
398,238,52387,1,0,0:0:0:0:
398,238,52462,2,0,P|428:280|437:331,1,105.000004005432,0|0,0:0|0:0,0:0:0:0:
398,238,52762,5,0,0:0:0:0:
31,222,52912,2,0,P|73:252|176:168,1,210.000008010865,0|0,0:0|0:0,0:0:0:0:
492,300,53362,1,0,0:0:0:0:
96,175,53512,2,0,L|88:124,2,52.5000020027161,0|0|0,0:0|0:0|0:0,0:0:0:0:
40,300,53812,1,0,0:0:0:0:
312,328,53962,1,0,0:0:0:0:
260,204,54112,1,0,0:0:0:0:
260,204,54187,1,0,0:0:0:0:
260,204,54262,2,0,B|272:168|268:132|268:132|288:104,1,105.000004005432
420,68,54562,5,0,0:0:0:0:
216,40,54712,2,0,B|190:59|190:59|118:67,2,105.000004005432,0|0|0,0:0|0:0|0:0,0:0:0:0:
488,72,55162,1,0,0:0:0:0:
220,200,55312,2,0,L|324:192,1,105.000004005432,0|0,0:0|0:0,0:0:0:0:
88,244,55612,2,0,P|68:320|76:352,1,105.000004005432
484,356,55912,2,0,B|436:340|396:344|396:344|416:276|360:236,1,210.000008010865,0|0,0:0|0:0,0:0:0:0:
362,237,56287,1,0,0:0:0:0:
362,237,56362,1,0,0:0:0:0:
305,313,56512,2,0,P|237:276|221:202,1,157.500006008148
309,220,56812,5,0,0:0:0:0:
364,96,56962,1,0,0:0:0:0:
469,273,57112,2,0,P|461:324|424:359,1,105.000004005432
240,60,57412,1,0,0:0:0:0:
388,287,57562,1,0,0:0:0:0:
204,332,57712,1,0,0:0:0:0:
308,244,57862,2,0,L|196:224,1,105.000004005432
92,148,58162,1,0,0:0:0:0:
92,148,58312,2,0,L|196:136,1,105.000004005432,0|0,0:0|0:0,0:0:0:0:
452,44,58612,5,0,0:0:0:0:
406,67,58687,1,0,0:0:0:0:
377,111,58762,1,0,0:0:0:0:
374,162,58837,1,0,0:0:0:0:
398,209,58912,1,0,0:0:0:0:
336,328,59062,1,0,0:0:0:0:
176,56,59212,1,0,0:0:0:0:
336,328,59362,1,0,0:0:0:0:
167,155,59512,2,0,P|157:104|176:56,1,105.000004005432
280,132,59737,6,0,L|232:112,2,52.5000020027161
464,44,59962,1,0,0:0:0:0:
388,156,60112,2,0,B|328:200|328:200|316:228,1,105.000004005432
228,276,60412,2,0,B|240:203|240:203|228:175,1,105.000004005432
96,132,60712,1,0,0:0:0:0:
272,24,60862,1,0,0:0:0:0:
272,24,60937,1,0,0:0:0:0:
272,24,61012,1,0,0:0:0:0:
272,24,61087,1,0,0:0:0:0:
272,24,61162,2,0,B|256:56|256:56|252:80,2,52.5000020027161
328,148,61462,1,0,0:0:0:0:
392,124,61612,1,0,0:0:0:0:
380,147,61687,1,0,0:0:0:0:
374,173,61762,5,0,0:0:0:0:
376,199,61837,1,0,0:0:0:0:
384,224,61912,2,0,P|416:280|412:320,1,105.000004005432,0|0,0:0|0:0,0:0:0:0:
332,292,62212,1,0,0:0:0:0:
116,28,62362,1,0,0:0:0:0:
496,184,62512,1,0,0:0:0:0:
496,184,62662,2,0,B|424:200|424:200|392:192,1,105.000004005432
256,172,62962,1,0,0:0:0:0:
124,152,63112,2,0,B|94:145|94:145|22:161,2,105.000004005432,0|0|0,0:0|0:0|0:0,0:0:0:0:
200,36,63562,1,0,0:0:0:0:
200,36,63637,5,0,0:0:0:0:
200,36,63712,2,0,B|164:44|136:72|136:72|64:64|20:8,1,210.000008010865
424,36,64162,2,0,P|368:24|328:48,1,105.000004005432,0|0,0:0|0:0,0:0:0:0:
168,268,64462,2,0,P|156:324|180:364,2,105.000004005432
233,312,64912,1,0,0:0:0:0:
233,312,65062,1,0,0:0:0:0:
497,170,65212,1,0,0:0:0:0:
363,36,65362,1,0,0:0:0:0:
411,338,65512,1,0,0:0:0:0:
411,338,65662,5,0,0:0:0:0:
194,121,65812,1,0,0:0:0:0:
194,121,65962,1,0,0:0:0:0:
194,121,66112,2,0,P|176:172|180:196,1,52.5000020027161,0|0,0:0|0:0,0:0:0:0:
327,254,66262,2,0,P|276:272|252:268,1,52.5000020027161,0|0,0:0|0:0,0:0:0:0:
216,100,66412,2,0,P|239:87|264:80,1,52.5000020027161
265,306,66562,2,0,P|239:299|216:286,1,52.5000020027161
310,86,66712,2,0,P|335:94|357:107,1,52.5000020027161
149,245,66862,2,0,P|157:270|170:292,1,52.5000020027161
228,236,67012,1,0,0:0:0:0:
280,228,67087,1,0,0:0:0:0:
330,243,67162,5,0,0:0:0:0:
367,279,67237,1,0,0:0:0:0:
384,328,67312,2,0,L|224:352,1,157.500006008148,0|0,0:0|0:0,0:0:0:0:
180,304,67612,2,0,L|236:216,1,105.000004005432
200,84,67912,1,0,0:0:0:0:
464,20,68062,1,0,0:0:0:0:
360,108,68212,1,0,0:0:0:0:
360,108,68287,1,0,0:0:0:0:
360,108,68362,2,0,L|400:212,1,105.000004005432,0|0,0:0|0:0,0:0:0:0:
364,340,68662,1,0,0:0:0:0:
376,352,68812,5,0,0:0:0:0:
116,272,68962,1,0,0:0:0:0:
116,272,69112,2,0,B|200:236|256:280|256:280|260:216,1,210.000008010865
264,206,69487,1,0,0:0:0:0:
269,194,69562,1,0,0:0:0:0:
277,184,69637,1,0,0:0:0:0:
288,176,69712,2,0,P|348:184|384:208,1,105.000004005432,0|0,0:0|0:0,0:0:0:0:
416,344,70012,1,0,0:0:0:0:
224,208,70162,2,0,P|164:200|128:176,1,105.000004005432
96,40,70462,1,0,0:0:0:0:
96,40,70537,1,0,0:0:0:0:
96,40,70612,5,0,0:0:0:0:
41,243,70762,1,0,0:0:0:0:
13,344,70912,2,0,L|116:328,1,105.000004005432,0|0,0:0|0:0,0:0:0:0:
148,196,71212,2,0,L|252:212,1,105.000004005432,0|0,0:0|0:0,0:0:0:0:
492,344,71512,2,0,P|500:216|448:160,1,210.000008010865,0|0,0:0|0:0,0:0:0:0:
376,276,71962,1,0,0:0:0:0:
376,276,72112,2,0,P|292:336|192:316,1,210.000008010865,0|0,0:0|0:0,0:0:0:0:
268,220,72562,1,0,0:0:0:0:
268,220,72637,1,0,0:0:0:0:
268,220,72712,2,0,L|256:168,1,52.5000020027161
229,100,72862,6,0,P|280:96|320:128,2,105.000004005432
192,156,73312,1,0,0:0:0:0:
204,224,73462,1,0,0:0:0:0:
152,268,73612,1,0,0:0:0:0:
164,336,73762,1,0,0:0:0:0:
164,336,73837,1,0,0:0:0:0:
164,336,73912,2,0,B|192:340|192:340|224:352,1,52.5000020027161
348,312,74062,2,0,P|304:280|288:276,1,52.5000020027161
276,43,74212,2,0,P|285:96|293:110,1,52.5000020027161
352,56,74362,5,0,0:0:0:0:
403,67,74437,1,0,0:0:0:0:
439,104,74512,2,0,P|424:172|388:208,1,105.000004005432,0|0,0:0|0:0,0:0:0:0:
376,197,74737,1,0,0:0:0:0:
350,197,74812,2,0,B|388:276|388:276|384:304,1,105.000004005432
276,368,75112,2,0,B|272:316|304:288|304:288|296:268,1,105.000004005432
352,348,75412,1,0,0:0:0:0:
80,372,75562,1,0,0:0:0:0:
80,372,75712,2,0,B|88:300|88:300|76:268,1,105.000004005432,0|0,0:0|0:0,0:0:0:0:
296,172,76012,5,0,0:0:0:0:
71,90,76162,1,0,0:0:0:0:
112,328,76312,1,0,0:0:0:0:
472,8,76462,1,0,0:0:0:0:
455,58,76612,1,0,0:0:0:0:
437,107,76762,1,0,0:0:0:0:
512,381,76912,2,0,P|459:328|468:252,1,157.500006008148
172,380,77212,2,0,L|68:364,1,105.000004005432
45,93,77512,2,0,P|109:173|210:181,1,210.000008010865
452,60,77962,5,0,0:0:0:0:
452,60,78037,1,0,0:0:0:0:
452,60,78112,2,0,P|448:136|464:164,1,105.000004005432,0|0,0:0|0:0,0:0:0:0:
480,224,78412,2,0,P|468:284|440:316,1,105.000004005432
245,34,78712,2,0,B|288:37|313:96|313:96|316:82,1,105.000004005432
152,312,79012,2,0,B|124:280|148:220|148:220|136:228,1,105.000004005432
212,264,79237,1,0,0:0:0:0:
220,267,79312,2,0,L|332:235,1,105.000004005432,0|0,0:0|0:0,0:0:0:0:
346,249,79537,5,0,0:0:0:0:
370,259,79612,2,0,L|476:259,1,105.000004005432
46,116,79912,2,0,L|151:116,1,105.000004005432
164,379,80212,1,0,0:0:0:0:
164,379,80287,1,0,0:0:0:0:
164,379,80362,2,0,L|238:305,1,105.000004005432,0|0,0:0|0:0,0:0:0:0:
305,340,80662,1,0,0:0:0:0:
256,208,80812,1,0,0:0:0:0:
452,264,80962,1,0,0:0:0:0:
44,256,81112,2,0,P|74:183|40:116,1,157.500006008148
440,32,81412,5,0,0:0:0:0:
41,117,81562,1,0,0:0:0:0:
196,364,81712,2,0,P|164:308|168:264,1,105.000004005432,0|0,0:0|0:0,0:0:0:0:
256,292,82012,1,0,0:0:0:0:
60,352,82162,1,0,0:0:0:0:
269,292,82312,1,0,0:0:0:0:
269,292,82387,1,0,0:0:0:0:
269,292,82462,1,0,0:0:0:0:
471,327,82612,1,0,0:0:0:0:
471,327,82762,1,0,0:0:0:0:
471,327,82912,6,0,L|484:220,1,105.000004005432,0|0,0:0|0:0,0:0:0:0:
10,248,83212,2,0,L|117:262,1,105.000004005432,0|0,2:0|2:0,2:0:0:0:
114,262,83437,1,0,0:0:0:0:
114,262,83512,1,0,0:0:0:0:
488,368,83662,1,0,0:0:0:0:
115,263,83812,2,0,P|163:281|215:279,1,105.000004005432
100,179,84112,1,0,0:0:0:0:
305,43,84262,1,0,0:0:0:0:
170,61,84412,1,0,0:0:0:0:
392,273,84562,5,0,0:0:0:0:
278,348,84712,1,0,0:0:0:0:
148,306,84862,1,0,0:0:0:0:
404,137,85012,1,0,0:0:0:0:
394,113,85162,1,0,0:0:0:0:
384,88,85312,2,0,P|340:44|332:0,1,105.000004005432
152,252,85612,2,0,B|132:248|116:233|116:233|88:244|48:232,1,105.000004005432
412,384,85912,6,0,P|436:337|432:284,1,105.000004005432
428,135,86212,2,0,P|425:83|448:37,1,105.000004005432
500,204,86512,1,0,0:0:0:0:
364,192,86662,1,0,0:0:0:0:
228,180,86812,1,0,0:0:0:0:
228,180,86887,1,0,0:0:0:0:
228,180,86962,1,0,0:0:0:0:
92,168,87112,2,0,B|88:256|88:256|80:272,1,105.000004005432
208,312,87412,2,0,B|126:335|126:335|108:352,2,105.000004005432
88,160,87862,5,0,0:0:0:0:
304,72,88012,2,0,B|386:50|386:50|401:36,1,105.000004005432
112,36,88312,1,0,0:0:0:0:
112,36,88387,1,0,0:0:0:0:
112,36,88462,2,0,B|126:50|126:50|208:72,2,105.000004005432
273,339,88912,1,0,0:0:0:0:
264,236,89062,1,0,0:0:0:0:
255,130,89212,1,0,0:0:0:0:
255,130,89362,5,0,0:0:0:0:
171,137,89512,1,0,0:0:0:0:
208,62,89662,1,0,0:0:0:0:
287,174,89812,5,0,0:0:0:0:
118,143,89962,1,0,0:0:0:0:
229,14,90112,2,0,P|226:72|253:114,1,105.000004005432
319,273,90412,2,0,P|315:221|284:178,2,105.000004005432
476,283,90862,2,0,P|424:287|381:316,2,105.000004005432
112,364,91312,2,0,P|144:256|232:252,1,210.000008010865
112,20,91762,1,0,0:0:0:0:
112,20,91912,6,0,P|144:128|232:132,1,210.000008010865
284,96,92287,1,0,0:0:0:0:
284,96,92362,2,0,P|348:92|396:132,1,105.000004005432
416,172,92662,2,0,L|408:284,1,105.000004005432
452,328,92962,1,0,0:0:0:0:
180,344,93112,2,0,L|252:376,1,52.5000020027161
192,232,93262,2,0,L|264:200,1,52.5000020027161
95,246,93412,2,0,L|115:295,1,52.5000020027161
183,176,93562,2,0,L|233:195,1,52.5000020027161
203,31,93712,6,0,L|304:8,1,105.000004005432
408,268,94012,2,0,L|353:357,2,105.000004005432
472,296,94462,1,0,0:0:0:0:
276,240,94612,2,0,B|240:240|208:264|208:264|148:228|76:256,1,210.000008010865
340,300,95062,1,0,0:0:0:0:
340,300,95212,1,0,0:0:0:0:
76,84,95512,5,0,0:0:0:0:
276,128,95662,1,0,0:0:0:0:
340,152,95812,1,0,0:0:0:0:
389,279,95962,1,0,0:0:0:0:
360,216,96112,2,0,L|372:112,1,105.000004005432
324,64,96412,2,0,P|252:48|220:60,1,105.000004005432
176,188,96712,2,0,P|114:149|100:118,1,105.000004005432
148,187,97012,6,0,P|64:134|45:92,1,140
404,24,97312,1,0,0:0:0:0:
388,92,97387,1,0,0:0:0:0:
372,160,97462,1,0,0:0:0:0:
372,160,97612,2,0,L|440:244,1,105.000004005432
304,220,97912,2,0,L|212:284,1,105.000004005432
340,220,98212,1,0,0:0:0:0:
340,220,98362,1,0,0:0:0:0:
68,184,98512,6,0,P|88:132|76:84,1,105.000004005432
458,244,98812,2,0,P|415:272|395:320,1,105.000004005432
0,128,99112,1,0,0:0:0:0:
480,328,99262,1,0,0:0:0:0:
352,88,99412,1,0,0:0:0:0:
332,156,99562,1,0,0:0:0:0:
312,223,99712,2,0,P|320:288|304:324,1,105.000004005432
207,323,100012,2,0,P|190:273|201:223,1,105.000004005432
346,236,100312,6,0,P|410:321|417:384,1,140,0|0,2:0|2:0,2:0:0:0:
97,352,100612,2,0,P|119:286|167:236,1,140
52,84,100912,1,0,0:0:0:0:
148,120,101062,1,0,0:0:0:0:
412,52,101212,2,0,B|412:88|392:128|392:128|400:156,1,105.000004005432
328,160,101512,2,0,P|264:144|188:240,1,157.500006008148
188,264,101812,1,0,0:0:0:0:
188,264,101962,1,0,0:0:0:0:
72,336,102112,2,0,L|48:232,1,105.000004005432
387,184,102412,2,0,L|336:276,1,105.000004005432
336,277,102637,1,0,0:0:0:0:
336,277,102712,5,0,0:0:0:0:
384,324,102862,2,0,B|416:320|416:320|436:324,6,52.5000020027161
256,192,103462,12,0,105562,0:0:0:0:
424,288,105712,5,0,0:0:0:0:
192,144,106012,1,0,0:0:0:0:
216,208,106162,1,0,0:0:0:0:
216,208,106312,1,0,0:0:0:0:
424,288,106612,2,0,P|452:232|360:136,1,210.000008010865
364,224,107212,1,0,0:0:0:0:
120,344,107362,1,0,0:0:0:0:
84,284,107512,1,0,0:0:0:0:
84,284,107812,5,0,0:0:0:0:
244,64,108112,2,0,B|292:200|292:200|280:264,1,210.000008010865
328,312,108562,1,0,0:0:0:0:
60,368,108712,1,0,0:0:0:0:
60,368,109012,1,0,0:0:0:0:
380,116,109312,2,0,L|171:97,1,210.000008010865
436,76,109762,1,0,0:0:0:0:
440,212,109912,2,0,P|392:233|360:272,1,105.000004005432
68,352,110212,2,0,L|280:336,1,210.000008010865
340,364,110812,5,0,0:0:0:0:
340,364,110962,1,0,0:0:0:0:
444,112,111112,1,0,0:0:0:0:
172,152,111412,2,0,P|264:188|360:136,2,210.000008010865
172,152,112162,1,0,0:0:0:0:
172,152,112312,1,0,0:0:0:0:
412,280,112612,1,0,0:0:0:0:
412,280,112912,2,0,B|276:320|276:320|208:304,1,210.000008010865
320,384,113362,1,0,0:0:0:0:
448,144,113512,1,0,0:0:0:0:
192,0,113812,5,0,0:0:0:0:
176,64,114112,2,0,L|156:164,2,70.0000026702882
248,120,114412,1,0,0:0:0:0:
265,151,114512,1,0,0:0:0:0:
282,182,114612,1,0,0:0:0:0:
299,213,114712,1,0,0:0:0:0:
353,223,114812,5,0,0:0:0:0:
342,257,114912,1,0,0:0:0:0:
332,291,115012,2,0,B|292:306|292:306|267:326,2,70.0000026702882
408,337,115312,1,0,0:0:0:0:
168,328,115612,5,0,0:0:0:0:
144,264,115762,1,0,0:0:0:0:
144,264,115912,1,0,0:0:0:0:
304,44,116212,1,0,0:0:0:0:
432,284,116512,2,0,P|456:228|360:132,1,210.000008010865
364,224,116962,1,0,0:0:0:0:
140,72,117112,1,0,0:0:0:0:
444,348,117412,1,0,0:0:0:0:
292,120,117712,2,0,P|192:124|224:184,1,210.000008010865
243,136,118162,5,0,0:0:0:0:
243,136,118312,1,0,0:0:0:0:
64,344,118612,2,0,L|280:376,1,210.000008010865
328,336,119212,1,0,0:0:0:0:
328,336,119362,1,0,0:0:0:0:
420,236,119512,2,0,P|464:136|420:48,2,210.000008010865
64,344,120412,1,0,0:0:0:0:
64,344,120562,1,0,0:0:0:0:
64,344,120712,6,0,L|280:376,1,210.000008010865
496,220,121312,1,0,0:0:0:0:
128,40,121612,1,0,0:0:0:0:
128,40,121762,1,0,0:0:0:0:
164,96,121912,1,0,0:0:0:0:
32,336,122212,1,0,0:0:0:0:
256,192,122512,12,0,124762,0:0:0:0:
428,280,124912,6,0,L|292:332,1,140
372,380,125212,1,0,0:0:0:0:
16,308,125362,1,0,0:0:0:0:
16,308,125437,1,0,0:0:0:0:
16,308,125512,2,0,P|32:208|60:184,1,140
148,164,125812,2,0,L|312:184,1,140
364,132,126112,1,0,0:0:0:0:
232,256,126262,1,0,0:0:0:0:
80,32,126412,1,0,0:0:0:0:
80,32,126562,5,0,0:0:0:0:
316,308,126712,2,0,P|200:328|152:300,1,140
132,153,127012,2,0,P|200:57|254:43,1,140
372,120,127312,2,0,P|404:306|360:383,1,280
363,379,127762,1,0,0:0:0:0:
20,260,127912,1,0,0:0:0:0:
200,224,128062,1,0,0:0:0:0:
199,190,128137,1,0,0:0:0:0:
186,157,128212,1,0,0:0:0:0:
272,280,128362,1,0,0:0:0:0:
444,68,128512,2,0,P|456:112|448:140,3,70
80,290,128812,2,0,P|52:270|36:238,1,70
159,198,128962,2,0,P|152:164|163:131,1,70
264,176,129112,1,0,0:0:0:0:
281,182,129187,1,0,0:0:0:0:
298,187,129262,1,0,0:0:0:0:
315,192,129337,1,0,0:0:0:0:
331,198,129412,5,0,0:0:0:0:
348,203,129487,1,0,0:0:0:0:
365,208,129562,1,0,0:0:0:0:
381,214,129637,1,0,0:0:0:0:
398,219,129712,2,0,P|344:288|352:336,1,140
432,300,130012,1,0,0:0:0:0:
72,360,130162,1,0,0:0:0:0:
192,32,130312,1,0,0:0:0:0:
489,245,130462,1,0,0:0:0:0:
192,32,130612,1,0,0:0:0:0:
489,245,130762,5,0,0:0:0:0:
200,136,130912,2,0,L|404:84,1,210
312,316,131212,1,0,0:0:0:0:
160,220,131362,1,0,0:0:0:0:
312,316,131512,2,0,L|172:300,2,140
380,252,131962,1,0,0:0:0:0:
390,219,132037,1,0,0:0:0:0:
400,185,132112,2,0,P|376:116|400:56,1,140
468,120,132412,2,0,L|276:168,1,140
272,324,132712,5,0,0:0:0:0:
224,56,132862,2,0,P|208:96|208:136,2,70
80,168,133162,1,0,0:0:0:0:
260,196,133312,1,0,0:0:0:0:
257,231,133387,1,0,0:0:0:0:
246,264,133462,1,0,0:0:0:0:
227,294,133537,1,0,0:0:0:0:
202,318,133612,1,0,0:0:0:0:
172,336,133687,1,0,0:0:0:0:
138,346,133762,5,0,0:0:0:0:
103,348,133837,1,0,0:0:0:0:
69,342,133912,2,0,P|48:292|52:268,4,70
472,352,134362,1,0,0:0:0:0:
124,288,134512,1,0,0:0:0:0:
384,208,134662,1,0,0:0:0:0:
384,208,134737,1,0,0:0:0:0:
384,208,134812,2,0,B|288:160|288:160|256:168,1,140
84,108,135112,2,0,B|166:55|166:55|192:16,1,140
104,184,135412,1,0,0:0:0:0:
104,184,135562,5,0,0:0:0:0:
456,88,135712,2,0,P|407:127|395:201,1,140
488,356,136012,2,0,P|504:308|496:276,3,70
428,308,136312,2,0,P|332:328|312:360,1,140
12,160,136612,2,0,L|152:124,1,140
324,168,136912,1,0,0:0:0:0:
184,284,137062,5,0,0:0:0:0:
100,252,137212,1,0,0:0:0:0:
436,112,137362,2,0,P|460:196|448:252,1,140
420,263,137587,1,0,0:0:0:0:
388,278,137662,1,0,0:0:0:0:
372,368,137812,1,0,0:0:0:0:
392,376,137962,1,0,0:0:0:0:
28,340,138112,2,0,L|180:364,1,140
378,91,138412,2,0,L|264:8,1,140
444,28,138712,1,0,0:0:0:0:
108,164,138862,5,0,0:0:0:0:
288,180,139012,1,0,0:0:0:0:
120,252,139162,1,0,0:0:0:0:
468,360,139312,2,0,B|444:332|448:288|448:288|424:320|400:328,1,140
251,288,139612,2,0,P|300:240|368:240,1,140
445,193,139912,2,0,P|349:155|249:180,1,210
336,320,140212,1,0,0:0:0:0:
52,344,140362,1,0,0:0:0:0:
52,344,140437,1,0,0:0:0:0:
52,344,140512,2,0,P|108:280|104:224,1,140
48,156,140812,5,0,0:0:0:0:
200,56,140962,1,0,0:0:0:0:
212,236,141112,1,0,0:0:0:0:
135,20,141262,1,0,0:0:0:0:
313,57,141412,1,0,0:0:0:0:
194,192,141562,1,0,0:0:0:0:
194,192,141637,1,0,0:0:0:0:
194,192,141712,2,0,P|188:268|32:224,1,280
116,72,142162,1,0,0:0:0:0:
119,225,142312,1,0,0:0:0:0:
508,152,142462,5,0,0:0:0:0:
508,152,142612,2,0,L|344:120,1,140
234,153,142912,2,0,P|239:119|270:82,1,70
142,122,143062,2,0,P|149:156|169:183,1,70
142,251,143212,2,0,P|98:239|66:206,2,93.3333333333333
149,157,143512,1,0,0:0:0:0:
468,348,143662,1,0,0:0:0:0:
288,352,143812,1,0,0:0:0:0:
468,191,143962,2,0,B|448:232|448:232|468:324,1,140
316,88,144262,6,0,B|340:112|340:152,3,70
239,216,144562,2,0,P|237:181|248:148,1,70
356,356,144712,2,0,L|216:368,1,140
84,244,145012,2,0,B|88:276|88:276|80:316,1,70
172,296,145162,1,0,0:0:0:0:
205,283,145237,1,0,0:0:0:0:
230,259,145312,2,0,P|248:176|168:80,1,210
88,108,145612,1,0,0:0:0:0:
444,28,145762,1,0,0:0:0:0:
432,48,145912,2,0,B|416:120|416:120|456:268,1,210
469,341,146212,6,0,P|370:318|286:377,1,210
40,260,146512,2,0,P|170:291|256:189,1,280
124,156,146962,1,0,0:0:0:0:
124,156,147112,1,0,0:0:0:0:
392,208,147262,1,0,0:0:0:0:
312,320,147412,1,0,0:0:0:0:
200,240,147562,2,0,L|128:256,1,70
280,128,147712,6,0,L|432:148,1,140
448,344,148012,2,0,P|448:265|479:210,1,140
300,324,148312,2,0,P|260:240|152:224,1,210
184,332,148612,1,0,0:0:0:0:
184,332,148687,1,0,0:0:0:0:
184,332,148762,2,0,B|216:240|216:240|204:184,1,140
420,73,149062,1,0,0:0:0:0:
386,83,149137,1,0,0:0:0:0:
352,92,149212,2,0,P|360:176|400:212,1,140
488,236,149512,5,0,0:0:0:0:
144,360,149662,1,0,0:0:0:0:
144,360,149812,1,0,0:0:0:0:
56,200,149962,2,0,B|96:184|96:184|124:192,1,70
192,132,150112,2,0,B|240:116|240:116|308:56,1,140
308,57,150412,1,0,0:0:0:0:
308,57,150487,1,0,0:0:0:0:
308,57,150562,1,0,0:0:0:0:
500,364,150712,1,0,0:0:0:0:
60,244,150862,1,0,0:0:0:0:
72,156,151012,6,0,L|228:196,1,140
332,56,151312,1,0,0:0:0:0:
436,204,151462,1,0,0:0:0:0:
123,113,151612,1,0,0:0:0:0:
107,293,151762,1,0,0:0:0:0:
192,336,151912,2,0,P|200:264|160:212,1,140
236,28,152212,2,0,P|194:76|216:144,1,140
264,92,152512,1,0,0:0:0:0:
311,91,152612,1,0,0:0:0:0:
355,106,152712,1,0,0:0:0:0:
389,137,152812,5,0,0:0:0:0:
410,178,152912,1,0,0:0:0:0:
414,224,153012,1,0,0:0:0:0:
401,269,153112,2,0,B|328:284,1,70
134,361,153262,2,0,P|99:360|68:344,1,70
111,152,153412,2,0,P|117:117|137:88,1,70
505,278,153563,2,0,L|435:285,1,70
257,176,153712,2,0,P|332:112|420:156,1,210
84,124,154012,1,0,0:0:0:0:
344,208,154162,1,0,0:0:0:0:
356,368,154312,6,0,B|224:336|224:336|81:348,1,280
202,208,154762,1,0,0:0:0:0:
223,236,154837,1,0,0:0:0:0:
244,264,154912,2,0,B|328:284|328:284|344:264|371:253,1,140
28,124,155212,1,0,0:0:0:0:
392,328,155362,1,0,0:0:0:0:
208,48,155512,2,0,B|248:128|200:192|200:192|252:232,1,210
188,292,155812,2,0,B|128:248|128:248|56:248|12:308,1,210
476,356,156112,2,0,P|412:212|448:100,1,280
447,102,156562,5,0,0:0:0:0:
116,52,156712,1,0,0:0:0:0:
278,8,156862,1,0,0:0:0:0:
235,171,157012,2,0,P|272:232|272:260,1,70
175,307,157162,2,0,P|188:275|188:240,1,70
104,260,157312,2,0,P|43:297|15:297,1,70
32,216,157462,1,0,0:0:0:0:
32,216,157537,1,0,0:0:0:0:
32,216,157612,1,0,0:0:0:0:
340,356,157762,1,0,0:0:0:0:
340,356,157837,2,0,B|356:308|356:308|352:280,1,70
172,372,158062,1,0,0:0:0:0:
428,156,158212,5,0,0:0:0:0:
411,153,158287,1,0,0:0:0:0:
394,149,158362,1,0,0:0:0:0:
377,145,158437,1,0,0:0:0:0:
360,140,158512,2,0,P|300:216|312:264,1,140
64,244,158812,2,0,L|200:284,1,140
216,116,159112,1,0,0:0:0:0:
208,150,159187,1,0,0:0:0:0:
219,182,159262,1,0,0:0:0:0:
231,275,159412,5,0,0:0:0:0:
261,257,159487,1,0,0:0:0:0:
276,226,159562,1,0,0:0:0:0:
328,68,159712,2,0,P|416:76|436:184,1,210
364,144,160012,1,0,0:0:0:0:
156,340,160162,1,0,0:0:0:0:
320,304,160312,1,0,0:0:0:0:
91,355,160462,1,0,0:0:0:0:
386,290,160612,1,0,0:0:0:0:
51,213,160762,2,0,L|76:140,2,70
256,192,161062,12,0,163162,0:0:0:0:
256,300,163312,5,0,0:0:0:0:
360,372,163462,2,0,B|424:340|424:340|432:304,1,105.000004005432
351,108,163762,2,0,B|332:152|332:152|356:204,1,105.000004005432
460,48,164062,1,0,0:0:0:0:
84,60,164212,1,0,0:0:0:0:
67,110,164362,1,0,0:0:0:0:
96,232,164512,2,0,P|152:248|184:280,1,105.000004005432
84,356,164812,5,0,0:0:0:0:
84,356,164962,1,0,0:0:0:0:
84,356,165037,1,0,0:0:0:0:
84,356,165112,2,0,B|56:308|84:256|84:256|52:260|24:244,1,157.500006008148
176,304,165412,1,0,0:0:0:0:
208,116,165562,1,0,0:0:0:0:
328,336,165712,1,0,0:0:0:0:
376,24,165862,1,0,0:0:0:0:
376,24,166012,5,0,0:0:0:0:
476,100,166162,1,0,0:0:0:0:
376,24,166312,1,0,0:0:0:0:
340,208,166462,1,0,0:0:0:0:
340,208,166537,1,0,0:0:0:0:
340,208,166612,2,0,P|264:216|236:208,1,105.000004005432
284,92,166912,1,0,0:0:0:0:
172,32,167062,2,0,P|104:20|64:32,1,105.000004005432
120,144,167362,5,0,0:0:0:0:
59,384,167512,1,0,0:0:0:0:
34,376,167587,1,0,0:0:0:0:
8,368,167662,6,0,B|21:330|21:330|19:316,1,52.5000020027161
186,77,167812,2,0,L|151:116,2,52.5000020027161
464,328,168037,2,0,B|454:321|454:321|448:296|436:284,1,52.5000020027161
340,356,168262,1,0,0:0:0:0:
324,360,168412,2,0,L|336:256,1,105.000004005432
244,20,168712,1,0,0:0:0:0:
96,140,168862,2,0,B|88:216|88:216|100:248,1,105.000004005432
311,319,169162,2,0,P|271:285|220:272,1,105.000004005432
432,352,169462,2,0,P|424:276|432:248,2,105.000004005432
508,148,169912,5,0,0:0:0:0:
412,68,170062,2,0,P|336:68|304:84,1,105.000004005432
248,192,170362,1,0,0:0:0:0:
308,304,170512,2,0,L|200:292,1,105.000004005432
384,240,170812,1,0,0:0:0:0:
172,376,170962,1,0,0:0:0:0:
172,376,171112,2,0,B|176:296|176:296|184:272,1,105.000004005432
432,224,171412,2,0,B|428:144|428:144|421:120,1,105.000004005432
360,48,171712,1,0,0:0:0:0:
292,112,171862,1,0,0:0:0:0:
208,68,172012,5,0,0:0:0:0:
144,136,172162,1,0,0:0:0:0:
68,80,172312,1,0,0:0:0:0:
54,102,172387,1,0,0:0:0:0:
46,127,172462,1,0,0:0:0:0:
45,153,172537,5,0,0:0:0:0:
52,179,172612,1,0,0:0:0:0:
65,201,172687,1,0,0:0:0:0:
84,219,172762,1,0,0:0:0:0:
108,230,172837,1,0,0:0:0:0:
133,235,172912,2,0,P|176:252|200:312,1,105.000004005432
92,100,173212,2,0,P|135:119|194:93,1,105.000004005432
424,52,173512,2,0,P|408:144|348:172,1,157.500006008148
344,86,173812,1,0,0:0:0:0:
440,320,173962,5,0,0:0:0:0:
440,320,174037,1,0,0:0:0:0:
440,320,174112,2,0,P|368:288|332:296,1,105.000004005432
256,384,174412,2,0,L|216:284,1,105.000004005432
92,292,174712,2,0,L|156:196,1,105.000004005432
400,236,175012,1,0,0:0:0:0:
400,236,175087,1,0,0:0:0:0:
400,236,175162,1,0,0:0:0:0:
288,296,175312,1,0,0:0:0:0:
400,356,175462,1,0,0:0:0:0:
400,236,175612,5,0,0:0:0:0:
400,236,175687,1,0,0:0:0:0:
400,236,175762,1,0,0:0:0:0:
400,236,175837,1,0,0:0:0:0:
400,236,175912,2,0,B|380:208|380:208|356:196,3,52.5000020027161
368,124,176212,1,0,0:0:0:0:
480,104,176362,1,0,0:0:0:0:
144,24,176512,1,0,0:0:0:0:
232,96,176662,1,0,0:0:0:0:
248,208,176812,2,0,B|273:277|273:277|296:300,1,105.000004005432
56,266,177112,6,0,P|107:260|148:228,1,105.000004005432
252,56,177412,1,0,0:0:0:0:
275,69,177487,1,0,0:0:0:0:
298,82,177562,1,0,0:0:0:0:
321,95,177637,1,0,0:0:0:0:
344,108,177712,2,0,B|416:124|416:124|436:148,1,105.000004005432
340,280,178012,2,0,B|324:352|324:352|300:372,1,105.000004005432
172,104,178312,2,0,B|188:32|188:32|212:12,1,105.000004005432
168,276,178612,2,0,B|96:260|96:260|76:237,2,105.000004005432
384,192,179062,5,0,0:0:0:0:
396,200,179212,1,0,0:0:0:0:
204,68,179362,1,0,0:0:0:0:
204,68,179512,2,0,P|256:68|304:40,1,105.000004005432
416,64,179812,2,0,P|408:124|424:172,1,105.000004005432
304,164,180112,1,0,0:0:0:0:
404,308,180262,1,0,0:0:0:0:
512,108,180412,1,0,0:0:0:0:
285,32,180562,5,0,0:0:0:0:
417,221,180712,1,0,0:0:0:0:
96,164,180862,1,0,0:0:0:0:
228,353,181012,1,0,0:0:0:0:
408,208,181162,5,0,0:0:0:0:
196,266,181312,1,0,0:0:0:0:
253,53,181462,1,0,0:0:0:0:
356,231,181612,5,0,0:0:0:0:
203,232,181762,1,0,0:0:0:0:
280,98,181912,1,0,0:0:0:0:
317,237,182062,5,0,0:0:0:0:
213,209,182212,1,0,0:0:0:0:
289,133,182362,1,0,0:0:0:0:
368,348,182512,2,0,B|404:304|404:304|448:280,1,105.000004005432
59,264,182812,2,0,B|73:218|73:218|67:161,1,105.000004005432
236,116,183112,1,0,0:0:0:0:
12,56,183262,2,0,P|40:56|64:48,1,52.5000020027161
356,24,183562,1,0,0:0:0:0:
356,24,183637,1,0,0:0:0:0:
356,24,183712,2,0,P|420:56|448:136,1,157.500006008148
332,136,184012,1,0,0:0:0:0:
332,136,184162,5,0,0:0:0:0:
352,252,184312,1,0,0:0:0:0:
244,216,184462,2,0,P|240:188|224:160,1,52.5000020027161
480,380,184762,1,0,0:0:0:0:
136,352,184912,2,0,P|124:272|172:208,1,157.500006008148
240,300,185212,1,0,0:0:0:0:
260,68,185362,1,0,0:0:0:0:
156,120,185512,1,0,0:0:0:0:
144,116,185662,5,0,0:0:0:0:
420,196,185812,2,0,P|438:246|428:297,1,105.000004005432
138,306,186112,2,0,P|90:283|61:240,1,105.000004005432
260,28,186412,2,0,P|310:10|361:20,1,105.000004005432
370,311,186712,1,0,0:0:0:0:
316,88,186862,1,0,0:0:0:0:
236,336,187012,1,0,0:0:0:0:
456,148,187162,1,0,0:0:0:0:
120,56,187312,2,0,P|80:100|88:200,1,157.500006008148
160,140,187612,6,0,P|204:160|228:212,1,105.000004005432
112,208,187912,2,0,P|88:256|100:312,1,105.000004005432
196,360,188212,1,0,0:0:0:0:
472,152,188362,1,0,0:0:0:0:
472,152,188437,1,0,0:0:0:0:
472,152,188512,2,0,P|396:128|352:148,1,105.000004005432
400,248,188812,2,0,P|360:292|316:308,1,105.000004005432
204,288,189112,2,0,P|179:283|150:285,3,52.5000020027161
172,360,189412,1,0,0:0:0:0:
88,144,189562,5,0,0:0:0:0:
144,44,189712,1,0,0:0:0:0:
341,345,189862,1,0,0:0:0:0:
231,376,190012,1,0,0:0:0:0:
304,24,190162,1,0,0:0:0:0:
405,80,190312,2,0,B|424:148|424:148|448:172,1,105.000004005432
254,204,190612,1,0,0:0:0:0:
220,244,190762,1,0,0:0:0:0:
212,96,190912,1,0,0:0:0:0:
212,96,191062,5,0,0:0:0:0:
460,340,191212,1,0,0:0:0:0:
468,352,191362,1,0,0:0:0:0:
296,368,191512,2,0,L|324:264,1,105.000004005432
496,36,191812,1,0,0:0:0:0:
272,92,191962,2,0,B|253:142|253:142|267:193,1,105.000004005432
184,272,192262,2,0,B|144:222|144:222|98:209,1,105.000004005432
4,268,192562,1,0,0:0:0:0:
284,200,192712,1,0,0:0:0:0:
284,200,192862,6,0,P|326:108|290:11,1,210.000008010865
200,104,193312,1,0,0:0:0:0:
432,124,193462,2,0,P|424:92|432:60,2,52.5000020027161
496,92,193762,1,0,0:0:0:0:
488,208,193912,2,0,P|464:272|472:312,1,105.000004005432
244,356,194212,1,0,0:0:0:0:
244,356,194362,6,0,L|348:368,1,105.000004005432
197,3,194812,2,0,L|132:85,1,105.000004005432
60,176,195112,1,0,0:0:0:0:
296,344,195262,1,0,0:0:0:0:
277,143,195412,1,0,0:0:0:0:
444,257,195562,1,0,0:0:0:0:
129,43,195712,1,0,0:0:0:0:
129,43,195862,2,0,P|100:104|104:148,1,105.000004005432
115,164,196087,1,0,0:0:0:0:
127,187,196162,5,0,0:0:0:0:
36,276,196312,1,0,0:0:0:0:
260,340,196462,1,0,0:0:0:0:
18,271,196612,1,0,0:0:0:0:
279,346,196762,1,0,0:0:0:0:
44,16,196912,1,0,0:0:0:0:
388,64,197212,6,0,L|272:80,1,105.000004005432
228,140,197512,1,0,0:0:0:0:
251,287,197662,1,0,0:0:0:0:
218,217,197812,1,0,0:0:0:0:
318,328,197962,1,0,0:0:0:0:
479,257,198112,2,0,P|452:301|405:323,2,105.000004005432
377,217,198562,1,0,0:0:0:0:
377,217,198637,5,0,0:0:0:0:
377,217,198712,2,0,P|290:162|191:186,1,210.000008010865
256,192,199312,12,0,201412,0:0:0:0:
152,80,201712,6,0,B|112:128|112:128|136:116|160:124,1,105.000004005432
100,244,202012,2,0,B|140:196|140:196|116:208|92:200,1,105.000004005432
240,140,202312,2,0,P|308:160|344:240,1,157.500006008148
364,288,202612,2,0,P|376:224|408:196,1,105.000004005432
448,272,202912,1,0,0:0:0:0:
232,356,203062,1,0,0:0:0:0:
232,356,203212,1,0,0:0:0:0:
276,248,203362,2,0,L|252:144,2,105.000004005432
228,360,203812,5,0,0:0:0:0:
344,96,203962,2,0,B|372:88|392:64|392:64|416:68|440:60,1,105.000004005432
328,20,204262,2,0,P|304:12|272:12,2,52.5000020027161
500,12,204562,1,0,0:0:0:0:
160,72,204712,1,0,0:0:0:0:
246,192,204862,2,0,P|244:164|232:136,2,52.5000020027161
234,216,205087,1,0,0:0:0:0:
218,236,205162,1,0,0:0:0:0:
197,252,205237,5,0,0:0:0:0:
172,264,205312,2,0,P|100:220|84:192,1,105.000004005432
265,82,205612,2,0,P|347:62|378:71,1,105.000004005432
328,276,205912,2,0,P|285:348|256:365,1,105.000004005432
500,56,206212,1,0,0:0:0:0:
224,264,206362,1,0,0:0:0:0:
500,56,206512,2,0,B|488:44|488:44|440:16|376:28|376:28|376:48|368:64,1,157.500006008148
304,32,206812,2,0,B|304:52|288:64|288:64|304:92|320:124|308:180,1,157.500006008148
176,139,207112,2,0,L|116:284,1,157.500006008148
152,56,207412,5,0,0:0:0:0:
172,340,207562,1,0,0:0:0:0:
116,240,207712,2,0,L|232:224,1,105.000004005432
336,240,208012,1,0,0:0:0:0:
256,156,208162,2,0,P|236:104|252:48,2,105.000004005432
320,100,208612,1,0,0:0:0:0:
332,92,208762,1,0,0:0:0:0:
148,232,208912,2,0,P|178:291|200:332,1,105.000004005432
84,348,209212,2,0,L|120:240,1,105.000004005432
272,328,209512,5,0,0:0:0:0:
208,104,209662,1,0,0:0:0:0:
188,188,209812,1,0,0:0:0:0:
364,35,209962,2,0,P|428:44|464:72,2,105.000004005432
384,124,210412,2,0,P|364:212|448:288,1,210.000008010865
464,188,210862,1,0,0:0:0:0:
169,215,211012,1,0,0:0:0:0:
329,350,211162,5,0,0:0:0:0:
303,54,211312,2,0,P|252:32|196:40,1,105.000004005432
236,148,211612,1,0,0:0:0:0:
251,199,211687,1,0,0:0:0:0:
243,250,211762,1,0,0:0:0:0:
214,293,211837,1,0,0:0:0:0:
170,321,211912,2,0,P|76:292|44:232,1,157.500006008148
52,216,212212,1,0,0:0:0:0:
268,304,212362,2,0,L|372:348,1,105.000004005432
420,244,212662,6,0,L|316:264,1,105.000004005432
204,240,212962,1,0,0:0:0:0:
140,144,213112,1,0,0:0:0:0:
140,144,213262,2,0,P|124:84|148:28,1,105.000004005432
211,92,213562,1,0,0:0:0:0:
432,44,213712,2,0,B|456:96|456:96|464:152,1,105.000004005432
318,264,214012,2,0,B|324:216|324:216|348:164,1,105.000004005432
468,360,214312,2,0,L|352:376,1,105.000004005432
251,330,214612,2,0,P|243:294|247:266,2,52.5000020027161
320,296,214912,6,0,P|340:232|296:136,1,157.500006008148
252,148,215212,2,0,L|88:180,1,157.500006008148
0,120,215512,2,0,L|164:88,1,157.500006008148
204,60,215812,6,0,P|272:56|304:32,1,105.000004005432
416,37,216112,2,0,P|399:137|465:213,2,210.000008010865
348,204,216862,1,0,0:0:0:0:
280,244,217012,1,0,0:0:0:0:
212,283,217162,1,0,0:0:0:0:
100,260,217312,2,0,L|152:92,1,157.500006008148
104,68,217612,2,0,L|232:120,1,105.000004005432
304,56,217912,2,0,P|260:144|296:236,1,157.500006008148
316,236,218212,1,0,0:0:0:0:
208,276,218362,5,0,0:0:0:0:
432,324,218512,1,0,0:0:0:0:
441,267,218662,1,0,0:0:0:0:
450,210,218812,1,0,0:0:0:0:
458,153,218962,1,0,0:0:0:0:
467,96,219112,1,0,0:0:0:0:
360,144,219262,1,0,0:0:0:0:
318,183,219412,1,0,0:0:0:0:
263,199,219562,1,0,0:0:0:0:
224,230,219712,5,0,0:0:0:0:
214,287,219862,1,0,0:0:0:0:
231,341,220012,2,0,P|237:283|268:252,1,105.000004005432
304,320,220312,2,0,L|364:328,1,52.5000020027161
200,68,220462,2,0,L|237:20,1,52.5000020027161
208,321,220612,2,0,L|148:328,1,52.5000020027161
381,136,220762,2,0,L|429:173,1,52.5000020027161
472,196,220912,2,0,L|364:244,1,105.000004005432
272,292,221212,2,0,P|276:232|256:192,1,105.000004005432
172,116,221512,2,0,P|152:69|157:17,2,105.000004005432
264,48,221962,1,0,0:0:0:0:
164,252,222112,6,0,L|340:264,1,157.500006008148
360,304,222412,1,0,0:0:0:0:
332,192,222562,1,0,0:0:0:0:
148,332,222712,1,0,0:0:0:0:
160,276,222862,1,0,0:0:0:0:
171,219,223012,2,0,L|140:176,1,52.5000020027161
298,113,223162,2,0,L|350:122,1,52.5000020027161
283,278,223312,2,0,P|240:308|188:308,1,105.000004005432
300,280,223612,2,0,P|343:311|395:311,1,105.000004005432
372,220,223912,5,0,0:0:0:0:
208,216,224062,1,0,0:0:0:0:
405,176,224212,1,0,0:0:0:0:
210,241,224362,1,0,0:0:0:0:
406,118,224512,1,0,0:0:0:0:
227,261,224662,1,0,0:0:0:0:
163,40,224812,1,0,0:0:0:0:
333,218,224962,5,0,0:0:0:0:
69,42,225112,1,0,0:0:0:0:
366,190,225262,1,0,0:0:0:0:
1,107,225412,1,0,0:0:0:0:
370,148,225562,1,0,0:0:0:0:
129,202,225712,2,0,B|136:240|136:240|176:292,2,105.000004005432
356,272,226162,2,0,B|304:312|304:312|266:320,1,105.000004005432
196,100,226462,2,0,P|208:132|216:172,2,52.5000020027161
132,308,226762,5,0,0:0:0:0:
304,32,226912,1,0,0:0:0:0:
356,256,227062,1,0,0:0:0:0:
80,84,227212,1,0,0:0:0:0:
92,108,227362,1,0,0:0:0:0:
104,131,227512,2,0,L|232:160,1,105.000004005432
416,60,227812,1,0,0:0:0:0:
412,304,227962,1,0,0:0:0:0:
152,122,228112,2,0,L|56:168,1,105.000004005432
200,348,228412,1,0,0:0:0:0:
160,240,228562,2,0,P|200:140|304:144,1,210.000008010865
344,112,229012,5,0,0:0:0:0:
252,220,229162,1,0,0:0:0:0:
264,244,229312,1,0,0:0:0:0:
276,268,229462,2,0,L|232:368,1,105.000004005432
348,348,229762,1,0,0:0:0:0:
132,272,229912,1,0,0:0:0:0:
416,224,230062,1,0,0:0:0:0:
84,324,230212,1,0,0:0:0:0:
416,92,230362,1,0,0:0:0:0:
12,320,230512,6,0,L|240:344,1,210.000008010865
328,300,230962,2,0,L|224:260,1,105.000004005432
188,184,231262,1,0,0:0:0:0:
215,140,231412,1,0,0:0:0:0:
210,89,231562,1,0,0:0:0:0:
177,49,231712,2,0,P|124:56|72:40,2,105.000004005432
177,49,232162,1,0,0:0:0:0:
404,96,232312,1,0,0:0:0:0:
392,120,232462,1,0,0:0:0:0:
380,143,232612,5,0,0:0:0:0:
368,166,232762,1,0,0:0:0:0:
356,190,232912,2,0,P|352:264|404:324,1,157.500006008148
456,352,233212,2,0,L|292:384,1,157.500006008148
224,228,233512,2,0,B|264:100|264:100|260:68,1,157.500006008148
344,44,233812,1,0,0:0:0:0:
116,88,233962,1,0,0:0:0:0:
108,104,234112,1,0,0:0:0:0:
152,332,234262,1,0,0:0:0:0:
168,340,234412,5,0,0:0:0:0:
396,296,234562,1,0,0:0:0:0:
404,280,234712,1,0,0:0:0:0:
360,52,234862,1,0,0:0:0:0:
116,88,235012,1,0,0:0:0:0:
344,44,235162,1,0,0:0:0:0:
108,104,235312,2,0,B|96:176|96:176|108:212,1,105.000004005432
244,200,235612,2,0,L|296:304,1,105.000004005432
392,356,235912,2,0,P|328:332|292:340,1,105.000004005432
219,340,236212,2,0,P|168:346|121:324,1,105.000004005432
184,244,236512,1,0,0:0:0:0:
184,244,236662,5,0,0:0:0:0:
372,112,236812,2,0,P|344:215|392:300,2,210.000008010865
256,192,237712,12,0,239962,0:0:0:0:
140,32,240112,5,8,0:0:0:0:
112,188,240262,1,0,0:0:0:0:
267,215,240412,1,0,0:0:0:0:
295,60,240562,1,0,0:0:0:0:
204,124,240712,1,0,0:0:0:0:
222,363,240862,1,0,0:0:0:0:
457,341,241012,1,0,0:0:0:0:
437,107,241162,2,0,P|408:156|416:204,2,105.000004005432,0|8|0,0:0|0:0|0:0,0:0:0:0:
488,168,241612,6,0,L|384:228,1,105.000004005432
124,64,241912,1,0,0:0:0:0:
80,216,242062,1,0,0:0:0:0:
360,360,242212,1,0,0:0:0:0:
316,208,242362,2,0,B|327:158|327:158|312:104,2,105.000004005432,0|8|0,0:0|0:0|0:0,0:0:0:0:
164,248,242812,1,0,0:0:0:0:
120,220,242887,1,0,0:0:0:0:
97,174,242962,5,0,0:0:0:0:
102,122,243037,1,0,0:0:0:0:
132,80,243112,2,0,L|184:72,3,52.5000020027161
312,164,243412,1,0,0:0:0:0:
295,185,243487,1,0,0:0:0:0:
288,210,243562,2,0,P|324:280|320:304,1,105.000004005432,0|8,0:0|0:0,0:0:0:0:
62,245,243862,1,0,0:0:0:0:
97,284,243937,1,0,0:0:0:0:
146,304,244012,1,0,0:0:0:0:
198,301,244087,1,0,0:0:0:0:
244,276,244162,2,0,L|260:220,1,52.5000020027161
332,196,244312,6,0,B|351:281|351:281|368:300,1,105.000004005432,8|0,0:0|0:0,0:0:0:0:
388,144,244612,2,0,B|336:160|296:140|296:140|280:148,1,105.000004005432,8|8,0:0|0:0,0:0:0:0:
344,48,244912,1,8,0:0:0:0:
204,352,245062,1,0,0:0:0:0:
168,336,245212,2,0,P|124:276|120:248,1,105.000004005432
311,56,245512,2,0,P|361:69|400:105,1,105.000004005432
372,248,245812,1,0,0:0:0:0:
268,144,245962,2,0,L|376:120,1,105.000004005432,0|8,0:0|0:0,0:0:0:0:
124,162,246262,5,0,0:0:0:0:
124,162,246412,2,0,L|213:218,1,105.000004005432
116,328,246712,2,0,P|168:328|216:304,1,105.000004005432
360,332,247012,2,0,B|360:316|352:304|352:304|356:280,2,52.5000020027161
385,338,247237,1,0,0:0:0:0:
412,344,247312,2,0,L|292:368,1,105.000004005432,8|0,0:0|0:0,0:0:0:0:
38,195,247612,2,0,L|96:108,1,105.000004005432
92,256,247912,1,0,0:0:0:0:
92,256,248062,1,0,0:0:0:0:
368,160,248212,5,0,0:0:0:0:
248,300,248362,1,0,0:0:0:0:
248,300,248512,2,0,P|312:320|352:312,1,105.000004005432,4|0,0:0|0:0,0:0:0:0:
264,84,248812,2,0,P|199:64|160:73,1,105.000004005432,12|0,0:0|0:0,0:0:0:0:
173,263,249112,2,0,P|205:323|239:345,1,105.000004005432,12|4,0:0|0:0,0:0:0:0:
88,368,249412,1,4,0:0:0:0:
372,296,249562,1,4,0:0:0:0:
386,274,249637,1,0,0:0:0:0:
400,252,249712,2,0,P|388:176|368:156,1,105.000004005432,8|0,0:0|0:0,0:0:0:0:
76,160,250012,6,0,L|188:144,1,105.000004005432
304,228,250312,2,0,L|192:244,1,105.000004005432
104,356,250612,1,0,0:0:0:0:
96,331,250687,1,0,0:0:0:0:
96,304,250762,2,0,B|100:280|100:280|136:248|136:208,1,105.000004005432,0|8,0:0|0:0,0:0:0:0:
16,178,251062,2,0,B|-3:146|12:100|12:100|3:77,2,105.000004005432
109,36,251512,2,0,B|136:32|164:60|164:60|172:40|194:30,1,105.000004005432
272,36,251812,1,0,0:0:0:0:
308,49,251887,1,0,0:0:0:0:
337,76,251962,5,0,0:0:0:0:
353,112,252037,1,0,0:0:0:0:
353,151,252112,2,0,L|285:231,1,105.000004005432,8|0,0:0|0:0,0:0:0:0:
24,364,252412,1,0,0:0:0:0:
320,88,252562,2,0,P|380:84|416:116,2,105.000004005432
460,324,253012,1,0,0:0:0:0:
18,243,253162,2,0,B|24:196|0:160|0:160|16:168,2,105.000004005432,0|8|0,0:0|0:0|0:0,0:0:0:0:
4,344,253612,1,0,0:0:0:0:
493,366,253762,1,0,0:0:0:0:
108,224,253912,6,0,L|240:200,1,105.000004005432,4|0,0:0|0:0,0:0:0:0:
168,76,254212,1,4,0:0:0:0:
168,76,254362,2,0,L|300:100,1,105.000004005432,4|12,0:0|0:0,0:0:0:0:
372,192,254662,2,0,B|396:208|396:208|420:212,2,52.5000020027161
236,196,254962,2,0,B|256:260|256:260|248:304,1,105.000004005432
72,88,255262,2,0,L|176:72,1,105.000004005432
132,204,255562,1,0,0:0:0:0:
132,204,255712,6,0,L|232:248,1,105.000004005432,8|0,0:0|0:0,0:0:0:0:
328,340,256012,1,0,0:0:0:0:
321,315,256087,1,0,0:0:0:0:
322,289,256162,1,0,0:0:0:0:
332,265,256237,1,0,0:0:0:0:
348,244,256312,2,0,B|412:220|412:220|448:228,1,105.000004005432
422,137,256612,1,0,0:0:0:0:
422,137,256687,1,0,0:0:0:0:
422,137,256762,2,0,P|390:97|385:45,1,105.000004005432,0|12,0:0|0:0,0:0:0:0:
316,136,257062,1,0,0:0:0:0:
284,159,257137,5,0,0:0:0:0:
246,168,257212,1,0,0:0:0:0:
207,165,257287,1,0,0:0:0:0:
172,148,257362,1,0,0:0:0:0:
144,120,257437,1,0,0:0:0:0:
128,84,257512,2,0,L|100:128,2,52.5000020027161
172,252,257812,1,0,0:0:0:0:
56,268,257962,1,0,0:0:0:0:
208,352,258112,2,0,L|372:384,1,157.500006008148,12|0,0:0|0:0,0:0:0:0:
388,368,258412,2,0,P|368:296|400:224,1,157.500006008148
384,200,258712,6,0,L|316:240,1,78.7500030040742
128,184,258862,2,0,L|196:144,1,78.7500030040742
208,252,259012,2,0,L|189:329,1,78.7500030040742
304,132,259162,2,0,L|324:56,1,78.7500030040742
256,192,259312,1,12,0:0:0:0:
256,192,259387,12,0,260512,0:0:0:0:
