osu file format v14

[General]
AudioFilename: audio.mp3
AudioLeadIn: 0
PreviewTime: 81730
Countdown: 0
SampleSet: Normal
StackLeniency: 0.7
Mode: 1
LetterboxInBreaks: 0
WidescreenStoryboard: 0

[Editor]
Bookmarks: 4834,15868,26902,37937,48971,60006,71040,82075,93109,104144,115178,128971,141385
DistanceSpacing: 2
BeatDivisor: 6
GridSize: 32
TimelineZoom: 2.5

[Metadata]
Title:NiNi
TitleUnicode:ニニ
Artist:Tezuka x Qayo
ArtistUnicode:テヅカ × Qayo
Creator:_DUSK_
Version:Inner Oni
Source:MUSYNX
Tags:bms of fighters g2r2018 bga party classic unlimited go back to your roots inukoro oriental core mii みぃ
BeatmapID:2191080
BeatmapSetID:1048248

[Difficulty]
HPDrainRate:6
CircleSize:5
OverallDifficulty:6.5
ApproachRate:9
SliderMultiplier:1.4
SliderTickRate:1

[Events]
//Background and Video events
0,0,"nini.png",0,0
//Break Periods
//Storyboard Layer 0 (Background)
//Storyboard Layer 1 (Fail)
//Storyboard Layer 2 (Pass)
//Storyboard Layer 3 (Foreground)
//Storyboard Layer 4 (Overlay)
//Storyboard Sound Samples

[TimingPoints]
4489,344.827586206897,4,1,0,100,1,8
4834,344.827586206897,4,1,0,100,1,0
4920,-125,4,1,0,100,0,0
15868,-121.951219512195,4,1,0,100,0,0
21385,-120.481927710843,4,1,0,100,0,0
21730,-119.047619047619,4,1,0,100,0,0
22075,-117.647058823529,4,1,0,100,0,0
22420,-116.279069767442,4,1,0,100,0,0
22765,-114.942528735632,4,1,0,100,0,0
22937,-113.636363636364,4,1,0,100,0,0
23109,-112.359550561798,4,1,0,100,0,0
23282,-111.111111111111,4,1,0,100,0,0
23454,-109.89010989011,4,1,0,100,0,0
23627,-108.695652173913,4,1,0,100,0,0
23713,-107.52688172043,4,1,0,100,0,0
23799,-106.382978723404,4,1,0,100,0,0
23971,-105.263157894737,4,1,0,100,0,0
24144,-104.166666666667,4,1,0,100,0,0
24316,-103.092783505155,4,1,0,100,0,0
24489,-102.040816326531,4,1,0,100,0,0
24661,-101.010101010101,4,1,0,100,0,0
24834,-100,4,1,0,100,0,0
25006,-99.009900990099,4,1,0,100,0,0
25178,-98.0392156862745,4,1,0,100,0,0
25351,-97.0873786407767,4,1,0,100,0,0
26989,-97.0873786407767,4,1,0,30,0,0
28282,-125,4,1,0,30,0,0
31989,-125,4,1,0,100,0,0
32592,-125,4,1,0,30,0,0
35265,-121.951219512195,4,1,0,30,0,0
36558,-111.111111111111,4,1,0,30,0,0
37161,-111.111111111111,4,1,0,100,0,0
37334,-108.695652173913,4,1,0,100,0,0
37420,-106.382978723404,4,1,0,100,0,0
37506,-104.166666666667,4,1,0,100,0,0
37592,-102.040816326531,4,1,0,100,0,0
37937,-83.3333333333333,4,1,0,100,0,0
42075,-82.6446280991736,4,1,0,100,0,0
42161,-81.9672131147541,4,1,0,100,0,0
42247,-81.3008130081301,4,1,0,100,0,0
42334,-80.6451612903226,4,1,0,100,0,0
42420,-80,4,1,0,100,0,0
42506,-79.3650793650794,4,1,0,100,0,0
42592,-78.7401574803149,4,1,0,100,0,0
42765,-78.125,4,1,0,100,0,0
42937,-77.5193798449612,4,1,0,100,0,0
43109,-76.9230769230769,4,1,0,100,0,0
43454,-83.3333333333333,4,1,0,100,0,0
47592,-82.6446280991736,4,1,0,100,0,0
47678,-81.9672131147541,4,1,0,100,0,0
47765,-81.3008130081301,4,1,0,100,0,0
47851,-80.6451612903226,4,1,0,100,0,0
47937,-80,4,1,0,100,0,0
48023,-79.3650793650794,4,1,0,100,0,0
48109,-78.7401574803149,4,1,0,100,0,0
48282,-78.125,4,1,0,100,0,0
48454,-77.5193798449612,4,1,0,100,0,0
48627,-76.9230769230769,4,1,0,100,0,0
48799,-76.3358778625954,4,1,0,100,0,0
48971,-83.3333333333333,4,1,0,100,0,0
53109,-82.6446280991736,4,1,0,100,0,0
53196,-81.9672131147541,4,1,0,100,0,0
53282,-81.3008130081301,4,1,0,100,0,0
53368,-80.6451612903226,4,1,0,100,0,0
53454,-80,4,1,0,100,0,0
53540,-79.3650793650794,4,1,0,100,0,0
53627,-78.7401574803149,4,1,0,100,0,0
53799,-78.125,4,1,0,100,0,0
53971,-77.5193798449612,4,1,0,100,0,0
54144,-76.9230769230769,4,1,0,100,0,0
54489,-83.3333333333333,4,1,0,100,0,0
58627,-82.6446280991736,4,1,0,100,0,0
58713,-81.9672131147541,4,1,0,100,0,0
58799,-81.3008130081301,4,1,0,100,0,0
58885,-80.6451612903226,4,1,0,100,0,0
58971,-80,4,1,0,100,0,0
59058,-79.3650793650794,4,1,0,100,0,0
59144,-78.7401574803149,4,1,0,100,0,0
59316,-78.125,4,1,0,100,0,0
59402,-77.5193798449612,4,1,0,100,0,0
59489,-76.9230769230769,4,1,0,100,0,0
59575,-76.3358778625954,4,1,0,100,0,0
59661,-75.7575757575758,4,1,0,100,0,0
59747,-75.187969924812,4,1,0,100,0,0
59834,-74.6268656716418,4,1,0,100,0,0
59920,-74.0740740740741,4,1,0,100,0,0
60006,-73.5294117647059,4,1,0,100,0,0
60092,-125,4,1,0,100,0,0
70351,-121.951219512195,4,1,0,100,0,0
70696,-119.047619047619,4,1,0,100,0,0
71040,-116.279069767442,4,1,0,100,0,0
76213,-114.942528735632,4,1,0,100,0,0
76558,-112.359550561798,4,1,0,100,0,0
76902,-111.111111111111,4,1,0,100,0,0
77247,-109.89010989011,4,1,0,100,0,0
77592,-108.695652173913,4,1,0,100,0,0
77937,-107.52688172043,4,1,0,100,0,0
78109,-106.382978723404,4,1,0,100,0,0
78282,-105.263157894737,4,1,0,100,0,0
78454,-104.166666666667,4,1,0,100,0,0
78627,-103.092783505155,4,1,0,100,0,0
78799,-102.040816326531,4,1,0,100,0,0
78885,-101.010101010101,4,1,0,100,0,0
78971,-100,4,1,0,100,0,0
79144,-99.009900990099,4,1,0,100,0,0
79316,-98.0392156862745,4,1,0,100,0,0
79489,-97.0873786407767,4,1,0,100,0,0
79661,-96.1538461538461,4,1,0,100,0,0
79834,-95.2380952380952,4,1,0,100,0,0
80006,-94.3396226415094,4,1,0,100,0,0
80178,-93.4579439252336,4,1,0,100,0,0
80351,-92.5925925925926,4,1,0,100,0,0
80523,-91.743119266055,4,1,0,100,0,0
80696,-90.9090909090909,4,1,0,100,0,0
80954,-105.263157894737,4,1,0,100,0,0
81040,-103.092783505155,4,1,0,100,0,0
81213,-101.010101010101,4,1,0,100,0,0
81299,-99.009900990099,4,1,0,100,0,0
81385,-97.0873786407767,4,1,0,100,0,0
81558,-95.2380952380952,4,1,0,100,0,0
81730,-93.4579439252336,4,1,0,100,0,0
81816,-91.743119266055,4,1,0,100,0,0
81902,-90.0900900900901,4,1,0,100,0,0
81989,-88.4955752212389,4,1,0,100,0,0
82075,-86.9565217391304,4,1,0,100,0,0
101385,-86.2068965517241,4,1,0,100,0,0
101558,-85.4700854700855,4,1,0,100,0,0
101730,-84.7457627118644,4,1,0,100,0,0
101902,-84.0336134453781,4,1,0,100,0,0
102075,-83.3333333333333,4,1,0,100,0,0
102247,-82.6446280991736,4,1,0,100,0,0
102420,-81.9672131147541,4,1,0,100,0,0
102592,-81.3008130081301,4,1,0,100,0,0
102678,-80.6451612903226,4,1,0,100,0,0
102937,-81.9672131147541,4,1,0,100,0,0
103109,-83.3333333333333,4,1,0,100,0,0
103282,-84.7457627118644,4,1,0,100,0,0
103454,-86.2068965517241,4,1,0,100,0,0
103627,-85.4700854700855,4,1,0,100,0,0
103713,-84.7457627118644,4,1,0,100,0,0
103799,-84.0336134453781,4,1,0,100,0,0
103885,-83.3333333333333,4,1,0,100,0,0
103971,-82.6446280991736,4,1,0,100,0,0
104058,-81.9672131147541,4,1,0,100,0,0
104144,-81.3008130081301,4,1,0,100,0,1
115178,-80.6451612903226,4,1,0,100,0,0
115696,-125,4,1,0,100,0,0
117937,-117.647058823529,4,1,0,100,0,0
118627,-125,4,1,0,100,0,0
119316,-117.647058823529,4,1,0,100,0,0
119834,-114.942528735632,4,1,0,100,0,0
119920,-112.359550561798,4,1,0,100,0,0
120006,-109.89010989011,4,1,0,100,0,0
120178,-107.52688172043,4,1,0,100,0,0
120351,-105.263157894737,4,1,0,100,0,0
120523,-103.092783505155,4,1,0,100,0,0
120609,-101.010101010101,4,1,0,100,0,0
120696,-99.009900990099,4,1,0,100,0,0
120868,-97.0873786407767,4,1,0,100,0,0
122765,-95.2380952380952,4,1,0,100,0,0
123282,-93.4579439252336,4,1,0,100,0,0
123454,-91.743119266055,4,1,0,100,0,0
123627,-90.0900900900901,4,1,0,100,0,0
125178,-88.4955752212389,4,1,0,100,0,0
125523,-85.4700854700855,4,1,0,100,0,0
125696,-84.7457627118644,4,1,0,100,0,0
125782,-84.0336134453781,4,1,0,100,0,0
125868,-83.3333333333333,4,1,0,100,0,0
126040,-82.6446280991736,4,1,0,100,0,0
126213,-81.9672131147541,4,1,0,100,0,0
126558,-83.3333333333333,4,1,0,100,0,0
126730,-84.7457627118644,4,1,0,100,0,0
126902,-86.2068965517241,4,1,0,100,0,0
127161,-87.719298245614,4,1,0,100,0,0
127247,-89.2857142857143,4,1,0,100,0,0
127420,-90.9090909090909,4,1,0,100,0,0
127592,-92.5925925925926,4,1,0,100,0,0
127937,-94.3396226415094,4,1,0,100,0,0
128109,-96.1538461538461,4,1,0,100,0,0
128368,-98.0392156862745,4,1,0,100,0,0
128454,-100,4,1,0,100,0,0
128627,-102.040816326531,4,1,0,100,0,0
128971,-104.166666666667,4,1,0,100,0,0
129316,-106.382978723404,4,1,0,100,0,0
129661,-108.695652173913,4,1,0,100,0,0
130006,-111.111111111111,4,1,0,100,0,0
130351,-113.636363636364,4,1,0,100,0,0
130696,-116.279069767442,4,1,0,100,0,0
131040,-119.047619047619,4,1,0,100,0,0
131385,-121.951219512195,4,1,0,100,0,0
131730,-125,4,1,0,100,0,0
137161,-125,4,1,0,30,0,0
138627,-100,4,1,0,30,0,0
140006,-125,4,1,0,30,0,0
141127,-111.111111111111,4,1,0,100,0,0

[HitObjects]
256,192,4488,5,8,0:0:0:0:
256,192,4661,1,8,0:0:0:0:
256,192,4833,1,4,0:0:0:0:
256,192,6213,1,8,0:0:0:0:
256,192,7592,1,0,0:0:0:0:
256,192,8971,1,0,0:0:0:0:
256,192,9661,1,0,0:0:0:0:
256,192,10351,1,8,0:0:0:0:
256,192,11730,1,8,0:0:0:0:
256,192,12420,1,8,0:0:0:0:
256,192,13109,1,0,0:0:0:0:
256,192,14489,1,0,0:0:0:0:
256,192,15178,1,8,0:0:0:0:
256,192,15868,1,0,0:0:0:0:
256,192,16385,1,0,0:0:0:0:
256,192,17075,1,0,0:0:0:0:
256,192,17247,1,0,0:0:0:0:
256,192,17765,1,0,0:0:0:0:
256,192,18627,1,0,0:0:0:0:
256,192,19144,1,0,0:0:0:0:
256,192,19834,1,0,0:0:0:0:
256,192,20006,1,0,0:0:0:0:
256,192,20265,1,0,0:0:0:0:
256,192,20523,1,0,0:0:0:0:
256,192,21040,1,8,0:0:0:0:
256,192,21385,1,0,0:0:0:0:
256,192,21730,1,8,0:0:0:0:
256,192,22075,1,0,0:0:0:0:
256,192,22420,1,8,0:0:0:0:
256,192,22765,1,0,0:0:0:0:
256,192,22937,1,8,0:0:0:0:
256,192,23109,1,0,0:0:0:0:
256,192,23282,1,8,0:0:0:0:
256,192,23454,1,0,0:0:0:0:
256,192,23627,1,8,0:0:0:0:
256,192,23713,1,0,0:0:0:0:
256,192,23799,1,8,0:0:0:0:
256,192,23971,1,8,0:0:0:0:
256,192,24144,1,0,0:0:0:0:
256,192,24316,1,0,0:0:0:0:
256,192,24489,1,8,0:0:0:0:
256,192,24661,1,8,0:0:0:0:
256,192,24834,1,8,0:0:0:0:
256,192,25006,1,8,0:0:0:0:
256,192,25178,1,8,0:0:0:0:
256,192,25351,1,8,0:0:0:0:
256,192,25523,1,0,0:0:0:0:
256,192,25696,1,8,0:0:0:0:
256,192,26040,1,0,0:0:0:0:
256,192,26213,1,8,0:0:0:0:
256,192,26558,1,0,0:0:0:0:
256,192,26730,1,8,0:0:0:0:
256,192,26902,1,0,0:0:0:0:
256,192,27075,12,0,29661,0:0:0:0:
256,192,32075,5,4,0:0:0:0:
256,192,32420,1,4,0:0:0:0:
256,192,35178,1,0,0:0:0:0:
256,192,35351,12,0,36902,0:0:0:0:
256,192,37247,5,8,0:0:0:0:
256,192,37334,1,8,0:0:0:0:
256,192,37420,1,0,0:0:0:0:
256,192,37506,1,8,0:0:0:0:
256,192,37592,1,0,0:0:0:0:
256,192,37937,1,4,0:0:0:0:
256,192,38109,1,8,0:0:0:0:
256,192,38196,1,8,0:0:0:0:
256,192,38282,1,0,0:0:0:0:
256,192,38368,1,8,0:0:0:0:
256,192,38454,1,8,0:0:0:0:
256,192,38540,1,8,0:0:0:0:
256,192,38627,1,0,0:0:0:0:
256,192,38670,1,0,0:0:0:0:
256,192,38799,1,8,0:0:0:0:
256,192,38842,1,8,0:0:0:0:
256,192,38971,1,0,0:0:0:0:
256,192,39029,1,0,0:0:0:0:
256,192,39086,1,0,0:0:0:0:
256,192,39144,1,8,0:0:0:0:
256,192,39230,1,8,0:0:0:0:
256,192,39316,1,0,0:0:0:0:
256,192,39402,1,8,0:0:0:0:
256,192,39489,1,8,0:0:0:0:
256,192,39575,1,8,0:0:0:0:
256,192,39661,1,0,0:0:0:0:
256,192,39719,1,0,0:0:0:0:
256,192,39776,1,0,0:0:0:0:
256,192,39834,1,8,0:0:0:0:
256,192,39891,1,8,0:0:0:0:
256,192,39948,1,8,0:0:0:0:
256,192,40006,1,0,0:0:0:0:
256,192,40092,1,0,0:0:0:0:
256,192,40178,1,8,0:0:0:0:
256,192,40265,1,8,0:0:0:0:
256,192,40351,1,0,0:0:0:0:
256,192,40408,1,0,0:0:0:0:
256,192,40466,1,0,0:0:0:0:
256,192,40523,1,8,0:0:0:0:
256,192,40609,1,8,0:0:0:0:
256,192,40696,1,0,0:0:0:0:
256,192,40753,1,8,0:0:0:0:
256,192,40811,1,8,0:0:0:0:
256,192,40868,1,0,0:0:0:0:
256,192,40954,1,0,0:0:0:0:
256,192,41040,1,8,0:0:0:0:
256,192,41098,1,8,0:0:0:0:
256,192,41155,1,8,0:0:0:0:
256,192,41213,1,0,0:0:0:0:
256,192,41299,1,8,0:0:0:0:
256,192,41385,1,0,0:0:0:0:
256,192,41500,1,0,0:0:0:0:
256,192,41615,1,0,0:0:0:0:
256,192,41730,1,8,0:0:0:0:
256,192,41902,1,8,0:0:0:0:
256,192,42075,1,0,0:0:0:0:
256,192,42161,1,8,0:0:0:0:
256,192,42247,1,8,0:0:0:0:
256,192,42334,1,0,0:0:0:0:
256,192,42420,1,8,0:0:0:0:
256,192,42506,1,8,0:0:0:0:
256,192,42592,1,0,0:0:0:0:
256,192,42765,1,8,0:0:0:0:
256,192,42937,1,0,0:0:0:0:
256,192,43109,1,8,0:0:0:0:
256,192,43454,1,4,0:0:0:0:
256,192,43626,1,8,0:0:0:0:
256,192,43713,1,8,0:0:0:0:
256,192,43799,1,0,0:0:0:0:
256,192,43885,1,8,0:0:0:0:
256,192,43971,1,8,0:0:0:0:
256,192,44057,1,8,0:0:0:0:
256,192,44144,1,0,0:0:0:0:
256,192,44187,1,0,0:0:0:0:
256,192,44316,1,8,0:0:0:0:
256,192,44359,1,8,0:0:0:0:
256,192,44488,1,0,0:0:0:0:
256,192,44546,1,0,0:0:0:0:
256,192,44603,1,0,0:0:0:0:
256,192,44661,1,8,0:0:0:0:
256,192,44747,1,8,0:0:0:0:
256,192,44833,1,0,0:0:0:0:
256,192,44920,1,8,0:0:0:0:
256,192,45006,1,0,0:0:0:0:
256,192,45092,1,0,0:0:0:0:
256,192,45178,1,8,0:0:0:0:
256,192,45236,1,0,0:0:0:0:
256,192,45293,1,0,0:0:0:0:
256,192,45351,1,8,0:0:0:0:
256,192,45437,1,0,0:0:0:0:
256,192,45523,1,0,0:0:0:0:
256,192,45609,1,8,0:0:0:0:
256,192,45695,1,8,0:0:0:0:
256,192,45782,1,8,0:0:0:0:
256,192,45868,1,0,0:0:0:0:
256,192,45925,1,8,0:0:0:0:
256,192,45983,1,8,0:0:0:0:
256,192,46040,1,0,0:0:0:0:
256,192,46126,1,0,0:0:0:0:
256,192,46213,1,8,0:0:0:0:
256,192,46270,1,8,0:0:0:0:
256,192,46328,1,8,0:0:0:0:
256,192,46385,1,8,0:0:0:0:
256,192,46443,1,8,0:0:0:0:
256,192,46500,1,8,0:0:0:0:
256,192,46558,1,0,0:0:0:0:
256,192,46730,1,8,0:0:0:0:
256,192,46816,1,8,0:0:0:0:
256,192,46902,1,0,0:0:0:0:
256,192,47017,1,0,0:0:0:0:
256,192,47132,1,0,0:0:0:0:
256,192,47247,1,8,0:0:0:0:
256,192,47419,1,8,0:0:0:0:
256,192,47592,1,0,0:0:0:0:
256,192,47678,1,8,0:0:0:0:
256,192,47765,1,8,0:0:0:0:
256,192,47851,1,0,0:0:0:0:
256,192,47937,1,0,0:0:0:0:
256,192,48023,1,0,0:0:0:0:
256,192,48109,1,8,0:0:0:0:
256,192,48282,1,8,0:0:0:0:
256,192,48454,1,0,0:0:0:0:
256,192,48627,1,8,0:0:0:0:
256,192,48799,1,8,0:0:0:0:
256,192,48971,1,4,0:0:0:0:
256,192,49143,1,8,0:0:0:0:
256,192,49230,1,8,0:0:0:0:
256,192,49316,1,0,0:0:0:0:
256,192,49402,1,8,0:0:0:0:
256,192,49488,1,8,0:0:0:0:
256,192,49574,1,8,0:0:0:0:
256,192,49661,1,0,0:0:0:0:
256,192,49704,1,0,0:0:0:0:
256,192,49833,1,8,0:0:0:0:
256,192,49876,1,8,0:0:0:0:
256,192,50005,1,0,0:0:0:0:
256,192,50063,1,0,0:0:0:0:
256,192,50120,1,0,0:0:0:0:
256,192,50178,1,8,0:0:0:0:
256,192,50264,1,8,0:0:0:0:
256,192,50350,1,0,0:0:0:0:
256,192,50437,1,8,0:0:0:0:
256,192,50523,1,0,0:0:0:0:
256,192,50609,1,0,0:0:0:0:
256,192,50695,1,8,0:0:0:0:
256,192,50753,1,8,0:0:0:0:
256,192,50811,1,8,0:0:0:0:
256,192,50868,1,0,0:0:0:0:
256,192,50954,1,0,0:0:0:0:
256,192,51040,1,8,0:0:0:0:
256,192,51126,1,0,0:0:0:0:
256,192,51212,1,8,0:0:0:0:
256,192,51299,1,8,0:0:0:0:
256,192,51385,1,0,0:0:0:0:
256,192,51442,1,0,0:0:0:0:
256,192,51500,1,0,0:0:0:0:
256,192,51557,1,8,0:0:0:0:
256,192,51643,1,8,0:0:0:0:
256,192,51730,1,0,0:0:0:0:
256,192,51787,1,0,0:0:0:0:
256,192,51845,1,0,0:0:0:0:
256,192,51902,1,8,0:0:0:0:
256,192,51960,1,8,0:0:0:0:
256,192,52017,1,8,0:0:0:0:
256,192,52075,1,0,0:0:0:0:
256,192,52247,1,8,0:0:0:0:
256,192,52334,1,8,0:0:0:0:
256,192,52419,1,0,0:0:0:0:
256,192,52534,1,0,0:0:0:0:
256,192,52649,1,0,0:0:0:0:
256,192,52765,1,8,0:0:0:0:
256,192,52937,1,8,0:0:0:0:
256,192,53109,1,0,0:0:0:0:
256,192,53196,1,0,0:0:0:0:
256,192,53282,1,8,0:0:0:0:
256,192,53368,1,0,0:0:0:0:
256,192,53454,1,8,0:0:0:0:
256,192,53540,1,8,0:0:0:0:
256,192,53627,1,0,0:0:0:0:
256,192,53799,1,8,0:0:0:0:
256,192,53971,1,0,0:0:0:0:
256,192,54144,1,8,0:0:0:0:
256,192,54489,1,4,0:0:0:0:
256,192,54661,1,8,0:0:0:0:
256,192,54748,1,0,0:0:0:0:
256,192,54834,1,0,0:0:0:0:
256,192,54920,1,8,0:0:0:0:
256,192,55006,1,8,0:0:0:0:
256,192,55092,1,8,0:0:0:0:
256,192,55179,1,0,0:0:0:0:
256,192,55222,1,0,0:0:0:0:
256,192,55351,1,8,0:0:0:0:
256,192,55394,1,8,0:0:0:0:
256,192,55523,1,0,0:0:0:0:
256,192,55581,1,0,0:0:0:0:
256,192,55638,1,0,0:0:0:0:
256,192,55696,1,8,0:0:0:0:
256,192,55782,1,8,0:0:0:0:
256,192,55868,1,0,0:0:0:0:
256,192,55954,1,8,0:0:0:0:
256,192,56040,1,0,0:0:0:0:
256,192,56127,1,0,0:0:0:0:
256,192,56213,1,8,0:0:0:0:
256,192,56270,1,8,0:0:0:0:
256,192,56328,1,8,0:0:0:0:
256,192,56385,1,0,0:0:0:0:
256,192,56472,1,0,0:0:0:0:
256,192,56558,1,8,0:0:0:0:
256,192,56644,1,0,0:0:0:0:
256,192,56730,1,8,0:0:0:0:
256,192,56817,1,8,0:0:0:0:
256,192,56903,1,0,0:0:0:0:
256,192,56960,1,0,0:0:0:0:
256,192,57018,1,0,0:0:0:0:
256,192,57075,1,0,0:0:0:0:
256,192,57132,1,0,0:0:0:0:
256,192,57190,1,0,0:0:0:0:
256,192,57247,1,8,0:0:0:0:
256,192,57334,1,8,0:0:0:0:
256,192,57420,1,0,0:0:0:0:
256,192,57506,1,0,0:0:0:0:
256,192,57592,1,8,0:0:0:0:
256,192,57678,1,0,0:0:0:0:
256,192,57765,1,8,0:0:0:0:
256,192,57851,1,8,0:0:0:0:
256,192,57937,1,0,0:0:0:0:
256,192,58052,1,0,0:0:0:0:
256,192,58167,1,0,0:0:0:0:
256,192,58282,1,8,0:0:0:0:
256,192,58454,1,8,0:0:0:0:
256,192,58627,1,0,0:0:0:0:
256,192,58713,1,8,0:0:0:0:
256,192,58799,1,8,0:0:0:0:
256,192,58885,1,0,0:0:0:0:
256,192,58971,1,8,0:0:0:0:
256,192,59058,1,8,0:0:0:0:
256,192,59144,1,0,0:0:0:0:
256,192,59317,1,8,0:0:0:0:
256,192,59402,1,0,0:0:0:0:
256,192,59489,1,0,0:0:0:0:
256,192,59575,1,8,0:0:0:0:
256,192,59661,1,0,0:0:0:0:
256,192,59747,1,8,0:0:0:0:
256,192,59834,1,8,0:0:0:0:
256,192,59920,1,8,0:0:0:0:
256,192,60006,1,0,0:0:0:0:
256,192,61385,1,8,0:0:0:0:
256,192,62765,1,0,0:0:0:0:
256,192,64144,1,8,0:0:0:0:
256,192,65523,1,0,0:0:0:0:
256,192,66902,1,0,0:0:0:0:
256,192,68282,1,0,0:0:0:0:
256,192,69661,1,8,0:0:0:0:
256,192,70351,1,8,0:0:0:0:
256,192,70696,1,8,0:0:0:0:
256,192,71040,1,4,0:0:0:0:
256,192,71558,1,0,0:0:0:0:
256,192,72247,1,0,0:0:0:0:
256,192,72420,1,0,0:0:0:0:
256,192,72937,1,0,0:0:0:0:
256,192,73627,1,0,0:0:0:0:
256,192,73799,1,0,0:0:0:0:
256,192,74316,1,0,0:0:0:0:
256,192,75006,1,0,0:0:0:0:
256,192,75178,1,0,0:0:0:0:
256,192,75437,1,0,0:0:0:0:
256,192,75696,1,0,0:0:0:0:
256,192,76213,1,8,0:0:0:0:
256,192,76558,1,0,0:0:0:0:
256,192,76902,1,8,0:0:0:0:
256,192,77247,1,0,0:0:0:0:
256,192,77592,1,8,0:0:0:0:
256,192,77937,1,0,0:0:0:0:
256,192,78109,1,8,0:0:0:0:
256,192,78282,1,0,0:0:0:0:
256,192,78454,1,8,0:0:0:0:
256,192,78627,1,0,0:0:0:0:
256,192,78799,1,8,0:0:0:0:
256,192,78885,1,0,0:0:0:0:
256,192,78971,1,8,0:0:0:0:
256,192,79144,1,8,0:0:0:0:
256,192,79316,1,0,0:0:0:0:
256,192,79489,1,0,0:0:0:0:
256,192,79661,1,8,0:0:0:0:
256,192,79834,1,8,0:0:0:0:
256,192,80006,1,8,0:0:0:0:
256,192,80178,1,8,0:0:0:0:
256,192,80351,1,8,0:0:0:0:
256,192,80523,1,8,0:0:0:0:
256,192,80696,1,0,0:0:0:0:
256,192,80954,1,8,0:0:0:0:
256,192,81040,1,8,0:0:0:0:
256,192,81213,1,0,0:0:0:0:
256,192,81299,1,0,0:0:0:0:
256,192,81385,1,8,0:0:0:0:
256,192,81558,1,8,0:0:0:0:
256,192,81730,1,8,0:0:0:0:
256,192,81816,1,0,0:0:0:0:
256,192,81902,1,8,0:0:0:0:
256,192,81989,1,8,0:0:0:0:
256,192,82075,1,4,0:0:0:0:
256,192,82247,1,8,0:0:0:0:
256,192,82334,1,8,0:0:0:0:
256,192,82420,1,0,0:0:0:0:
256,192,82592,1,8,0:0:0:0:
256,192,82765,1,0,0:0:0:0:
256,192,82937,1,8,0:0:0:0:
256,192,83023,1,0,0:0:0:0:
256,192,83109,1,0,0:0:0:0:
256,192,83282,1,8,0:0:0:0:
256,192,83454,1,0,0:0:0:0:
256,192,83540,1,0,0:0:0:0:
256,192,83627,1,8,0:0:0:0:
256,192,83713,1,8,0:0:0:0:
256,192,83799,1,0,0:0:0:0:
256,192,83971,1,8,0:0:0:0:
256,192,84144,1,0,0:0:0:0:
256,192,84402,1,8,0:0:0:0:
256,192,84489,1,0,0:0:0:0:
256,192,84661,1,0,0:0:0:0:
256,192,84747,1,0,0:0:0:0:
256,192,84834,1,8,0:0:0:0:
256,192,85006,1,8,0:0:0:0:
256,192,85092,1,0,0:0:0:0:
256,192,85178,1,8,0:0:0:0:
256,192,85351,1,0,0:0:0:0:
256,192,85437,1,8,0:0:0:0:
256,192,85523,1,8,0:0:0:0:
256,192,85696,1,8,0:0:0:0:
256,192,85868,1,0,0:0:0:0:
256,192,86040,1,8,0:0:0:0:
256,192,86127,1,8,0:0:0:0:
256,192,86213,1,0,0:0:0:0:
256,192,86385,1,0,0:0:0:0:
256,192,86471,1,0,0:0:0:0:
256,192,86558,1,8,0:0:0:0:
256,192,86730,1,0,0:0:0:0:
256,192,86816,1,8,0:0:0:0:
256,192,86902,1,0,0:0:0:0:
256,192,87075,1,0,0:0:0:0:
256,192,87247,1,8,0:0:0:0:
256,192,87334,1,0,0:0:0:0:
256,192,87420,1,8,0:0:0:0:
256,192,87506,1,8,0:0:0:0:
256,192,87592,1,0,0:0:0:0:
256,192,87765,1,0,0:0:0:0:
256,192,87937,1,8,0:0:0:0:
256,192,88109,1,0,0:0:0:0:
256,192,88282,1,8,0:0:0:0:
256,192,88454,1,8,0:0:0:0:
256,192,88540,1,0,0:0:0:0:
256,192,88627,1,8,0:0:0:0:
256,192,88799,1,0,0:0:0:0:
256,192,88885,1,0,0:0:0:0:
256,192,88971,1,8,0:0:0:0:
256,192,89144,1,8,0:0:0:0:
256,192,89316,1,0,0:0:0:0:
256,192,89402,1,0,0:0:0:0:
256,192,89489,1,8,0:0:0:0:
256,192,89575,1,8,0:0:0:0:
256,192,89661,1,0,0:0:0:0:
256,192,89834,1,8,0:0:0:0:
256,192,90006,1,8,0:0:0:0:
256,192,90178,1,0,0:0:0:0:
256,192,90351,1,8,0:0:0:0:
256,192,90609,1,0,0:0:0:0:
256,192,90696,1,8,0:0:0:0:
256,192,90868,1,8,0:0:0:0:
256,192,91040,1,8,0:0:0:0:
256,192,91213,1,8,0:0:0:0:
256,192,91299,1,0,0:0:0:0:
256,192,91385,1,8,0:0:0:0:
256,192,91558,1,8,0:0:0:0:
256,192,91730,1,0,0:0:0:0:
256,192,91989,1,8,0:0:0:0:
256,192,92075,1,0,0:0:0:0:
256,192,92247,1,8,0:0:0:0:
256,192,92420,1,8,0:0:0:0:
256,192,92506,1,8,0:0:0:0:
256,192,92592,1,0,0:0:0:0:
256,192,92765,1,8,0:0:0:0:
256,192,92937,1,0,0:0:0:0:
256,192,93023,1,0,0:0:0:0:
256,192,93109,1,8,0:0:0:0:
256,192,93196,1,0,0:0:0:0:
256,192,93282,1,8,0:0:0:0:
256,192,93454,1,0,0:0:0:0:
256,192,93540,1,0,0:0:0:0:
256,192,93627,1,8,0:0:0:0:
256,192,93799,1,0,0:0:0:0:
256,192,93971,1,8,0:0:0:0:
256,192,94144,1,8,0:0:0:0:
256,192,94230,1,0,0:0:0:0:
256,192,94316,1,8,0:0:0:0:
256,192,94402,1,8,0:0:0:0:
256,192,94489,1,0,0:0:0:0:
256,192,94661,1,8,0:0:0:0:
256,192,94747,1,0,0:0:0:0:
256,192,94834,1,0,0:0:0:0:
256,192,95006,1,8,0:0:0:0:
256,192,95178,1,0,0:0:0:0:
256,192,95351,1,0,0:0:0:0:
256,192,95437,1,0,0:0:0:0:
256,192,95523,1,8,0:0:0:0:
256,192,95609,1,0,0:0:0:0:
256,192,95696,1,8,0:0:0:0:
256,192,95782,1,8,0:0:0:0:
256,192,95868,1,0,0:0:0:0:
256,192,96040,1,0,0:0:0:0:
256,192,96127,1,0,0:0:0:0:
256,192,96213,1,8,0:0:0:0:
256,192,96385,1,8,0:0:0:0:
256,192,96471,1,0,0:0:0:0:
256,192,96558,1,8,0:0:0:0:
256,192,96730,1,8,0:0:0:0:
256,192,96902,1,0,0:0:0:0:
256,192,97075,1,8,0:0:0:0:
256,192,97161,1,8,0:0:0:0:
256,192,97247,1,0,0:0:0:0:
256,192,97420,1,0,0:0:0:0:
256,192,97506,1,8,0:0:0:0:
256,192,97592,1,0,0:0:0:0:
256,192,97765,1,0,0:0:0:0:
256,192,97937,1,8,0:0:0:0:
256,192,98196,1,0,0:0:0:0:
256,192,98282,1,8,0:0:0:0:
256,192,98454,1,0,0:0:0:0:
256,192,98540,1,0,0:0:0:0:
256,192,98627,1,8,0:0:0:0:
256,192,98799,1,0,0:0:0:0:
256,192,98971,1,8,0:0:0:0:
256,192,99144,1,0,0:0:0:0:
256,192,99230,1,0,0:0:0:0:
256,192,99316,1,8,0:0:0:0:
256,192,99402,1,0,0:0:0:0:
256,192,99575,1,8,0:0:0:0:
256,192,99661,1,0,0:0:0:0:
256,192,99834,1,0,0:0:0:0:
256,192,100006,1,8,0:0:0:0:
256,192,100178,1,0,0:0:0:0:
256,192,100265,1,0,0:0:0:0:
256,192,100351,1,8,0:0:0:0:
256,192,100523,1,0,0:0:0:0:
256,192,100609,1,0,0:0:0:0:
256,192,100696,1,8,0:0:0:0:
256,192,100782,1,0,0:0:0:0:
256,192,100954,1,8,0:0:0:0:
256,192,101040,1,0,0:0:0:0:
256,192,101127,1,0,0:0:0:0:
256,192,101213,1,8,0:0:0:0:
256,192,101385,1,8,0:0:0:0:
256,192,101558,1,0,0:0:0:0:
256,192,101730,1,8,0:0:0:0:
256,192,101902,1,8,0:0:0:0:
256,192,102075,1,8,0:0:0:0:
256,192,102247,1,8,0:0:0:0:
256,192,102420,1,8,0:0:0:0:
256,192,102592,1,8,0:0:0:0:
256,192,102678,1,8,0:0:0:0:
256,192,102765,1,0,0:0:0:0:
256,192,102937,1,0,0:0:0:0:
256,192,103109,1,8,0:0:0:0:
256,192,103282,1,0,0:0:0:0:
256,192,103454,1,8,0:0:0:0:
256,192,103627,1,0,0:0:0:0:
256,192,103713,1,0,0:0:0:0:
256,192,103799,1,8,0:0:0:0:
256,192,103885,1,8,0:0:0:0:
256,192,103971,1,8,0:0:0:0:
256,192,104058,1,8,0:0:0:0:
256,192,104144,1,4,0:0:0:0:
256,192,104316,1,8,0:0:0:0:
256,192,104374,1,8,0:0:0:0:
256,192,104431,1,8,0:0:0:0:
256,192,104489,1,0,0:0:0:0:
256,192,104661,1,8,0:0:0:0:
256,192,104834,1,0,0:0:0:0:
256,192,104920,1,0,0:0:0:0:
256,192,105006,1,8,0:0:0:0:
256,192,105092,1,8,0:0:0:0:
256,192,105178,1,0,0:0:0:0:
256,192,105351,1,8,0:0:0:0:
256,192,105437,1,8,0:0:0:0:
256,192,105523,1,0,0:0:0:0:
256,192,105696,1,0,0:0:0:0:
256,192,105753,1,8,0:0:0:0:
256,192,105811,1,8,0:0:0:0:
256,192,105868,1,0,0:0:0:0:
256,192,106040,1,8,0:0:0:0:
256,192,106213,1,0,0:0:0:0:
256,192,106385,1,8,0:0:0:0:
256,192,106471,1,0,0:0:0:0:
256,192,106558,1,8,0:0:0:0:
256,192,106730,1,0,0:0:0:0:
256,192,106816,1,8,0:0:0:0:
256,192,106902,1,8,0:0:0:0:
256,192,107075,1,0,0:0:0:0:
256,192,107132,1,0,0:0:0:0:
256,192,107190,1,0,0:0:0:0:
256,192,107247,1,8,0:0:0:0:
256,192,107420,1,8,0:0:0:0:
256,192,107592,1,0,0:0:0:0:
256,192,107765,1,0,0:0:0:0:
256,192,107851,1,8,0:0:0:0:
256,192,107937,1,0,0:0:0:0:
256,192,108109,1,8,0:0:0:0:
256,192,108282,1,0,0:0:0:0:
256,192,108454,1,8,0:0:0:0:
256,192,108540,1,8,0:0:0:0:
256,192,108627,1,8,0:0:0:0:
256,192,108799,1,8,0:0:0:0:
256,192,108885,1,8,0:0:0:0:
256,192,108971,1,8,0:0:0:0:
256,192,109144,1,8,0:0:0:0:
256,192,109316,1,8,0:0:0:0:
256,192,109489,1,8,0:0:0:0:
256,192,109661,1,0,0:0:0:0:
256,192,109834,1,8,0:0:0:0:
256,192,109891,1,0,0:0:0:0:
256,192,109948,1,0,0:0:0:0:
256,192,110006,1,8,0:0:0:0:
256,192,110092,1,0,0:0:0:0:
256,192,110178,1,8,0:0:0:0:
256,192,110351,1,0,0:0:0:0:
256,192,110437,1,0,0:0:0:0:
256,192,110523,1,8,0:0:0:0:
256,192,110696,1,8,0:0:0:0:
256,192,110868,1,0,0:0:0:0:
256,192,111040,1,8,0:0:0:0:
256,192,111127,1,8,0:0:0:0:
256,192,111213,1,0,0:0:0:0:
256,192,111270,1,0,0:0:0:0:
256,192,111328,1,0,0:0:0:0:
256,192,111385,1,8,0:0:0:0:
256,192,111558,1,8,0:0:0:0:
256,192,111730,1,0,0:0:0:0:
256,192,111902,1,0,0:0:0:0:
256,192,111989,1,0,0:0:0:0:
256,192,112075,1,8,0:0:0:0:
256,192,112161,1,0,0:0:0:0:
256,192,112247,1,8,0:0:0:0:
256,192,112334,1,8,0:0:0:0:
256,192,112420,1,0,0:0:0:0:
256,192,112592,1,8,0:0:0:0:
256,192,112650,1,0,0:0:0:0:
256,192,112707,1,0,0:0:0:0:
256,192,112765,1,8,0:0:0:0:
256,192,112937,1,8,0:0:0:0:
256,192,113109,1,8,0:0:0:0:
256,192,113282,1,8,0:0:0:0:
256,192,113368,1,0,0:0:0:0:
256,192,113454,1,8,0:0:0:0:
256,192,113627,1,8,0:0:0:0:
256,192,113799,1,0,0:0:0:0:
256,192,114058,1,8,0:0:0:0:
256,192,114144,1,0,0:0:0:0:
256,192,114316,1,8,0:0:0:0:
256,192,114489,1,0,0:0:0:0:
256,192,114661,1,8,0:0:0:0:
256,192,114747,1,0,0:0:0:0:
256,192,114834,1,8,0:0:0:0:
256,192,114920,1,8,0:0:0:0:
256,192,115006,1,0,0:0:0:0:
256,192,115178,5,4,0:0:0:0:
256,192,115696,1,8,0:0:0:0:
256,192,116213,1,8,0:0:0:0:
256,192,116385,1,0,0:0:0:0:
256,192,116558,1,0,0:0:0:0:
256,192,117075,1,0,0:0:0:0:
256,192,117247,1,8,0:0:0:0:
256,192,117420,1,8,0:0:0:0:
256,192,117592,1,0,0:0:0:0:
256,192,117937,1,4,0:0:0:0:
256,192,118282,1,4,0:0:0:0:
256,192,118627,1,8,0:0:0:0:
256,192,119316,1,4,0:0:0:0:
256,192,119661,1,4,0:0:0:0:
256,192,119834,1,8,0:0:0:0:
256,192,119920,1,8,0:0:0:0:
256,192,120006,1,8,0:0:0:0:
256,192,120178,1,8,0:0:0:0:
256,192,120351,1,8,0:0:0:0:
256,192,120523,1,0,0:0:0:0:
256,192,120609,1,0,0:0:0:0:
256,192,120696,1,8,0:0:0:0:
256,192,120868,1,8,0:0:0:0:
256,192,120925,1,8,0:0:0:0:
256,192,120983,1,0,0:0:0:0:
256,192,121040,1,8,0:0:0:0:
256,192,121213,1,8,0:0:0:0:
256,192,121299,1,8,0:0:0:0:
256,192,121385,1,0,0:0:0:0:
256,192,121558,1,8,0:0:0:0:
256,192,121730,1,0,0:0:0:0:
256,192,121816,1,0,0:0:0:0:
256,192,121902,1,8,0:0:0:0:
256,192,121989,1,8,0:0:0:0:
256,192,122075,1,0,0:0:0:0:
256,192,122247,1,0,0:0:0:0:
256,192,122305,1,8,0:0:0:0:
256,192,122362,1,8,0:0:0:0:
256,192,122420,1,0,0:0:0:0:
256,192,122592,1,8,0:0:0:0:
256,192,122765,1,0,0:0:0:0:
256,192,122851,1,0,0:0:0:0:
256,192,122937,1,0,0:0:0:0:
256,192,123023,1,0,0:0:0:0:
256,192,123109,1,8,0:0:0:0:
256,192,123282,1,8,0:0:0:0:
256,192,123454,1,0,0:0:0:0:
256,192,123627,1,8,0:0:0:0:
256,192,123684,1,8,0:0:0:0:
256,192,123742,1,8,0:0:0:0:
256,192,123799,1,0,0:0:0:0:
256,192,123971,1,12,0:0:0:0:
256,192,124316,1,12,0:0:0:0:
256,192,124661,1,12,0:0:0:0:
256,192,124834,1,0,0:0:0:0:
256,192,125178,1,8,0:0:0:0:
256,192,125523,1,8,0:0:0:0:
256,192,125696,1,0,0:0:0:0:
256,192,125782,1,0,0:0:0:0:
256,192,125868,1,8,0:0:0:0:
256,192,126040,1,8,0:0:0:0:
256,192,126213,1,4,0:0:0:0:
256,192,126471,1,8,0:0:0:0:
256,192,126558,1,0,0:0:0:0:
256,192,126730,1,8,0:0:0:0:
256,192,126902,1,0,0:0:0:0:
256,192,127075,1,8,0:0:0:0:
256,192,127161,1,8,0:0:0:0:
256,192,127247,1,0,0:0:0:0:
256,192,127420,1,8,0:0:0:0:
256,192,127592,1,0,0:0:0:0:
256,192,127851,1,8,0:0:0:0:
256,192,127937,1,0,0:0:0:0:
256,192,128109,1,8,0:0:0:0:
256,192,128282,1,0,0:0:0:0:
256,192,128368,1,0,0:0:0:0:
256,192,128454,1,0,0:0:0:0:
256,192,128627,1,8,0:0:0:0:
256,192,128971,1,0,0:0:0:0:
256,192,129316,1,8,0:0:0:0:
256,192,129661,1,8,0:0:0:0:
256,192,130006,1,8,0:0:0:0:
256,192,130696,1,8,0:0:0:0:
256,192,131040,1,8,0:0:0:0:
256,192,131385,1,8,0:0:0:0:
256,192,131730,1,8,0:0:0:0:
256,192,132075,1,8,0:0:0:0:
256,192,132765,1,8,0:0:0:0:
256,192,132937,1,8,0:0:0:0:
256,192,133109,1,8,0:0:0:0:
256,192,133454,1,8,0:0:0:0:
256,192,133799,1,8,0:0:0:0:
256,192,134144,1,8,0:0:0:0:
256,192,135006,1,8,0:0:0:0:
256,192,135178,1,8,0:0:0:0:
256,192,135868,1,8,0:0:0:0:
256,192,136385,1,8,0:0:0:0:
256,192,136902,1,8,0:0:0:0:
256,192,137247,12,0,140868,0:0:0:0:
256,192,141213,5,0,0:0:0:0:
256,192,141385,1,8,0:0:0:0:
