osu file format v14

[General]
AudioFilename: audio.mp3
AudioLeadIn: 0
PreviewTime: 81730
Countdown: 0
SampleSet: Soft
StackLeniency: 0.3
Mode: 0
LetterboxInBreaks: 0
WidescreenStoryboard: 1

[Editor]
Bookmarks: 26902,37937,43109,48799,48971,60006,71040,82075,93109,104144,115178,120696,121213,123971,126213,128971,141385
DistanceSpacing: 1
BeatDivisor: 4
GridSize: 8
TimelineZoom: 3.099999

[Metadata]
Title:NINI
TitleUnicode:ニニ
Artist:Tezuka x Qayo
ArtistUnicode:テヅカ × Qayo
Creator:Shota on osu
Version:Seolv's Hard
Source:MUSYNX
Tags:[ White Music ] [_White_Music_] milr_ gokugohan12468 [_l_u_k_a_s_] Lukas Seolv Altai Cubby Cubbby Japanese Oriental Eastern KittyAdventure instrumental lit120
BeatmapID:2206890
BeatmapSetID:1041108

[Difficulty]
HPDrainRate:5
CircleSize:3.8
OverallDifficulty:7
ApproachRate:8.2
SliderMultiplier:1.6
SliderTickRate:1

[Events]
//Background and Video events
0,0,"bg.png",0,0
//Break Periods
2,60205,68897
//Storyboard Layer 0 (Background)
//Storyboard Layer 1 (Fail)
//Storyboard Layer 2 (Pass)
//Storyboard Layer 3 (Foreground)
//Storyboard Layer 4 (Overlay)
//Storyboard Sound Samples

[TimingPoints]
4489,344.827586206897,4,2,1,60,1,0
4834,344.827586206897,4,2,1,60,1,0
4834,-133.333333333333,4,2,1,60,0,0
15868,-100,4,2,1,65,0,0
16385,-100,4,2,1,65,0,0
21385,-100,4,2,1,70,0,0
25523,-133.333333333333,4,2,1,70,0,0
26902,-200,4,2,1,50,0,0
26989,-200,4,2,1,30,0,0
32075,-100,4,2,1,70,0,0
32506,-100,4,2,1,30,0,0
36558,-100,4,2,1,50,0,0
37247,-100,4,2,1,70,0,0
37937,-83.3333333333333,4,2,1,70,0,0
69661,-133.333333333333,4,2,1,50,0,0
70264,-133.333333333333,4,2,1,70,0,0
70351,-133.333333333333,4,2,1,50,0,0
71040,-133.333333333333,4,2,1,60,0,0
75436,-133.333333333333,4,2,1,70,0,0
75695,-133.333333333333,4,2,1,60,0,0
76558,-133.333333333333,4,2,1,70,0,0
80696,-133.333333333333,4,2,1,60,0,0
81385,-133.333333333333,4,2,1,70,0,0
82075,-90.9090909090909,4,2,1,80,0,1
82850,-90.9090909090909,4,2,1,70,0,1
82937,-90.9090909090909,4,2,1,80,0,1
85437,-90.9090909090909,4,2,1,70,0,1
85523,-90.9090909090909,4,2,1,80,0,1
90609,-90.9090909090909,4,2,1,70,0,1
90696,-90.9090909090909,4,2,1,80,0,1
90954,-90.9090909090909,4,2,1,70,0,1
91040,-90.9090909090909,4,2,1,80,0,1
93885,-90.9090909090909,4,2,1,70,0,1
93972,-90.9090909090909,4,2,1,80,0,1
96471,-90.9090909090909,4,2,1,70,0,1
96558,-90.9090909090909,4,2,1,80,0,1
99229,-90.9090909090909,4,2,1,70,0,1
99316,-90.9090909090909,4,2,1,80,0,1
103799,-90.9090909090909,4,2,1,70,0,1
104144,-111.111111111111,4,2,1,80,0,0
108367,-111.111111111111,4,2,1,70,0,0
108454,-111.111111111111,4,2,1,80,0,0
108885,-111.111111111111,4,2,1,70,0,0
108971,-111.111111111111,4,2,1,80,0,0
114661,-111.111111111111,4,2,1,70,0,0
114747,-111.111111111111,4,2,1,80,0,0
114834,-111.111111111111,4,2,1,70,0,0
115178,-111.111111111111,4,2,1,60,0,0
117075,-111.111111111111,4,2,1,70,0,0
117247,-111.111111111111,4,2,1,60,0,0
117937,-111.111111111111,4,2,1,70,0,0
119144,-111.111111111111,4,2,1,60,0,0
119316,-111.111111111111,4,2,1,70,0,0
119834,-111.111111111111,4,2,1,60,0,0
120696,-111.111111111111,4,2,1,80,0,0
123195,-111.111111111111,4,2,1,70,0,0
123281,-111.111111111111,4,2,1,80,0,0
126213,-133.333333333333,4,2,1,60,0,0
127592,-133.333333333333,4,2,1,50,0,0
134488,-133.333333333333,4,2,1,70,0,0
134661,-133.333333333333,4,2,1,50,0,0
136213,-133.333333333333,4,2,1,70,0,0
136385,-133.333333333333,4,2,1,50,0,0
136729,-133.333333333333,4,2,1,70,0,0
136902,-133.333333333333,4,2,1,50,0,0
140523,-133.333333333333,4,2,1,70,0,0
140868,-133.333333333333,4,2,1,50,0,0
141212,-133.333333333333,4,2,1,70,0,0
141385,-83.3333333333333,4,2,1,50,0,0
141428,-83.3333333333333,4,2,1,70,0,0

[Colours]
Combo1 : 233,233,233
Combo2 : 255,0,0
Combo3 : 192,192,192
Combo4 : 255,0,128

[HitObjects]
355,214,4488,5,2,0:0:0:0:
340,232,4574,1,2,0:0:0:0:
333,255,4660,1,2,0:0:0:0:
335,279,4746,1,2,0:0:0:0:
342,299,4834,2,0,L|213:288,1,120.000004577637,4|2,3:1|0:0,0:0:0:0:
167,228,5351,2,0,P|167:195|184:158,1,60.0000022888184,2|0,0:0|0:0,0:0:0:0:
254,213,5696,5,2,0:0:0:0:
222,298,5868,1,2,0:0:0:0:
192,384,6040,2,0,L|311:370,1,120.000004577637,2|2,0:0|0:0,0:0:0:0:
390,358,6558,1,2,0:0:0:0:
441,292,6730,2,0,P|432:250|419:221,1,60.0000022888184,2|2,0:0|0:0,0:0:0:0:
425,234,7420,6,0,L|466:228,2,30.0000011444092,2|2|2,0:0|0:0|0:0,0:0:0:0:
354,188,7765,1,2,0:0:0:0:
351,181,7851,1,2,0:0:0:0:
347,174,7937,1,2,0:0:0:0:
289,242,8109,2,0,L|254:235,1,30.0000011444092,2|2,0:0|0:0,0:0:0:0:
245,233,8282,1,2,0:0:0:0:
191,159,8454,2,0,P|195:125|181:91,2,60.0000022888184,2|2|2,0:0|0:0|0:0,0:0:0:0:
109,217,8971,6,0,L|95:148,1,60.0000022888184,2|2,0:0|0:0,0:0:0:0:
90,141,9230,2,0,L|57:150,1,30.0000011444092,2|2,0:0|0:0,0:0:0:0:
65,52,9489,2,0,L|32:61,1,30.0000011444092,2|2,0:0|0:0,0:0:0:0:
37,72,9661,2,0,L|106:58,2,60.0000022888184,2|2|2,0:0|0:0|0:0,0:0:0:0:
61,148,10178,6,0,L|55:190,1,30.0000011444092,2|2,0:0|0:0,0:0:0:0:
53,194,10351,1,2,0:0:0:0:
116,238,10523,2,0,P|147:224|185:226,1,60.0000022888184,2|2,0:0|0:0,0:0:0:0:
231,273,10868,1,2,0:0:0:0:
277,338,11040,2,0,L|336:327,1,60.0000022888184,2|2,0:0|0:0,0:0:0:0:
426,325,11385,2,0,L|499:338,2,60.0000022888184,2|2|2,0:0|0:0|0:0,0:0:0:0:
404,230,11902,6,0,P|412:180|405:150,2,60.0000022888184,2|2|2,0:0|0:0|0:0,0:0:0:0:
286,223,12420,1,2,0:0:0:0:
284,216,12592,2,0,P|283:186|290:157,2,60.0000022888184,2|2|2,0:0|0:0|0:0,0:0:0:0:
208,310,13109,6,0,L|135:300,1,60.0000022888184,2|0,0:0|0:0,0:0:0:0:
48,242,13454,2,0,L|121:232,1,60.0000022888184,2|0,0:0|0:0,0:0:0:0:
219,214,13799,1,2,0:0:0:0:
166,143,13971,1,2,0:0:0:0:
160,150,14058,1,2,0:0:0:0:
154,155,14144,2,0,P|162:123|148:82,1,60.0000022888184,2|2,0:0|0:0,0:0:0:0:
79,47,14489,5,4,0:2:0:0:
79,47,15178,2,0,L|217:33,1,120.000004577637,2|2,0:0|0:0,0:0:0:0:
289,84,15696,6,0,L|284:134,1,30.0000011444092,2|2,0:0|0:0,0:0:0:0:
283,133,15868,2,0,L|388:119,1,80,6|2,3:2|0:0,0:0:0:0:
477,120,16213,1,2,0:0:0:0:
436,46,16385,2,0,P|448:159|463:221,1,160,2|2,3:2|0:0,0:0:0:0:
508,274,16902,1,2,0:0:0:0:
409,356,17075,1,2,3:2:0:0:
415,281,17247,6,0,P|365:271|304:268,1,80,0|2,3:2|0:0,0:0:0:0:
288,358,17592,1,2,0:0:0:0:
325,252,17765,2,0,P|275:262|214:265,1,80,2|2,3:2|0:0,0:0:0:0:
245,266,18454,5,2,0:0:0:0:
237,256,18540,1,2,0:0:0:0:
232,247,18627,2,0,L|243:149,1,80,6|2,3:2|0:0,0:0:0:0:
230,153,18885,2,0,L|223:207,1,40,2|2,0:0|0:0,0:0:0:0:
348,195,19144,2,0,L|353:155,1,40,2|2,3:2|0:0,0:0:0:0:
356,139,19316,1,2,0:0:0:0:
274,59,19489,2,0,P|223:47|187:63,1,80,2|2,0:0|0:0,0:0:0:0:
139,141,19834,1,2,3:2:0:0:
0,81,20006,6,0,L|9:166,1,80,2|2,3:2|0:0,0:0:0:0:
13,186,20265,2,0,L|22:271,1,80,2|0,3:2|0:0,0:0:0:0:
25,280,20523,1,2,3:2:0:0:
121,332,20696,2,0,P|136:279|114:241,1,80,2|2,0:0|0:0,0:0:0:0:
212,200,21040,2,0,P|173:160|127:160,1,80,2|2,3:3|0:0,0:0:0:0:
130,159,21299,1,2,0:0:0:0:
115,170,21385,5,2,3:2:0:0:
293,127,21730,1,2,3:3:0:0:
156,337,22075,5,2,3:2:0:0:
334,294,22420,1,2,3:3:0:0:
163,207,22765,5,2,3:2:0:0:
247,188,22937,2,0,P|245:149|254:96,1,80,2|2,0:3|3:2,0:0:0:0:
298,39,23282,2,0,P|330:17|381:0,1,80,2|2,0:3|3:2,0:3:0:0:
458,4,23627,1,2,0:3:0:0:
497,78,23799,1,2,3:3:0:0:
412,164,23971,1,2,3:3:0:0:
373,87,24144,6,0,L|397:252,1,160,2|2,3:2|3:3,0:0:0:0:
417,331,24661,1,2,0:3:0:0:
473,273,24834,1,2,3:3:0:0:
412,340,25006,1,2,0:3:0:0:
326,296,25178,2,0,P|325:344|306:375,1,80,2|2,3:3|0:3,0:0:0:0:
228,312,25523,5,2,3:2:0:0:
221,301,25696,2,0,L|242:172,1,120.000004577637,0|0,0:0|3:2,0:0:0:0:
267,53,26213,2,0,P|253:84|261:135,1,60.0000022888184,0|0,1:2|0:0,0:0:0:0:
320,152,26558,1,0,0:0:0:0:
382,105,26730,1,0,1:2:0:0:
385,114,26902,5,4,3:2:0:0:
383,132,29661,2,0,B|399:102|377:49|317:57|283:77|270:118|277:177|310:206|339:228|402:224,1,320,6|2,0:2|0:0,0:0:0:0:
391,224,32075,6,0,P|306:206|211:217,1,160,0|2,3:2|3:2,0:0:0:0:
135,312,32765,1,0,0:0:0:0:
244,368,33109,1,0,0:0:0:0:
240,359,33282,2,0,L|245:319,2,40
56,320,33799,5,0,0:0:0:0:
136,262,34144,1,0,0:0:0:0:
148,163,34489,1,0,0:0:0:0:
132,76,34834,1,0,0:0:0:0:
151,81,35006,1,0,0:0:0:0:
169,78,35178,1,2,0:0:0:0:
255,357,36558,6,0,P|274:260|325:232,1,160,2|0,0:0|0:0,0:0:0:0:
466,316,37247,2,0,P|474:334|477:356,3,40,2|2|2|2,0:0|0:0|0:0|0:0,0:0:0:0:
456,340,37592,2,0,L|343:331,1,80,2|0,1:2|0:0,0:0:0:0:
252,327,37937,6,0,B|261:354|261:354|290:305|254:221,1,143.999995605469,0|0,3:2|0:0,0:0:0:0:
257,232,38282,2,0,P|286:225|314:208,1,47.9999985351563,0|0,1:2|0:0,0:0:0:0:
316,206,38454,2,0,P|324:177|322:148,1,47.9999985351563
321,145,38627,1,0,3:2:0:0:
229,127,38799,1,0,0:0:0:0:
168,200,38971,2,0,P|163:253|196:304,1,95.9999970703126,0|0,1:2|0:0,0:0:0:0:
190,300,39230,1,0,0:0:0:0:
199,308,39316,6,0,B|82:302|82:302|75:307|75:307|-6:302,1,191.999994140625,0|0,3:2|1:2,0:0:0:0:
9,303,40006,2,0,L|16:240,1,47.9999985351563,0|2,3:2|0:0,0:0:0:0:
16,242,40178,2,0,L|23:179,1,47.9999985351563,2|2,0:0|0:0,0:0:0:0:
23,180,40351,1,0,1:2:0:0:
23,180,40696,6,0,B|132:195|67:116|226:139,1,191.999994140625,0|0,3:2|1:2,0:0:0:0:
302,171,41213,1,0,0:0:0:0:
308,157,41299,1,0,0:0:0:0:
315,144,41385,2,0,L|310:76,2,63.9999980468751,0|0|0,3:2|0:0|0:0,0:0:0:0:
380,192,41730,2,0,P|424:171|479:174,1,95.9999970703126,0|0,1:2|0:0,0:0:0:0:
450,296,42075,6,0,L|443:379,3,47.9999985351563,0|0|0|0,3:2|0:0|0:0|0:0,0:0:0:0:
434,347,42420,2,0,L|443:232,1,95.9999970703126,0|0,1:2|0:0,0:0:0:0:
279,384,42937,1,0,3:2:0:0:
351,338,43109,2,0,L|358:242,1,95.9999970703126,0|0,1:2|0:0,0:0:0:0:
260,193,43454,6,0,B|183:196|183:196|127:166,1,95.9999970703126,0|0,3:2|0:0,0:0:0:0:
40,124,43799,2,0,L|43:190,1,47.9999985351563,0|0,1:2|0:0,0:0:0:0:
44,194,43971,2,0,L|47:260,1,47.9999985351563
46,267,44144,1,0,3:2:0:0:
129,306,44316,1,0,0:0:0:0:
221,326,44488,2,0,P|201:282|207:235,1,95.9999970703126,0|0,1:2|0:0,0:0:0:0:
215,220,44747,1,0,0:0:0:0:
225,210,44833,6,0,B|308:250|308:250|415:215,1,191.999994140625,0|0,3:2|1:2,0:0:0:0:
508,106,45523,2,0,L|501:169,1,47.9999985351563,0|0,3:2|0:0,0:0:0:0:
501,167,45695,2,0,L|494:230,1,47.9999985351563
494,229,45868,1,0,1:2:0:0:
382,351,46213,6,0,B|332:328|321:279|321:279|298:337|240:355,1,191.999994140625,0|0,3:2|1:2,0:0:0:0:
176,292,46730,1,0,0:0:0:0:
170,278,46816,1,0,0:0:0:0:
163,265,46902,2,0,P|160:223|174:198,2,63.9999980468751,0|0|0,3:2|0:0|0:0,0:0:0:0:
102,328,47247,2,0,P|55:347|0:336,1,95.9999970703126,0|0,1:2|0:0,0:0:0:0:
3,223,47592,6,0,L|8:176,3,47.9999985351563,0|0|2|0,3:2|0:0|0:0|0:0,0:0:0:0:
21,227,47937,2,0,L|30:112,1,95.9999970703126,0|2,1:2|0:0,0:0:0:0:
39,27,48282,1,2,3:2:0:0:
190,162,48627,5,4,1:2:0:0:
177,65,48799,1,0,0:0:0:0:
189,174,48971,6,0,B|235:161|251:129|251:129|292:135|337:167,1,143.999995605469,4|0,3:2|0:0,0:0:0:0:
323,159,49316,2,0,P|333:180|338:204,1,47.9999985351563,0|0,1:2|0:0,0:0:0:0:
341,225,49488,2,0,P|340:248|333:271,1,47.9999985351563
323,298,49661,1,0,3:2:0:0:
425,284,49833,1,0,0:0:0:0:
512,272,50005,2,0,P|492:228|498:181,1,95.9999970703126,0|0,1:2|0:0,0:0:0:0:
508,168,50264,1,0,0:0:0:0:
512,155,50351,6,0,B|379:164|379:164|344:97,1,191.999994140625,0|0,3:2|1:2,0:0:0:0:
216,13,51040,2,0,L|209:76,1,47.9999985351563,0|2,3:2|0:0,0:0:0:0:
209,74,51212,2,0,L|202:137,1,47.9999985351563,2|2,0:0|0:0,0:0:0:0:
202,136,51385,1,0,1:2:0:0:
85,255,51730,6,0,B|52:226|52:226|222:235,1,191.999994140625,0|0,3:2|1:2,0:0:0:0:
301,240,52247,1,0,0:0:0:0:
307,226,52333,1,0,0:0:0:0:
314,213,52420,2,0,L|309:145,2,63.9999980468751,0|0|0,3:2|0:0|0:0,0:0:0:0:
391,255,52764,2,0,P|435:234|490:237,1,95.9999970703126,0|0,1:2|0:0,0:0:0:0:
511,328,53109,6,0,L|504:411,3,47.9999985351563,0|0|0|0,3:2|0:0|0:0|0:0,0:0:0:0:
497,375,53454,2,0,L|506:260,1,95.9999970703126,0|0,1:2|0:0,0:0:0:0:
435,217,53799,2,0,L|442:121,1,95.9999970703126,0|0,3:2|3:2,0:0:0:0:
386,41,54143,1,0,1:2:0:0:
325,186,54489,6,0,P|262:191|219:164,1,95.9999970703126,0|0,3:2|0:0,0:0:0:0:
179,83,54833,2,0,L|113:86,1,47.9999985351563,0|0,1:2|0:0,0:0:0:0:
109,87,55005,2,0,L|43:90,1,47.9999985351563
36,89,55178,1,0,3:2:0:0:
24,183,55350,1,0,0:0:0:0:
19,286,55523,2,0,B|59:268|59:268|110:272,1,95.9999970703126,0|0,1:2|0:0,0:0:0:0:
124,277,55781,1,0,0:0:0:0:
139,281,55868,6,0,L|134:233,4,47.9999985351563,0|0|0|0|0,3:2|0:0|0:0|0:0|1:2,0:0:0:0:
243,359,56557,2,0,L|250:296,1,47.9999985351563,0|0,3:2|0:0,0:0:0:0:
250,298,56729,2,0,L|257:235,1,47.9999985351563
257,236,56902,1,0,1:2:0:0:
143,99,57247,6,0,B|258:94|197:168|320:166,1,191.999994140625,0|0,3:2|1:2,0:0:0:0:
394,118,57764,1,0,0:0:0:0:
388,104,57850,1,0,0:0:0:0:
381,91,57937,2,0,P|378:49|392:24,2,63.9999980468751,0|0|0,3:2|0:0|0:0,0:0:0:0:
464,165,58282,2,0,P|474:213|456:262,1,95.9999970703126,0|0,1:2|0:0,0:0:0:0:
363,297,58626,6,0,L|316:292,3,47.9999985351563,0|0|0|0,3:2|0:0|0:0|0:0,0:0:0:0:
367,279,58971,2,0,L|252:270,1,95.9999970703126,0|0,1:2|0:0,0:0:0:0:
186,248,59316,1,2,0:0:0:0:
208,218,59402,1,2,0:0:0:0:
213,180,59488,1,2,3:2:0:0:
200,144,59574,1,2,0:0:0:0:
177,113,59661,2,0,L|127:116,4,47.9999985351563,2|2|2|2|6,0:0|0:0|0:0|0:0|0:0,0:0:0:0:
108,339,69661,6,0,P|128:294|114:251,1,90.0000034332277,2|0,0:0|0:0,0:0:0:0:
97,232,70006,2,0,P|87:188|106:149,1,90.0000034332277,2|0,0:0|0:0,0:0:0:0:
128,133,70351,1,2,0:0:0:0:
270,212,70696,1,2,0:0:0:0:
394,128,71040,5,4,3:2:0:0:
394,128,71558,1,0,0:0:0:0:
394,128,72075,2,0,P|381:83|394:48,1,60.0000022888184,2|0,0:0|0:0,0:0:0:0:
491,130,72420,6,0,L|485:256,1,120.000004577637,2|0,0:0|0:0,0:0:0:0:
407,248,72937,2,0,L|412:128,1,120.000004577637
419,49,73454,1,0,0:0:0:0:
309,60,73627,1,0,3:2:0:0:
201,75,73799,6,0,P|221:122|197:183,1,120.000004577637,6|0,3:2|0:0,0:0:0:0:
108,179,74316,2,0,P|88:132|112:71,1,120.000004577637
156,5,74834,2,0,L|240:-3,1,60.0000022888184,2|0,0:0|0:0,0:0:0:0:
306,48,75178,6,0,L|415:61,2,90.0000034332277,2|0|0,0:0|0:0|0:0,0:0:0:0:
233,106,75868,2,0,P|249:142|245:177,1,60.0000022888184,2|0,0:0|0:0,0:0:0:0:
190,223,76213,1,2,3:3:0:0:
199,217,76558,6,0,L|296:207,1,90.0000034332277,4|0,3:2|0:0,0:0:0:0:
312,211,76902,2,0,P|330:170|326:145,1,60.0000022888184,2|0,1:3|0:0,0:0:0:0:
248,254,77247,6,0,L|258:351,1,90.0000034332277,4|0,3:2|0:0,0:0:0:0:
254,367,77592,2,0,P|295:385|320:381,1,60.0000022888184,2|0,1:3|0:0,0:0:0:0:
372,295,77937,5,4,3:2:0:0:
472,362,78109,2,0,L|459:291,1,60.0000022888184,2|0,0:3|1:2,0:0:0:0:
425,221,78454,2,0,L|435:161,1,60.0000022888184,2|4,0:3|3:2,0:0:0:0:
399,69,78799,1,2,0:3:0:0:
383,74,78885,1,0,0:0:0:0:
367,78,78971,1,2,1:3:0:0:
275,33,79144,1,2,0:3:0:0:
216,106,79316,6,0,P|237:129|246:202,1,90.0000034332277,4|0,3:2|0:0,0:0:0:0:
245,207,79661,1,2,3:3:0:0:
150,207,79834,1,2,3:3:0:0:
54,206,80006,1,2,3:3:0:0:
149,221,80178,5,2,3:3:0:0:
137,117,80351,1,2,3:3:0:0:
123,21,80523,1,2,3:3:0:0:
221,52,80696,5,2,0:0:0:0:
221,52,81040,5,2,0:0:0:0:
221,52,81385,5,2,0:0:0:0:
221,52,81730,5,6,1:2:0:0:
250,52,81816,1,2,0:0:0:0:
280,53,81902,1,2,0:0:0:0:
310,54,81988,1,2,0:0:0:0:
340,55,82074,1,4,3:1:0:0:
401,141,82247,5,2,0:0:0:0:
361,215,82420,1,2,1:2:0:0:
277,211,82592,2,0,P|215:188|126:200,1,132.00000402832,2|0,0:0|0:0,0:0:0:0:
112,201,82937,1,2,0:0:0:0:
133,112,83109,1,2,1:2:0:0:
212,155,83282,6,0,P|277:158|370:89,1,176.000005371094,2|2,0:0|0:0,0:0:0:0:
436,34,83799,2,0,L|448:121,1,88.000002685547,2|2,1:2|0:0,0:0:0:0:
502,195,84144,2,0,L|482:387,1,176.000005371094,2|0,3:2|1:2,0:0:0:0:
379,384,84661,5,2,0:0:0:0:
376,370,84747,1,2,0:0:0:0:
375,358,84834,1,2,3:2:0:0:
277,350,85006,2,0,L|221:346,2,44.0000013427735,2|2|2,0:0|0:0|1:2,0:0:0:0:
324,274,85351,2,0,L|320:230,1,44.0000013427735,2|0,0:0|0:0,0:0:0:0:
318,214,85523,1,2,3:2:0:0:
395,152,85696,2,0,L|492:156,2,88.000002685547,2|2|2,0:0|1:2|0:0,0:0:0:0:
319,116,86213,5,2,3:2:0:0:
238,167,86385,1,2,0:0:0:0:
238,154,86471,1,2,0:0:0:0:
236,139,86558,1,2,1:2:0:0:
156,95,86730,2,0,L|152:151,2,44.0000013427735,2|2|2,0:0|0:0|3:2,0:0:0:0:
72,46,87075,1,2,0:0:0:0:
0,110,87247,1,2,1:3:0:0:
55,190,87420,2,0,L|66:232,1,44.0000013427735,2|2,0:0|0:0,0:0:0:0:
92,230,87592,6,0,L|69:142,2,88.000002685547,2|2|2,3:2|0:0|1:2,0:0:0:0:
124,316,88109,1,2,0:0:0:0:
210,270,88282,2,0,P|263:273|330:281,1,88.000002685547,2|2,3:2|0:0,0:0:0:0:
357,349,88627,2,0,P|410:346|477:338,1,88.000002685547,2|2,1:2|0:0,0:0:0:0:
496,249,88971,5,2,3:2:0:0:
421,204,89144,1,2,0:3:0:0:
357,268,89316,1,2,1:2:0:0:
422,217,89489,2,0,P|436:175|437:119,1,88.000002685547,2|2,0:3|3:2,0:0:0:0:
316,117,89834,2,0,P|301:158|301:215,2,88.000002685547,2|2|2,0:0|1:2|0:0,0:0:0:0:
399,102,90351,6,0,P|338:78|307:21,1,132.00000402832,2|0,3:2|0:0,0:0:0:0:
277,0,90696,2,0,P|237:64|162:78,1,132.00000402832,2|0,1:3|0:0,0:0:0:0:
157,76,91040,1,2,3:3:0:0:
105,159,91213,1,2,0:3:0:0:
107,172,91299,1,2,0:0:0:0:
108,187,91385,1,2,1:3:0:0:
189,222,91558,1,2,2:2:0:0:
121,311,91730,6,0,B|195:303|195:303|204:312|204:312|297:304,1,176.000005371094,0|0,3:2|1:2,0:0:0:0:
371,350,92247,1,2,0:0:0:0:
436,294,92420,2,0,L|430:251,2,44.0000013427735,2|2|2,3:2|0:0|0:0,0:0:0:0:
500,355,92765,1,2,1:3:0:0:
512,270,92937,5,2,0:0:0:0:
510,260,93023,1,2,0:0:0:0:
510,249,93109,1,4,3:1:0:0:
429,211,93282,1,2,0:0:0:0:
353,264,93455,1,2,1:2:0:0:
277,207,93627,2,0,L|126:196,1,132.00000402832,2|0,0:0|0:0,0:0:0:0:
115,195,93972,1,2,0:0:0:0:
69,112,94144,1,2,1:2:0:0:
132,42,94317,6,0,P|217:45|277:107,1,176.000005371094,2|2,0:0|0:0,0:0:0:0:
288,192,94834,1,2,1:2:0:0:
375,211,95006,1,2,0:0:0:0:
420,124,95179,2,0,L|400:316,1,176.000005371094,2|0,3:2|1:2,0:0:0:0:
315,372,95696,5,2,0:0:0:0:
313,353,95782,1,2,0:0:0:0:
311,338,95869,1,2,3:2:0:0:
218,311,96040,2,0,L|162:307,2,44.0000013427735,2|2|2,0:0|0:0|1:2,0:0:0:0:
286,242,96385,2,0,L|342:246,1,44.0000013427735,2|0,0:0|0:0,0:0:0:0:
345,246,96558,1,2,3:2:0:0:
404,159,96731,2,0,P|414:116|394:78,2,88.000002685547,2|2|2,0:0|1:2|0:0,0:0:0:0:
313,129,97248,5,2,3:2:0:0:
260,44,97420,1,2,0:0:0:0:
268,38,97506,1,2,0:0:0:0:
279,30,97592,2,0,L|366:39,1,88.000002685547,2|2,1:2|0:0,0:0:0:0:
454,84,97937,1,2,3:2:0:0:
471,168,98110,1,2,0:0:0:0:
421,237,98282,1,2,1:3:0:0:
339,262,98455,2,0,L|296:250,1,44.0000013427735,2|2,0:0|0:0,0:0:0:0:
288,272,98627,6,0,L|375:296,1,88.000002685547,2|0,3:2|0:0,0:0:0:0:
459,333,98971,2,0,P|359:352|328:369,1,132.00000402832,2|0,1:2|0:0,0:0:0:0:
301,383,99316,2,0,P|232:375|201:354,1,88.000002685547,2|0,3:2|0:0,0:0:0:0:
145,295,99661,1,2,1:2:0:0:
193,219,99834,1,0,0:0:0:0:
108,153,100006,6,0,P|180:164|272:91,1,176.000005371094,2|2,3:2|1:2,0:0:0:0:
280,25,100523,1,2,0:0:0:0:
367,14,100696,2,0,L|454:26,1,88.000002685547,2|0,3:2|0:0,0:0:0:0:
470,42,100954,2,0,L|414:35,1,44.0000013427735,0|2,0:0|1:2,0:0:0:0:
331,85,101213,1,2,0:0:0:0:
253,137,101385,6,0,L|249:258,1,88.000002685547,2|2,3:2|3:3,0:0:0:0:
244,323,101730,1,2,1:3:0:0:
153,302,101902,1,2,3:3:0:0:
76,356,102075,1,2,3:3:0:0:
23,285,102247,1,2,3:3:0:0:
79,219,102420,2,0,L|68:131,1,88.000002685547,2|2,1:3|3:3,0:0:0:0:
67,118,102678,1,0,3:2:0:0:
65,104,102765,5,2,1:3:0:0:
65,104,103109,5,2,1:3:0:0:
65,104,103454,5,2,1:3:0:0:
65,104,103799,6,0,L|134:98,1,44.0000013427735,6|2,1:2|0:0,0:0:0:0:
129,98,103971,2,0,L|198:92,1,44.0000013427735,2|2,3:2|0:0,0:0:0:0:
188,93,104144,2,0,P|257:100|305:168,1,143.999995605469,4|0,3:1|1:2,0:0:0:0:
282,272,104661,2,0,P|261:251|251:195,1,71.9999978027344,2|0,0:0|3:2,0:0:0:0:
315,162,105006,2,0,P|322:133|366:96,1,71.9999978027344,2|0,0:0|1:2,0:0:0:0:
445,109,105351,1,2,0:0:0:0:
465,209,105523,6,0,L|369:210,1,71.9999978027344,2|2,3:2|0:0,0:0:0:0:
394,224,105782,2,0,L|442:223,1,35.9999989013672,2|2,0:0|1:2,0:0:0:0:
315,225,106040,2,0,P|282:260|290:351,1,143.999995605469,2|2,0:0|0:0,0:0:0:0:
289,350,106730,1,2,0:0:0:0:
210,361,106902,6,0,L|104:373,1,71.9999978027344,2|2,3:2|0:0,0:0:0:0:
124,368,107161,1,2,0:0:0:0:
110,366,107247,1,0,1:2:0:0:
35,328,107420,2,0,P|20:293|19:247,1,71.9999978027344,2|0,0:0|3:2,0:0:0:0:
84,209,107765,2,0,P|99:174|100:128,1,71.9999978027344,2|0,0:0|1:2,0:0:0:0:
37,54,108109,6,0,L|172:47,1,107.999996704102,2|0,0:0|0:0,0:0:0:0:
163,48,108454,2,0,L|172:0,2,35.9999989013672,2|2|2,0:0|0:0|1:2,0:0:0:0:
206,113,108799,1,2,0:0:0:0:
217,117,108885,1,0,0:0:0:0:
229,121,108971,2,0,P|239:187|185:252,1,143.999995605469,2|2,3:2|1:3,0:0:0:0:
11,248,109661,6,0,B|83:255|83:255|128:323,1,143.999995605469,2|0,3:2|1:3,0:0:0:0:
157,384,110178,2,0,L|222:343,1,71.9999978027344,2|0,0:0|3:2,0:0:0:0:
285,294,110523,2,0,L|350:253,1,71.9999978027344,2|2,0:0|1:3,0:0:0:0:
414,222,110868,1,2,0:0:0:0:
393,138,111040,6,0,P|367:126|297:139,1,71.9999978027344,2|2,3:2|0:3,0:0:0:0:
302,139,111299,2,0,L|256:135,1,35.9999989013672,2|2,0:0|1:2,0:0:0:0:
214,66,111557,2,0,P|229:134|188:191,1,143.999995605469,2|2,0:3|0:3,0:0:0:0:
108,229,112075,2,0,P|85:284|94:311,1,71.9999978027344,2|2,1:3|0:3,0:0:0:0:
168,366,112419,6,0,L|274:354,1,71.9999978027344,2|2,3:2|0:0,0:0:0:0:
255,355,112678,1,2,0:0:0:0:
271,352,112764,1,2,1:3:0:0:
321,281,112937,2,0,P|306:246|305:200,1,71.9999978027344,2|2,0:3|3:3,0:0:0:0:
385,195,113282,2,0,P|400:230|401:276,1,71.9999978027344,2|2,0:3|1:3,0:0:0:0:
371,347,113627,1,2,0:3:0:0:
279,368,113799,6,0,L|172:350,1,107.999996704102,2|0,3:2|0:0,0:0:0:0:
150,349,114144,2,0,P|173:300|150:240,1,107.999996704102,2|0,1:2|0:0,0:0:0:0:
149,241,114489,1,2,3:2:0:0:
233,192,114661,1,0,0:0:0:0:
237,180,114747,1,0,3:2:0:0:
243,169,114834,2,0,L|278:170,2,35.9999989013672,2|2|2,1:3|0:0|3:2,0:0:0:0:
149,129,115178,6,0,B|140:-16|140:-16|87:33,2,215.999993408203,6|0|0,3:2|0:0|0:0,0:0:0:0:
99,218,116385,1,0,0:0:0:0:
108,227,116558,2,0,B|224:205|176:325|332:271,1,215.999993408203,2|0,0:0|0:0,0:0:0:0:
394,265,117247,2,0,P|374:309|377:347,1,71.9999978027344,2|0,0:0|0:0,0:0:0:0:
450,368,117592,1,0,0:0:0:0:
494,69,117937,6,0,L|506:238,1,143.999995605469,6|4,3:2|3:2,0:0:0:0:
494,69,119144,5,0,0:0:0:0:
415,135,119316,2,0,B|350:97|350:97|259:95,1,143.999995605469,4|4,3:2|3:2,0:0:0:0:
213,152,119834,2,0,L|162:150,1,35.9999989013672,2|2,0:0|0:0,0:0:0:0:
165,151,120006,1,2,3:2:0:0:
98,107,120178,1,2,0:0:0:0:
44,169,120351,1,2,1:3:0:0:
87,237,120523,5,2,0:0:0:0:
90,247,120609,1,2,0:0:0:0:
94,256,120696,2,0,L|263:249,1,143.999995605469,2|2,3:2|1:3,0:0:0:0:
348,326,121213,2,0,P|327:305|317:249,1,71.9999978027344,2|0,0:0|3:2,0:0:0:0:
326,186,121558,2,0,P|333:157|377:120,1,71.9999978027344,2|2,0:0|1:3,0:0:0:0:
410,47,121902,6,0,L|424:205,1,143.999995605469,2|2,0:0|3:3,0:0:0:0:
426,281,122420,1,2,1:2:0:0:
427,371,122592,1,2,3:3:0:0:
336,369,122765,2,0,L|270:360,3,35.9999989013672,0|0|2|0,3:2|3:2|3:3|3:2,0:0:0:0:
266,345,123109,2,0,L|200:354,3,35.9999989013672,2|0|2|0,1:3|0:0|3:3|3:2,0:0:0:0:
209,352,123454,5,0,1:2:0:0:
215,263,123627,1,0,3:2:0:0:
219,249,123713,1,2,3:2:0:0:
221,234,123799,1,2,1:3:0:0:
290,175,123971,2,0,P|347:214|438:195,2,143.999995605469,2|2|2,1:3|1:3|1:3,0:0:0:0:
257,81,124834,5,4,1:2:0:0:
257,81,125178,5,2,1:2:0:0:
256,81,125523,5,2,1:2:0:0:
186,114,125696,1,0,3:2:0:0:
175,112,125782,1,0,3:2:0:0:
161,108,125868,1,2,3:3:0:0:
254,273,126213,6,0,P|165:275|93:327,2,180.000006866455,4|2|2,3:1|0:0|1:2,0:0:0:0:
401,309,127592,6,0,P|351:314|289:148,1,240.000009155274,2|0,3:2|3:2,0:0:0:0:
327,114,128454,1,0,0:0:0:0:
337,99,128540,1,0,0:0:0:0:
341,82,128627,1,0,1:2:0:0:
280,21,128799,1,0,0:0:0:0:
206,73,128971,6,0,B|11:75|11:75|42:121,1,240.000009155274,6|2,0:2|0:0,0:0:0:0:
99,228,130006,1,2,0:0:0:0:
99,228,130696,6,0,P|161:231|204:278,1,120.000004577637,2|2,0:0|0:0,0:0:0:0:
278,376,131385,1,2,0:0:0:0:
392,304,131730,6,0,L|405:168,1,120.000004577637,2|2,0:0|0:0,0:0:0:0:
403,184,132765,1,2,0:0:0:0:
341,134,132937,1,2,0:0:0:0:
359,54,133109,5,6,0:2:0:0:
359,54,133454,5,2,0:0:0:0:
359,54,133799,5,2,0:0:0:0:
359,54,134144,6,0,B|337:99|337:99|279:138,1,120.000004577637,2|0,0:0|0:0,0:0:0:0:
332,226,134661,2,0,B|282:230|282:230|219:199,1,120.000004577637,2|2,0:0|0:0,0:0:0:0:
193,119,135178,1,2,0:0:0:0:
116,345,135868,5,2,0:0:0:0:
239,374,136213,1,0,0:0:0:0:
239,374,136385,2,0,L|221:253,1,120.000004577637,2|0,0:0|0:0,0:0:0:0:
256,192,136902,12,0,140523,0:0:0:0:
279,184,140868,6,0,B|245:167|245:167|234:212|252:271,1,120.000004577637
338,322,141385,6,0,L|390:312,1,47.9999985351563,0|2,0:0|0:0,0:0:0:0:
