osu file format v14

[General]
AudioFilename: audio.mp3
AudioLeadIn: 0
PreviewTime: 81730
Countdown: 0
SampleSet: Soft
StackLeniency: 0.7
Mode: 0
LetterboxInBreaks: 0
WidescreenStoryboard: 1

[Editor]
Bookmarks: 60006,69661
DistanceSpacing: 0.2
BeatDivisor: 4
GridSize: 4
TimelineZoom: 3.099999

[Metadata]
Title:NINI
TitleUnicode:ニニ
Artist:Tezuka x Qayo
ArtistUnicode:テヅカ × Qayo
Creator:Shota on osu
Version:KittyAdventure's Normal
Source:MUSYNX
Tags:[ White Music ] [_White_Music_] milr_ gokugohan12468 [_l_u_k_a_s_] Lukas Seolv Altai Cubby Cubbby Japanese Oriental Eastern KittyAdventure instrumental lit120
BeatmapID:2240235
BeatmapSetID:1041108

[Difficulty]
HPDrainRate:4
CircleSize:3
OverallDifficulty:4
ApproachRate:5
SliderMultiplier:1.00000000596046
SliderTickRate:1

[Events]
//Background and Video events
0,0,"bg.png",0,0
//Break Periods
2,60206,68461
//Storyboard Layer 0 (Background)
//Storyboard Layer 1 (Fail)
//Storyboard Layer 2 (Pass)
//Storyboard Layer 3 (Foreground)
//Storyboard Layer 4 (Overlay)
//Storyboard Sound Samples

[TimingPoints]
4489,344.827586206897,4,2,1,60,1,0
4834,344.827586206897,4,2,1,60,1,0
15868,-100,4,2,1,65,0,0
21385,-100,4,2,1,70,0,0
25695,-100,4,2,1,60,0,0
26040,-100,4,2,1,70,0,0
26902,-100,4,2,1,50,0,0
26989,-100,4,2,1,30,0,0
28108,-100,4,2,1,60,0,0
28282,-100,4,2,1,30,0,0
29488,-100,4,2,1,60,0,0
29661,-100,4,2,1,30,0,0
30867,-100,4,2,1,60,0,0
31040,-100,4,2,1,30,0,0
32074,-100,4,2,1,70,0,0
32506,-100,4,2,1,30,0,0
36558,-100,4,2,1,50,0,0
37247,-100,4,2,1,70,0,0
69661,-100,4,2,1,50,0,0
71040,-100,4,2,1,60,0,0
76558,-100,4,2,1,70,0,0
80696,-100,4,2,1,60,0,0
81385,-100,4,2,1,70,0,0
82075,-100,4,2,1,80,0,0
82765,-100,4,2,1,60,0,0
83109,-100,4,2,1,80,0,0
93799,-100,4,2,1,60,0,0
94144,-100,4,2,1,80,0,0
103799,-100,4,2,1,70,0,0
104144,-100,4,2,1,80,0,0
104834,-100,4,2,1,60,0,0
105523,-100,4,2,1,80,0,0
107592,-100,4,2,1,60,0,0
108282,-100,4,2,1,80,0,0
115006,-100,4,2,1,70,0,0
115178,-100,4,2,1,60,0,0
117937,-100,4,2,1,70,0,0
118627,-100,4,2,1,60,0,0
119316,-100,4,2,1,70,0,0
119834,-100,4,2,1,60,0,0
120696,-100,4,2,1,80,0,0
121385,-100,4,2,1,60,0,0
121729,-100,4,2,1,80,0,0
126213,-100,4,2,1,60,0,0
127592,-100,4,2,1,50,0,0
129315,-100,4,2,1,60,0,0
129660,-100,4,2,1,50,0,0
136729,-100,4,2,1,60,0,0
136902,-100,4,2,1,50,0,0

[Colours]
Combo1 : 255,255,255
Combo2 : 255,0,0
Combo3 : 192,192,192
Combo4 : 255,0,128

[HitObjects]
72,79,4488,6,0,L|134:87,1,50.000000298023,2|0,0:0|0:0,0:0:0:0:
163,57,4833,6,0,P|216:42|268:65,1,100.000000596046,4|2,3:1|0:0,0:0:0:0:
286,97,5351,1,2,0:0:0:0:
385,91,5696,1,2,0:0:0:0:
385,91,5868,2,0,L|381:151,1,50.000000298023,2|2,0:0|0:0,0:0:0:0:
425,165,6213,2,0,L|421:225,2,50.000000298023,0|2|2,0:0|0:0|0:0,0:0:0:0:
471,145,6730,2,0,P|518:208|501:272,1,150.000000894069,2|0,0:0|0:0,0:0:0:0:
415,324,7592,6,0,P|359:313|328:268,1,100.000000596046,2|2,0:0|0:0,0:0:0:0:
240,242,8282,2,0,P|212:260|184:326,1,100.000000596046,2|2,0:0|0:0,0:0:0:0:
97,368,8971,2,0,P|30:347|5:225,1,200.000001192092,2|2,0:0|0:0,0:0:0:0:
69,156,10006,2,0,L|126:158,1,50.000000298023,2|2,0:0|0:0,0:0:0:0:
158,126,10351,6,0,B|214:111|198:155|259:132,1,100.000000596046,2|2,0:0|0:0,0:0:0:0:
296,106,10868,2,0,P|328:90|397:116,1,100.000000596046,2|2,0:0|0:0,0:0:0:0:
435,119,11385,1,2,0:0:0:0:
385,206,11730,6,0,L|394:327,1,100.000000596046,2|2,0:0|0:0,0:0:0:0:
401,355,12247,1,2,0:0:0:0:
401,355,12420,2,0,P|339:361|303:325,1,100.000000596046,2|2,0:0|0:0,0:0:0:0:
230,280,13109,6,0,L|121:292,1,100.000000596046,2|2,0:0|0:0,0:0:0:0:
87,200,13799,2,0,L|186:189,1,100.000000596046,2|2,0:0|0:0,0:0:0:0:
260,121,14489,2,0,P|311:111|391:227,1,200.000001192092,4|2,0:2|0:0,0:0:0:0:
375,312,15523,1,2,0:0:0:0:
281,348,15868,6,0,L|166:343,1,100.000000596046,6|2,3:2|0:0,0:0:0:0:
147,306,16385,1,2,3:2:0:0:
81,230,16730,1,2,0:0:0:0:
81,230,16902,2,0,L|84:175,1,50.000000298023,2|2,0:0|3:2,0:0:0:0:
107,135,17247,2,0,L|56:132,2,50.000000298023,0|2|2,3:2|0:0|0:0,0:0:0:0:
148,105,17765,2,0,B|216:78|216:78|285:113,1,150.000000894069,2|0,3:2|0:0,0:0:0:0:
380,85,18627,6,0,L|367:196,1,100.000000596046,6|2,3:2|0:0,0:0:0:0:
410,212,19144,1,2,3:2:0:0:
410,212,19316,1,2,0:0:0:0:
328,269,19661,2,0,L|321:324,1,50.000000298023,2|2,0:0|3:2,0:0:0:0:
301,364,20006,2,0,L|386:373,2,75.0000004470345,2|2|2,3:2|3:2|3:2,0:0:0:0:
251,374,20696,2,0,L|129:359,1,100.000000596046,2|2,0:0|3:3,0:0:0:0:
86,286,21385,6,0,P|81:228|107:180,1,100.000000596046,2|2,3:2|3:3,0:0:0:0:
34,111,22075,2,0,P|64:76|126:67,1,100.000000596046,2|2,3:2|3:3,0:0:0:0:
210,32,22765,2,0,L|202:146,1,100.000000596046,2|2,3:2|3:2,0:0:0:0:
301,115,23454,2,0,L|293:229,1,100.000000596046,2|2,3:2|3:3,0:0:0:0:
291,264,23971,1,2,3:3:0:0:
291,264,24144,6,0,L|348:271,3,50.000000298023,2|2|2|2,3:2|0:3|3:3|0:3,0:0:0:0:
362,315,24834,2,0,L|411:321,3,50.000000298023,2|2|2|2,3:3|0:3|3:3|0:3,0:0:0:0:
447,356,25523,2,0,L|496:362,1,50.000000298023,2|0,3:2|0:0,0:0:0:0:
492,262,26040,1,0,3:2:0:0:
492,262,26213,2,0,L|502:158,1,100.000000596046,0|0,1:2|0:0,0:0:0:0:
471,122,26730,1,0,1:2:0:0:
471,122,26902,6,0,B|266:227|346:26|126:121,1,350.000002086161,4|0,3:2|0:0,0:0:0:0:
163,66,28282,6,0,P|102:52|177:182,1,350.000002086161,2|0,0:0|0:0,0:0:0:0:
167,245,29661,6,0,B|211:314|211:314|269:245|269:245|317:315|317:315|381:244,1,350.000002086161,6|0,0:2|0:0,0:0:0:0:
411,207,31040,6,0,P|518:130|409:96,1,300.000001788138,2|0,0:0|3:2,0:0:0:0:
334,34,32420,6,0,P|253:84|149:49,1,200.000001192092,2|0,3:2|0:0,0:0:0:0:
60,32,33454,1,0,0:0:0:0:
83,129,33799,2,0,B|124:183|124:183|93:324,1,200.000001192092
295,302,35178,6,0,P|336:347|333:208,1,350.000002086161,2|0,0:0|0:0,0:0:0:0:
305,191,36558,6,0,L|316:91,1,100.000000596046,2|0,0:0|0:0,0:0:0:0:
283,53,37075,1,0,0:0:0:0:
283,53,37247,2,0,P|236:48|180:90,1,100.000000596046,2|2,0:0|1:2,0:0:0:0:
153,166,37937,6,0,L|42:152,1,100.000000596046,0|0,3:2|1:2,0:0:0:0:
9,177,38454,1,0,0:0:0:0:
9,177,38627,2,0,P|-9:218|17:284,1,100.000000596046,0|0,3:2|1:2,0:0:0:0:
62,350,39316,2,0,P|96:327|156:336,1,100.000000596046,0|0,3:2|1:2,0:0:0:0:
248,363,40006,2,0,L|255:308,1,50.000000298023,0|2,3:2|0:0,0:0:0:0:
298,288,40351,1,0,1:2:0:0:
379,346,40696,6,0,P|425:337|464:290,1,100.000000596046,0|0,3:2|1:2,0:0:0:0:
509,291,41213,1,0,0:0:0:0:
509,291,41385,2,0,P|516:236|490:191,1,100.000000596046,0|0,3:2|1:2,0:0:0:0:
433,119,42075,2,0,P|392:137|333:122,1,100.000000596046,0|0,3:2|1:2,0:0:0:0:
305,89,42592,1,0,0:0:0:0:
305,89,42765,2,0,L|241:97,1,50.000000298023,0|0,0:0|3:2,0:0:0:0:
216,64,43109,1,0,1:2:0:0:
131,117,43454,6,0,B|104:149|104:149|112:218,1,100.000000596046,0|0,3:2|1:2,0:0:0:0:
92,253,43971,1,0,0:0:0:0:
92,253,44144,2,0,L|200:244,1,100.000000596046,0|0,3:2|1:2,0:0:0:0:
241,332,44834,2,0,L|349:323,1,100.000000596046,0|0,3:2|1:2,0:0:0:0:
384,348,45351,1,0,0:0:0:0:
384,348,45523,2,0,P|447:337|479:300,1,100.000000596046,0|0,3:2|1:2,0:0:0:0:
432,220,46213,6,0,P|382:216|344:185,1,100.000000596046,0|0,3:2|1:2,0:0:0:0:
331,136,46730,1,0,0:0:0:0:
331,136,46902,1,0,3:2:0:0:
232,151,47247,1,0,1:2:0:0:
150,94,47592,2,0,L|41:108,1,100.000000596046,0|0,3:2|1:2,0:0:0:0:
22,148,48109,1,2,0:0:0:0:
22,148,48282,1,0,0:0:0:0:
84,226,48627,2,0,L|87:277,1,50.000000298023,4|0,1:2|0:0,0:0:0:0:
61,318,48971,6,0,L|181:308,1,100.000000596046,4|0,3:2|1:2,0:0:0:0:
198,343,49489,1,0,0:0:0:0:
198,343,49661,1,0,3:2:0:0:
297,332,50006,1,0,1:2:0:0:
396,322,50351,2,0,L|386:213,1,100.000000596046,0|0,3:2|1:2,0:0:0:0:
343,196,50868,1,0,0:0:0:0:
343,196,51040,2,0,L|338:136,2,50.000000298023,0|2|0,3:2|0:0|1:2,0:0:0:0:
246,167,51730,6,0,L|236:58,1,100.000000596046,0|0,3:2|1:2,0:0:0:0:
193,42,52247,1,0,0:0:0:0:
193,42,52420,1,0,3:2:0:0:
109,96,52765,1,0,1:2:0:0:
28,36,53109,2,0,P|2:74|10:145,1,100.000000596046,0|0,3:2|1:2,0:0:0:0:
28,169,53627,1,0,0:0:0:0:
28,169,53799,1,0,3:2:0:0:
21,268,54144,1,0,1:2:0:0:
17,367,54489,6,0,B|63:366|63:366|81:354|81:354|126:354,1,100.000000596046,0|0,3:2|1:2,0:0:0:0:
148,318,55006,1,0,0:0:0:0:
148,318,55178,1,0,3:2:0:0:
247,331,55523,1,0,1:2:0:0:
345,347,55868,2,0,L|339:242,1,100.000000596046,0|0,3:2|1:2,0:0:0:0:
332,197,56385,1,0,0:0:0:0:
332,197,56558,1,0,3:2:0:0:
430,211,56902,1,0,1:2:0:0:
396,116,57247,6,0,L|390:11,1,100.000000596046,0|0,3:2|1:2,0:0:0:0:
339,18,57765,1,0,0:0:0:0:
339,18,57937,1,0,3:2:0:0:
264,84,58282,1,0,1:2:0:0:
176,35,58627,2,0,P|136:32|86:88,1,100.000000596046,0|0,3:2|1:2,0:0:0:0:
73,114,59144,1,0,0:0:0:0:
73,114,59316,2,0,L|76:179,1,50.000000298023,2|2,0:0|3:2,0:0:0:0:
52,208,59661,2,0,L|55:273,1,50.000000298023,2|2,0:0|0:0,0:0:0:0:
28,300,60006,5,6,0:0:0:0:
86,111,69661,6,0,P|115:77|178:77,2,100.000000596046,2|2|2,0:0|0:0|0:0,0:0:0:0:
144,192,70696,1,2,0:0:0:0:
241,172,71040,6,0,L|234:293,1,100.000000596046,4|0,3:2|0:0,0:0:0:0:
294,353,71730,1,2,0:0:0:0:
339,263,72075,1,2,0:0:0:0:
400,341,72420,2,0,P|452:331|494:283,1,100.000000596046,2|0,0:0|0:0,0:0:0:0:
435,213,73109,1,2,0:0:0:0:
512,159,73454,1,0,0:0:0:0:
495,111,73627,1,0,3:2:0:0:
475,64,73799,6,0,L|371:74,1,100.000000596046,6|0,3:2|0:0,0:0:0:0:
283,32,74489,2,0,L|179:42,1,100.000000596046,2|2,0:0|0:0,0:0:0:0:
85,19,75178,2,0,P|65:70|81:123,1,100.000000596046,2|0,0:0|0:0,0:0:0:0:
111,147,75696,1,0,0:0:0:0:
111,147,75868,2,0,P|120:195|100:240,1,100.000000596046,2|2,0:0|3:3,0:0:0:0:
63,335,76558,6,0,L|179:344,1,100.000000596046,4|2,3:2|1:3,0:0:0:0:
231,269,77247,2,0,L|347:278,1,100.000000596046,4|2,3:2|1:3,0:0:0:0:
390,357,77937,1,4,3:2:0:0:
482,318,78282,1,0,1:2:0:0:
481,217,78627,1,4,3:2:0:0:
384,190,78971,1,2,1:3:0:0:
455,120,79316,6,0,L|462:59,3,50.000000298023,4|2|2|2,3:2|3:3|3:3|3:3,0:0:0:0:
410,74,80006,2,0,L|402:22,3,50.000000298023,2|2|2|2,3:3|3:3|3:3|3:3,0:0:0:0:
359,50,80696,2,0,B|242:17|290:114|162:62,1,200.000001192092,2|2,0:0|0:0,0:0:0:0:
87,121,81730,1,6,1:2:0:0:
167,180,82075,6,0,L|151:298,1,100.000000596046,4|2,3:1|1:2,0:0:0:0:
150,329,82592,1,2,0:0:0:0:
150,329,82765,2,0,L|251:304,1,100.000000596046,0|2,3:2|1:2,0:0:0:0:
338,344,83454,2,0,P|396:356|442:333,1,100.000000596046,0|2,3:2|1:2,0:0:0:0:
458,298,83971,1,2,0:0:0:0:
458,298,84144,1,2,3:2:0:0:
417,206,84489,1,0,1:2:0:0:
479,127,84834,6,0,B|441:95|441:95|383:104,1,100.000000596046,2|2,3:2|1:2,0:0:0:0:
305,51,85523,2,0,B|255:43|255:43|217:75,1,100.000000596046,2|2,3:2|1:2,0:0:0:0:
118,60,86213,2,0,L|133:168,1,100.000000596046,2|2,3:2|1:2,0:0:0:0:
103,200,86730,1,2,0:0:0:0:
103,200,86902,1,2,3:2:0:0:
123,297,87247,1,2,1:3:0:0:
217,265,87592,6,0,B|266:245|266:294|316:271,1,100.000000596046,2|2,3:2|1:2,0:0:0:0:
340,231,88109,1,2,0:0:0:0:
340,231,88282,1,2,3:2:0:0:
438,250,88627,2,0,L|447:185,1,50.000000298023,2|2,1:2|0:0,0:0:0:0:
415,159,88971,2,0,B|400:112|400:112|418:61,1,100.000000596046,2|2,3:2|1:2,0:0:0:0:
434,17,89489,1,2,0:3:0:0:
434,17,89661,2,0,L|331:26,1,100.000000596046,2|2,3:2|1:2,0:0:0:0:
257,89,90351,6,0,L|157:80,1,100.000000596046,2|2,3:2|1:3,0:0:0:0:
81,14,91040,2,0,P|54:61|66:121,1,100.000000596046,2|2,3:3|1:3,0:0:0:0:
9,192,91730,2,0,P|44:198|76:251,1,100.000000596046,0|0,3:2|1:2,0:0:0:0:
60,297,92247,1,2,0:0:0:0:
60,297,92420,2,0,L|165:290,1,100.000000596046,2|2,3:2|1:3,0:0:0:0:
245,342,93109,6,0,L|350:335,1,100.000000596046,4|2,3:1|1:2,0:0:0:0:
371,292,93627,1,2,0:0:0:0:
371,292,93799,1,0,3:2:0:0:
457,241,94144,2,0,L|453:182,1,50.000000298023,2|2,1:2|0:0,0:0:0:0:
477,147,94489,2,0,B|430:155|430:155|366:130,1,100.000000596046,0|2,3:2|1:2,0:0:0:0:
338,110,95006,1,2,0:0:0:0:
338,110,95178,2,0,L|237:118,1,100.000000596046,2|0,3:2|1:2,0:0:0:0:
154,62,95868,6,0,P|117:72|86:127,1,100.000000596046,2|2,3:2|1:2,0:0:0:0:
17,195,96558,2,0,P|29:227|100:247,1,100.000000596046,2|2,3:2|1:2,0:0:0:0:
183,223,97247,2,0,L|173:333,1,100.000000596046,2|2,3:2|1:2,0:0:0:0:
211,356,97765,1,2,0:0:0:0:
211,356,97937,1,2,3:2:0:0:
304,321,98282,2,0,L|356:333,1,50.000000298023,2|2,1:3|0:0,0:0:0:0:
401,322,98627,6,0,P|423:294|416:218,1,100.000000596046,2|2,3:2|1:2,0:0:0:0:
489,156,99316,2,0,P|470:119|409:98,1,100.000000596046,2|2,3:2|1:2,0:0:0:0:
340,33,100006,2,0,P|297:53|281:117,1,100.000000596046,2|2,3:2|1:2,0:0:0:0:
211,174,100696,2,0,L|118:168,2,75.0000004470345,2|0|2,3:2|0:0|0:0,0:0:0:0:
246,209,101385,6,0,B|264:257|264:257|240:303,1,100.000000596046,2|2,3:2|1:3,0:0:0:0:
158,357,102075,2,0,L|49:345,1,100.000000596046,2|2,3:3|1:3,0:0:0:0:
20,253,102765,1,2,1:3:0:0:
33,154,103109,1,2,1:3:0:0:
115,98,103454,1,2,1:3:0:0:
214,103,103799,2,0,L|271:112,1,50.000000298023,6|2,1:2|3:2,0:0:0:0:
300,76,104144,6,0,L|403:94,1,100.000000596046,4|0,3:1|1:2,0:0:0:0:
441,67,104661,1,2,0:0:0:0:
441,67,104834,2,0,P|477:113|470:168,1,100.000000596046,0|0,3:2|1:2,0:0:0:0:
464,251,105523,2,0,P|408:240|362:271,1,100.000000596046,2|2,3:2|1:2,0:0:0:0:
339,297,106040,1,2,0:0:0:0:
339,297,106213,2,0,L|233:288,1,100.000000596046,0|0,3:2|1:2,0:0:0:0:
148,331,106902,6,0,B|99:346|99:346|47:320,1,100.000000596046,2|0,3:2|1:2,0:0:0:0:
27,282,107420,1,2,0:0:0:0:
27,282,107592,1,0,3:2:0:0:
78,196,107937,1,0,1:2:0:0:
17,115,108282,2,0,B|53:82|53:82|110:96,1,100.000000596046,0|2,3:2|1:2,0:0:0:0:
147,116,108799,1,2,0:0:0:0:
147,116,108971,2,0,B|196:128|196:128|232:95,1,100.000000596046,2|2,3:2|1:3,0:0:0:0:
326,59,109661,6,0,P|359:69|384:143,1,100.000000596046,2|0,3:2|1:3,0:0:0:0:
446,205,110351,2,0,P|413:215|388:289,1,100.000000596046,0|2,3:2|1:3,0:0:0:0:
412,366,111040,2,0,L|310:357,1,100.000000596046,2|2,3:2|1:2,0:0:0:0:
272,326,111558,1,2,0:3:0:0:
272,326,111730,2,0,L|170:317,1,100.000000596046,0|2,3:2|1:3,0:0:0:0:
82,361,112420,6,0,P|28:338|17:283,1,100.000000596046,2|2,3:2|1:3,0:0:0:0:
32,255,112937,1,2,0:3:0:0:
32,255,113109,1,2,3:3:0:0:
114,197,113454,1,2,1:3:0:0:
55,115,113799,2,0,P|71:73|125:47,1,100.000000596046,2|2,3:2|1:2,0:0:0:0:
207,91,114489,2,0,L|212:188,2,75.0000004470345,2|0|2,3:2|3:2|3:2,0:0:0:0:
243,56,115178,6,0,B|285:57|285:57|303:42|303:42|346:44,1,100.000000596046,6|0,3:2|0:0,0:0:0:0:
384,24,115696,2,0,B|361:62|361:62|366:122,1,100.000000596046
372,167,116213,1,0,0:0:0:0:
464,206,116558,2,0,P|483:252|461:313,1,100.000000596046,2|0,0:0|0:0,0:0:0:0:
394,362,117247,2,0,P|346:373|300:354,1,100.000000596046,2|0,0:0|0:0,0:0:0:0:
212,307,117937,5,6,3:2:0:0:
114,327,118282,1,4,3:2:0:0:
42,257,118627,2,0,P|27:211|44:162,1,100.000000596046,2|2,0:0|0:0,0:0:0:0:
79,129,119144,1,0,0:0:0:0:
79,129,119316,5,4,3:2:0:0:
178,142,119661,1,4,3:2:0:0:
178,142,119834,2,0,B|222:113|222:113|280:135,1,100.000000596046,2|2,0:0|0:0,0:0:0:0:
309,155,120351,1,2,1:3:0:0:
378,83,120696,6,0,L|492:91,1,100.000000596046,2|2,3:2|1:3,0:0:0:0:
508,129,121213,1,2,0:0:0:0:
508,129,121385,2,0,P|518:182|497:227,1,100.000000596046,0|2,3:2|1:3,0:0:0:0:
498,323,122075,6,0,L|445:318,1,50.000000298023,2|2,3:2|3:3,0:0:0:0:
409,350,122420,2,0,L|356:345,1,50.000000298023,2|2,1:2|3:3,0:0:0:0:
313,364,122765,2,0,P|284:341|278:277,1,100.000000596046,0|2,3:2|1:3,0:0:0:0:
213,203,123454,6,0,L|156:211,1,50.000000298023,0|0,1:2|3:2,0:0:0:0:
123,179,123799,2,0,L|66:187,1,50.000000298023,2|2,1:3|1:3,0:0:0:0:
4,113,124316,1,2,1:3:0:0:
72,39,124661,1,2,1:3:0:0:
72,39,124834,6,0,P|125:29|162:61,1,100.000000596046,4|2,1:2|1:2,0:0:0:0:
237,117,125523,1,2,1:2:0:0:
237,117,125696,2,0,L|292:112,1,50.000000298023,0|2,3:2|3:3,0:0:0:0:
369,56,126213,6,0,B|413:37|413:37|471:56,1,100.000000596046,4|0,3:1|1:2,0:0:0:0:
496,89,126730,1,2,0:0:0:0:
496,89,126902,2,0,L|481:195,1,100.000000596046,0|2,3:2|1:2,0:0:0:0:
382,200,127592,2,0,L|397:306,1,100.000000596046,2|0,3:2|1:2,0:0:0:0:
318,362,128282,1,0,3:2:0:0:
219,342,128627,1,0,1:2:0:0:
163,259,128971,6,0,P|113:240|61:253,2,100.000000596046,6|0|2,0:2|0:0|0:0,0:0:0:0:
234,188,130006,1,2,0:0:0:0:
420,115,130696,1,2,0:0:0:0:
348,45,131040,2,0,L|247:56,1,100.000000596046,2|2,0:0|0:0,0:0:0:0:
158,10,131730,5,2,0:0:0:0:
95,88,132075,1,2,0:0:0:0:
267,189,132765,2,0,L|258:250,1,50.000000298023,2|2,0:0|0:0,0:0:0:0:
228,277,133109,2,0,P|180:288|135:268,2,100.000000596046,6|2|2,0:2|0:0|0:0,0:0:0:0:
296,350,134144,1,2,0:0:0:0:
409,251,134661,5,2,0:0:0:0:
366,160,135006,2,0,L|415:151,1,50.000000298023,2|2,0:0|0:0,0:0:0:0:
253,32,135868,1,2,0:0:0:0:
137,127,136385,2,0,P|87:117|30:154,1,100.000000596046,2|0,0:0|0:0,0:0:0:0:
16,178,136902,5,2,0:0:0:0:
256,192,137075,12,0,141385,0:0:0:0:
