osu file format v14

[General]
AudioFilename: audio.mp3
AudioLeadIn: 0
PreviewTime: 57336
Countdown: 0
SampleSet: Normal
StackLeniency: 0.7
Mode: 0
LetterboxInBreaks: 0
WidescreenStoryboard: 1

[Editor]
Bookmarks: 38986,49472
DistanceSpacing: 1
BeatDivisor: 4
GridSize: 4
TimelineZoom: 1.5

[Metadata]
Title:Suisou no Kujira
TitleUnicode:水槽のクジラ
Artist:Tezuka feat. Onishi Amimi
ArtistUnicode:テヅカ feat. 大西あみみ
Creator:Mamiko
Version:Normal
Source:SOUND VOLTEX IV HEAVENLY HAVEN
Tags:
BeatmapID:1693269
BeatmapSetID:784478

[Difficulty]
HPDrainRate:3
CircleSize:3
OverallDifficulty:4
ApproachRate:5
SliderMultiplier:1
SliderTickRate:1

[Events]
//Background and Video events
0,0,"15d97b51-0d61-4230-bcd8-d7eb4c2e8d22.png",0,0
//Break Periods
//Storyboard Layer 0 (Background)
//Storyboard Layer 1 (Fail)
//Storyboard Layer 2 (Pass)
//Storyboard Layer 3 (Foreground)
//Storyboard Sound Samples

[TimingPoints]
540,291.26213592233,4,1,1,70,1,0
29666,-100,4,2,1,70,0,0
38986,-100,4,1,1,70,0,0
52967,-100,4,1,1,70,0,0
57627,-100,4,1,1,70,0,1
76268,-100,4,1,1,70,0,0
90248,-100,4,2,1,70,0,0
94908,-100,4,3,1,50,0,0

[Colours]
Combo1 : 128,255,128
Combo2 : 128,128,255
Combo3 : 0,128,255
Combo4 : 128,255,255

[HitObjects]
66,104,1705,6,0,P|114:113|170:104,2,100
61,203,2578,1,0,0:0:0:0:
61,203,2724,2,0,L|66:325,1,100
68,352,3161,1,0,0:0:0:0:
162,318,3452,2,0,P|212:303|282:308,1,100
357,325,4035,6,0,L|363:212,1,100
457,195,4617,2,0,L|464:85,1,100
431,56,5054,2,0,P|373:67|331:50,1,100
289,73,5491,1,0,0:0:0:0:
191,50,5782,2,0,L|179:159,1,100
158,247,6365,6,0,P|115:227|48:236,2,100
236,309,7239,1,0,0:0:0:0:
236,309,7384,2,0,L|345:302,1,100
385,298,7821,1,0,0:0:0:0:
442,216,8112,2,0,P|471:218|508:230,2,50
394,198,8549,6,0,P|345:192|287:171,1,100
287,126,8986,2,0,P|241:142|186:149,2,100
220,51,9860,2,0,P|166:44|102:42,1,100
94,86,10297,2,0,L|87:201,1,100
98,335,11025,5,0,0:0:0:0:
196,320,11316,1,0,0:0:0:0:
294,307,11607,1,0,0:0:0:0:
389,337,11899,5,0,0:0:0:0:
389,337,12044,2,0,P|402:292|388:231,1,100
384,191,12481,2,0,P|377:147|399:94,1,100
310,45,13064,1,0,0:0:0:0:
217,83,13355,6,0,P|168:64|104:64,2,100
270,167,14229,1,0,0:0:0:0:
270,167,14374,2,0,L|279:270,1,100
282,316,14811,2,0,L|165:310,1,100
170,262,15248,2,0,L|53:256,1,100
37,218,15685,6,0,P|74:166|40:89,1,150
82,59,16268,2,0,L|248:44,1,150
281,52,16850,2,0,P|295:98|281:165,1,100
375,197,17433,2,0,P|360:244|367:293,1,100
279,341,18015,6,0,P|192:303|85:324,1,200
54,224,18889,1,0,0:0:0:0:
54,224,19035,2,0,L|32:109,2,100
139,173,19908,2,0,P|186:185|235:172,1,100
277,144,20345,1,0,0:0:0:0:
316,340,20928,6,0,P|420:354|468:272,2,200
237,267,22384,1,0,0:0:0:0:
146,309,22675,2,0,L|33:327,1,100
29,226,23258,2,0,P|43:181|23:125,1,100
53,88,23695,2,0,L|170:106,1,100
201,101,24132,2,0,L|323:82,1,100
397,65,24714,1,0,0:0:0:0:
435,157,25006,6,0,P|474:251|397:317,1,200
313,315,25879,1,0,0:0:0:0:
274,282,26025,2,0,P|209:269|174:286,1,100
150,322,26462,2,0,P|120:338|47:324,1,100
31,233,27044,1,0,0:0:0:0:
115,177,27336,6,0,L|104:69,2,100
211,204,28209,1,0,0:0:0:0:
254,179,28355,2,0,P|305:192|351:175,1,100
379,140,28792,2,0,P|430:127|476:144,1,100
426,230,29374,1,0,0:0:0:0:
367,311,29666,6,0,L|217:295,1,150
129,342,30394,1,0,0:0:0:0:
58,269,30685,2,0,P|71:226|52:171,1,100
49,125,31122,2,0,L|116:117,1,50
130,80,31413,2,0,L|232:68,1,100
328,55,31996,6,0,P|400:37|459:99,1,150
406,170,32724,1,0,0:0:0:0:
460,257,33015,2,0,P|440:302|450:350,1,100
400,351,33452,2,0,L|335:344,1,50
307,320,33743,2,0,L|203:337,1,100
111,309,34326,6,0,P|63:260|89:181,1,150
69,87,35054,1,0,0:0:0:0:
162,121,35345,2,0,P|203:140|271:132,1,100
301,114,35782,2,0,L|308:52,1,50
354,50,36073,2,0,P|405:38|455:50,1,100
478,144,36656,6,0,L|463:310,1,150
377,342,37384,1,0,0:0:0:0:
284,304,37675,2,0,L|272:192,1,100
264,155,38112,1,0,0:0:0:0:
173,112,38404,2,0,L|161:220,1,100
118,300,38986,6,0,P|72:310|16:297,2,100
215,321,39860,1,0,0:0:0:0:
215,321,40006,1,0,0:0:0:0:
304,342,40297,2,0,L|408:337,1,100
430,294,40734,2,0,P|442:251|422:198,1,100
347,135,41316,6,0,L|335:29,2,100
257,181,42190,1,0,0:0:0:0:
257,181,42336,1,0,0:0:0:0:
178,118,42627,2,0,L|173:67,2,50
156,163,43064,2,0,P|147:211|169:262,1,100
244,321,43646,6,0,L|356:337,2,100
149,354,44520,1,0,0:0:0:0:
149,354,44666,1,0,0:0:0:0:
41,249,45103,2,0,L|28:142,1,100
110,97,45685,1,0,0:0:0:0:
205,125,45976,6,0,P|248:138|318:118,1,100
389,80,46559,2,0,L|384:24,2,50
435,99,46996,2,0,L|428:207,1,100
328,194,47578,2,0,L|341:300,1,100
341,343,48015,2,0,L|286:350,1,50
241,346,48306,6,0,B|171:315|123:372|26:329,1,200
111,262,49180,1,0,0:0:0:0:
204,226,49472,2,0,P|223:179|207:132,1,100
108,124,50054,2,0,P|89:77|105:30,1,100
202,46,50637,6,0,B|250:30|338:78|409:33,1,200
397,138,51510,1,0,0:0:0:0:
339,219,51802,2,0,L|275:203,2,50
437,234,52384,2,0,L|436:347,1,100
394,353,52821,1,0,0:0:0:0:
346,335,52967,6,0,P|300:316|251:324,1,100
159,363,53549,1,0,0:0:0:0:
159,363,53695,1,0,0:0:0:0:
78,304,53986,2,0,P|116:242|87:176,1,150
119,81,54714,2,0,L|218:91,1,100
256,192,55297,12,0,56316,0:0:0:0:
419,328,57627,6,0,L|431:207,1,100
429,128,58209,2,0,P|388:143|324:126,1,100
284,136,58646,2,0,L|293:256,1,100
265,275,59083,2,0,P|218:290|159:273,2,100
344,337,59957,6,0,P|384:319|444:335,1,100
472,294,60394,2,0,L|459:182,1,100
413,177,60831,2,0,L|399:74,1,100
351,63,61268,2,0,P|275:39|202:79,1,150
157,149,61996,2,0,P|127:148|91:138,1,50
62,122,62287,6,0,P|72:179|61:239,1,100
123,303,62870,1,0,0:0:0:0:
123,303,63015,1,0,0:0:0:0:
213,260,63306,2,0,P|284:267|331:340,1,150
428,338,64035,2,0,L|435:228,1,100
405,142,64617,6,0,L|413:32,1,100
314,20,65200,2,0,L|306:119,1,100
304,169,65637,2,0,L|203:155,1,100
155,149,66073,1,0,0:0:0:0:
58,175,66365,2,0,P|51:224|62:290,1,100
136,338,66947,6,0,P|184:322|232:331,1,100
329,351,67530,2,0,P|345:303|336:255,1,100
287,242,67967,2,0,P|271:204|283:147,1,100
285,109,68404,2,0,L|402:100,2,100
207,45,69277,6,0,L|88:60,1,100
69,89,69714,2,0,P|53:141|80:191,1,100
113,206,70151,2,0,P|130:251|113:298,1,100
79,334,70588,2,0,L|27:346,2,50
131,334,71025,2,0,L|247:349,1,100
322,307,71607,5,0,0:0:0:0:
278,216,71899,2,0,L|286:101,1,100
375,73,72481,1,0,0:0:0:0:
375,73,72627,2,0,P|415:92|476:87,1,100
484,137,73064,2,0,P|466:189|485:244,1,100
456,329,73646,2,0,L|399:332,1,50
355,334,73938,6,0,L|348:224,1,100
294,150,74520,2,0,P|253:173|189:166,1,100
160,200,74957,2,0,P|119:177|55:184,1,100
20,197,75394,2,0,L|32:302,1,100
120,341,75976,1,0,0:0:0:0:
215,311,76268,6,0,P|268:301|325:323,2,100
143,241,77141,1,0,0:0:0:0:
143,241,77287,2,0,L|128:129,1,100
118,92,77724,1,0,0:0:0:0:
214,67,78015,2,0,P|262:75|307:54,1,100
405,38,78598,6,0,L|399:137,1,100
461,216,79180,2,0,L|454:315,1,100
409,336,79617,2,0,P|361:348|313:334,1,100
277,299,80054,1,0,0:0:0:0:
191,247,80345,2,0,L|179:356,1,100
98,288,80928,6,0,P|48:284|3:305,2,100
191,247,81802,1,0,0:0:0:0:
191,247,81947,2,0,L|177:145,1,100
167,98,82384,1,0,0:0:0:0:
264,75,82675,2,0,L|266:21,2,50
275,122,83112,6,0,P|322:137|380:126,1,100
421,134,83549,2,0,L|429:27,2,100
443,231,84423,2,0,P|459:278|439:332,1,100
395,334,84860,2,0,L|287:323,1,100
148,294,85588,5,0,0:0:0:0:
53,326,85879,1,0,0:0:0:0:
69,227,86171,1,0,0:0:0:0:
162,193,86462,5,0,0:0:0:0:
162,193,86607,2,0,P|176:144|152:85,1,100
130,59,87044,1,0,0:0:0:0:
226,33,87336,2,0,L|332:42,1,100
421,69,87918,6,0,P|407:116|421:163,1,100
460,256,88501,2,0,L|352:266,1,100
311,276,88938,2,0,P|267:290|208:265,1,100
176,245,89374,2,0,P|129:228|82:242,1,100
42,211,89811,2,0,P|58:164|44:117,1,100
59,69,90248,5,0,0:0:0:0:
150,110,90539,1,0,0:0:0:0:
233,54,90831,1,0,0:0:0:0:
323,96,91122,1,0,0:0:0:0:
421,82,91413,6,0,P|437:130|422:182,1,100
354,247,91996,2,0,P|338:295|353:347,1,100
251,326,92578,2,0,L|246:212,2,100
156,292,93452,1,0,0:0:0:0:
156,292,93598,2,0,P|107:282|44:303,1,100
53,194,94180,2,0,P|64:146|54:98,1,100
256,192,94908,12,0,98404,0:0:0:0:
300,73,99569,6,0,P|331:116|320:177,1,100
293,196,100006,2,0,P|263:234|264:284,1,100
270,333,100442,1,0,0:0:0:0:
69,330,101025,6,0,P|120:331|174:291,1,100
198,214,101607,1,0,0:0:0:0:
291,177,101899,6,0,P|338:188|386:174,1,100
414,132,102336,2,0,P|424:85|403:22,1,100
361,31,102773,6,0,L|293:42,1,50
