osu file format v14

[General]
AudioFilename: audio.mp3
AudioLeadIn: 0
PreviewTime: 57336
Countdown: 0
SampleSet: Normal
StackLeniency: 0.7
Mode: 0
LetterboxInBreaks: 0
WidescreenStoryboard: 1

[Editor]
Bookmarks: 38986
DistanceSpacing: 1
BeatDivisor: 4
GridSize: 4
TimelineZoom: 1.5

[Metadata]
Title:Suisou no Kujira
TitleUnicode:水槽のクジラ
Artist:Tezuka feat. Onishi Amimi
ArtistUnicode:テヅカ feat. 大西あみみ
Creator:Mamiko
Version:Hard
Source:SOUND VOLTEX IV HEAVENLY HAVEN
Tags:
BeatmapID:1693268
BeatmapSetID:784478

[Difficulty]
HPDrainRate:4
CircleSize:3.5
OverallDifficulty:6
ApproachRate:7.5
SliderMultiplier:1.6
SliderTickRate:1

[Events]
//Background and Video events
0,0,"15d97b51-0d61-4230-bcd8-d7eb4c2e8d22.png",0,0
//Break Periods
//Storyboard Layer 0 (Background)
//Storyboard Layer 1 (Fail)
//Storyboard Layer 2 (Pass)
//Storyboard Layer 3 (Foreground)
//Storyboard Sound Samples

[TimingPoints]
540,291.26213592233,4,1,1,70,1,0
20345,-133.333333333333,4,3,1,50,0,0
29666,-100,4,1,1,70,0,0
48306,-133.333333333333,4,2,1,50,0,0
52967,-100,4,1,1,70,0,0
57627,-100,4,1,1,70,0,1
76268,-100,4,1,1,70,0,0
85588,-133.333333333333,4,3,1,70,0,0
90248,-100,4,2,1,70,0,0
94908,-100,4,3,1,50,0,0

[Colours]
Combo1 : 128,255,128
Combo2 : 128,128,255
Combo3 : 0,128,255
Combo4 : 128,255,255

[HitObjects]
64,192,540,6,0,L|76:272,1,80
183,337,831,2,0,L|191:253,1,80
281,195,1122,1,0,0:0:0:0:
304,300,1267,1,0,0:0:0:0:
304,300,1340,1,0,0:0:0:0:
304,300,1413,1,0,0:0:0:0:
448,124,1705,6,0,P|412:116|368:124,1,80
292,48,1996,2,0,P|256:56|212:48,1,80
152,148,2287,2,0,P|80:152|36:244,1,160
220,304,2724,2,0,L|244:136,1,160
132,256,3161,6,0,L|116:344,1,80
328,356,3452,2,0,L|312:260,1,80
440,192,3743,1,0,0:0:0:0:
416,284,3889,1,0,0:0:0:0:
228,260,4035,6,0,P|268:196|356:196,1,160
314,277,4472,1,0,0:0:0:0:
176,168,4617,2,0,P|136:120|44:136,1,160
48,300,5054,2,0,L|221:282,1,160
272,184,5491,6,0,P|280:140|264:96,1,80
207,283,5782,1,0,0:0:0:0:
290,354,5928,1,0,0:0:0:0:
384,304,6073,2,0,L|476:288,1,80
496,184,6365,6,0,P|460:176|400:152,1,80
346,84,6656,2,0,P|308:97|269:106,1,80
173,152,6947,2,0,P|118:114|22:125,1,160
84,220,7384,2,0,B|115:267|99:319|99:319|154:281,1,160
242,340,7821,6,0,L|410:331,1,160
401,331,8185,1,0,0:0:0:0:
401,331,8258,1,0,0:0:0:0:
499,273,8403,1,0,0:0:0:0:
443,184,8549,6,0,P|397:126|424:41,1,160
361,238,8986,2,0,L|264:244,1,80
188,193,9277,2,0,L|91:199,1,80
37,103,9569,2,0,L|134:97,1,80
234,96,9860,6,0,L|245:-2,2,80
338,198,10297,2,0,P|374:218|432:213,1,80
204,270,10588,2,0,P|168:290|110:285,1,80
299,343,10879,5,0,0:0:0:0:
299,343,10952,1,0,0:0:0:0:
299,343,11025,1,0,0:0:0:0:
254,189,11316,1,0,0:0:0:0:
254,189,11607,1,0,0:0:0:0:
455,123,11899,5,0,0:0:0:0:
484,210,12044,2,0,P|429:257|341:245,1,160
254,189,12481,2,0,L|271:82,1,80
139,40,12773,2,0,P|149:77|159:132,1,80
98,196,13064,2,0,P|88:243|83:296,1,80
170,344,13355,6,0,P|234:334|342:329,2,160
325,138,14229,1,0,0:0:0:0:
409,192,14374,2,0,P|420:271|424:351,1,160
320,234,14811,2,0,P|250:207|240:116,1,160
420,50,15248,2,0,P|416:100|308:129,1,160
283,44,15685,6,0,L|176:28,1,80
134,97,15976,2,0,L|50:113,1,80
70,228,16268,2,0,L|148:213,1,80
218,148,16559,2,0,L|297:159,1,80
446,245,16850,6,0,P|449:316|356:350,2,160
243,254,17724,2,0,L|264:336,1,80
346,257,18015,6,0,L|358:170,1,80
453,146,18306,2,0,L|441:51,1,80
340,46,18598,2,0,L|294:36,2,40
232,126,18889,1,0,0:0:0:0:
100,35,19035,6,0,L|88:124,1,80
64,280,19326,2,0,L|74:200,1,80
248,254,19617,2,0,L|168:243,1,80
300,337,19908,2,0,L|379:347,1,80
469,309,20200,1,0,0:0:0:0:
485,215,20345,6,0,B|499:161|468:161|486:82,1,120.000004577637
358,29,20928,2,0,P|300:42|240:17,1,120.000004577637
54,146,21510,2,0,P|109:125|167:138,1,120.000004577637
218,212,21947,2,0,L|209:335,1,120.000004577637
126,357,22384,1,0,0:0:0:0:
322,276,22675,6,0,P|380:266|449:295,2,120.000004577637
248,211,23404,2,0,P|240:182|244:152,1,60.0000022888184
327,59,23695,2,0,P|350:111|331:176,1,120.000004577637
235,320,24132,2,0,P|189:290|112:298,1,120.000004577637
46,152,24714,1,0,0:0:0:0:
46,152,25006,6,0,L|190:163,1,120.000004577637
377,184,25588,2,0,P|392:134|368:62,1,120.000004577637
286,42,26025,2,0,P|229:59|172:44,1,120.000004577637
85,69,26462,1,0,0:0:0:0:
165,258,26753,1,0,0:0:0:0:
287,177,27044,2,0,L|212:174,1,60.0000022888184
165,258,27336,6,0,L|302:265,2,120.000004577637
377,325,28209,1,0,0:0:0:0:
377,325,28355,2,0,P|381:278|436:227,1,120.000004577637
479,120,28792,2,0,P|424:133|361:107,1,120.000004577637
214,37,29374,1,0,0:0:0:0:
46,180,29666,6,0,P|118:197|208:145,1,160
277,102,30103,1,0,0:0:0:0:
341,188,30248,2,0,L|331:363,1,160
428,343,30685,6,0,P|496:326|513:247,1,160
502,152,31122,1,0,0:0:0:0:
409,161,31268,2,0,P|326:167|252:206,1,160
188,127,31705,2,0,P|181:88|178:41,1,80
48,33,31996,6,0,P|76:98|51:195,1,160
34,292,32433,2,0,P|100:270|183:310,1,160
278,360,32870,1,0,0:0:0:0:
397,337,33015,6,0,P|371:294|414:194,1,160
479,123,33452,2,0,L|403:99,1,80
305,48,33743,2,0,P|298:87|310:148,1,80
193,173,34035,2,0,P|200:134|188:73,1,80
69,180,34326,6,0,P|106:109|66:38,1,160
196,95,34763,2,0,L|363:73,1,160
452,61,35200,1,0,0:0:0:0:
484,153,35345,2,0,P|406:181|405:272,1,160
438,348,35782,2,0,P|397:337|343:344,1,80
264,354,36073,2,0,L|253:267,1,80
159,241,36365,2,0,L|148:320,1,80
52,279,36656,6,0,P|14:208|51:128,1,160
119,76,37093,2,0,L|291:101,1,160
362,36,37530,1,0,0:0:0:0:
420,121,37675,2,0,P|374:184|408:276,1,160
275,347,38112,2,0,L|284:252,1,80
231,178,38404,2,0,L|140:188,1,80
54,198,38695,1,0,0:0:0:0:
117,300,38840,6,0,L|114:347,2,40
217,279,39132,1,0,0:0:0:0:
312,311,39277,2,0,L|403:360,1,80
462,279,39569,2,0,P|455:241|464:193,1,80
416,102,39860,1,0,0:0:0:0:
416,102,40006,6,0,P|368:44|279:71,1,160
220,111,40442,1,0,0:0:0:0:
139,45,40588,1,0,0:0:0:0:
57,103,40734,2,0,L|69:192,1,80
82,277,41025,1,0,0:0:0:0:
251,340,41316,6,0,P|332:360|398:312,2,160
219,248,42044,1,0,0:0:0:0:
300,182,42190,2,0,L|312:271,1,80
459,187,42627,5,0,0:0:0:0:
459,187,42773,1,0,0:0:0:0:
459,187,42918,1,0,0:0:0:0:
477,90,43064,2,0,L|389:107,1,80
328,45,43355,1,0,0:0:0:0:
174,64,43646,6,0,P|163:144|167:227,1,160
41,306,44229,2,0,P|44:226|33:147,1,160
80,57,44666,1,0,0:0:0:0:
234,183,44957,1,0,0:0:0:0:
234,183,45103,2,0,P|282:155|323:159,1,80
383,278,45394,2,0,P|343:273|311:249,1,80
383,87,45685,1,0,0:0:0:0:
397,177,45831,1,0,0:0:0:0:
232,292,45976,6,0,L|34:277,2,160
311,249,46705,1,0,0:0:0:0:
287,158,46850,1,0,0:0:0:0:
383,87,46996,6,0,P|455:93|497:14,1,160
295,41,47433,1,0,0:0:0:0:
214,87,47578,2,0,L|36:99,1,160
65,232,48015,2,0,L|153:227,1,80
276,309,48306,6,0,P|250:264|271:197,1,120.000004577637
370,132,48889,1,0,0:0:0:0:
455,222,49180,1,0,0:0:0:0:
267,201,49472,6,0,L|119:187,1,120.000004577637
22,137,50054,2,0,P|64:168|62:51,1,240.000009155274
50,292,50928,1,0,0:0:0:0:
50,292,51219,2,0,L|196:282,1,120.000004577637
297,323,51802,6,0,P|326:329|354:339,1,60.0000022888184
322,234,52093,2,0,P|295:180|308:117,1,120.000004577637
451,144,52675,2,0,P|417:155|378:161,1,60.0000022888184
215,98,52967,6,0,P|150:53|65:69,1,160
18,151,53404,1,0,0:0:0:0:
80,229,53549,2,0,L|90:310,1,80
186,270,53840,1,0,0:0:0:0:
263,337,53986,6,0,P|342:305|426:336,1,160
493,273,54423,2,0,P|500:235|487:186,1,80
414,64,54714,2,0,P|398:142|390:222,2,160
256,192,55442,12,0,56899,0:0:0:0:
223,350,57336,6,0,L|127:338,1,80
79,272,57627,6,0,P|112:212|87:129,1,160
228,201,58209,1,0,0:0:0:0:
306,252,58355,2,0,P|345:233|395:233,1,80
477,183,58646,2,0,P|422:178|359:90,1,160
272,28,59083,2,0,L|264:126,1,80
179,184,59374,2,0,L|172:104,1,80
84,57,59666,2,0,L|76:155,1,80
56,289,59957,6,0,P|110:275|196:364,1,160
311,358,60394,2,0,P|367:305|444:314,1,160
351,216,60831,2,0,L|336:56,1,160
245,33,61268,1,0,0:0:0:0:
182,108,61413,2,0,P|108:117|54:39,1,160
272,230,61996,2,0,L|353:215,1,80
472,233,62287,6,0,P|433:188|460:88,1,160
321,49,62870,2,0,L|330:144,1,80
272,230,63161,1,0,0:0:0:0:
272,230,63306,2,0,P|222:188|110:223,1,160
62,282,63743,2,0,P|97:302|145:305,1,80
237,359,64035,2,0,P|276:338|335:339,1,80
414,302,64326,1,0,0:0:0:0:
463,89,64617,6,0,P|386:77|335:134,1,160
348,233,65054,1,0,0:0:0:0:
247,195,65200,2,0,L|240:104,1,80
149,47,65491,1,0,0:0:0:0:
149,47,65637,2,0,P|135:130|129:211,1,160
48,298,66073,2,0,P|91:306|133:344,1,80
251,354,66365,2,0,P|314:306|398:331,2,160
267,119,67239,6,0,P|286:153|285:210,1,80
401,188,67530,2,0,L|490:166,1,80
348,53,67821,1,0,0:0:0:0:
348,53,67967,2,0,L|178:90,1,160
91,112,68404,2,0,P|76:150|77:203,1,80
181,287,68695,2,0,L|165:197,1,80
286,168,68986,2,0,L|270:258,1,80
343,336,69277,6,0,P|391:359|468:300,1,160
461,204,69714,1,0,0:0:0:0:
362,155,69860,2,0,P|322:153|267:182,1,80
189,163,70151,2,0,P|120:158|68:80,1,160
163,65,70588,1,0,0:0:0:0:
189,163,70734,2,0,P|211:217|213:265,1,80
92,341,71025,2,0,P|99:301|116:265,1,80
305,280,71316,2,0,L|402:300,1,80
481,315,71607,5,0,0:0:0:0:
293,144,71899,2,0,P|316:92|429:80,2,160
338,232,72627,2,0,B|326:281|346:339|346:339|320:328|283:332,1,160
207,304,73064,2,0,L|105:320,1,80
18,215,73355,2,0,P|69:234|140:162,1,160
134,73,73792,1,0,0:0:0:0:
134,73,73938,1,0,0:0:0:0:
256,192,74083,12,0,75685,0:0:0:0:
277,291,75976,6,0,L|186:297,1,80
365,335,76268,6,0,L|449:330,1,80
402,164,76559,2,0,L|406:259,1,80
484,110,76850,2,0,P|424:68|330:104,1,160
308,180,77287,2,0,B|232:223|233:151|155:186,1,160
69,142,77724,2,0,P|58:103|68:60,1,80
155,186,78015,1,0,0:0:0:0:
42,247,78161,1,0,0:0:0:0:
147,323,78306,2,0,P|190:305|249:317,1,80
374,347,78598,6,0,P|326:299|369:206,2,160
249,189,79472,1,0,0:0:0:0:
249,189,79617,2,0,L|426:163,1,160
448,65,80054,6,0,L|358:51,1,80
265,30,80345,2,0,L|248:124,1,80
79,79,80637,2,0,L|169:65,1,80
286,235,80928,6,0,P|215:241|167:161,1,160
32,298,81510,2,0,P|103:292|151:372,1,160
261,336,81947,2,0,P|338:352|415:334,1,160
479,245,82384,2,0,P|442:188|466:97,1,160
397,32,82821,1,0,0:0:0:0:
338,132,82967,1,0,0:0:0:0:
262,72,83112,6,0,P|204:38|97:58,1,160
93,156,83549,2,0,P|131:144|170:140,1,80
336,222,83840,2,0,P|299:207|260:199,1,80
91,276,84132,2,0,P|128:261|167:253,1,80
309,319,84423,6,0,P|396:313|413:227,1,160
397,79,84860,2,0,L|381:189,1,80
213,349,85151,2,0,P|198:271|156:204,1,160
44,114,85588,6,0,L|178:89,2,120.000004577637
44,114,86462,1,0,0:0:0:0:
89,207,86607,2,0,L|77:344,1,120.000004577637
166,360,87044,2,0,P|226:339|290:362,1,120.000004577637
352,284,87481,1,0,0:0:0:0:
445,312,87627,2,0,P|460:340|469:369,1,60.0000022888184
425,217,87918,6,0,P|411:167|421:94,2,120.000004577637
338,43,88792,1,0,0:0:0:0:
263,92,88938,2,0,P|205:90|130:75,1,120.000004577637
44,37,89374,2,0,P|54:95|57:155,1,120.000004577637
87,247,89811,2,0,P|145:236|205:233,1,120.000004577637
303,251,90248,6,0,L|313:338,1,80
421,359,90539,2,0,L|430:279,1,80
380,110,90831,2,0,L|390:197,1,80
500,217,91122,2,0,L|509:137,1,80
441,52,91413,6,0,L|283:80,1,160
86,139,91996,2,0,L|244:167,1,160
427,296,92578,2,0,P|388:245|428:163,2,160
356,357,93306,1,0,0:0:0:0:
278,294,93452,1,0,0:0:0:0:
196,352,93598,6,0,L|116:347,1,80
48,235,93889,2,0,L|128:240,1,80
308,207,94180,2,0,L|228:202,1,80
123,136,94472,6,0,L|128:41,2,80
256,192,94908,12,0,97239,0:0:0:0:
257,304,97530,5,0,0:0:0:0:
345,349,97675,2,0,P|392:302|487:322,1,160
447,209,98112,1,0,0:0:0:0:
447,209,98258,2,0,P|408:169|419:61,1,160
273,30,98695,6,0,L|284:129,1,80
294,210,98986,1,0,0:0:0:0:
294,210,99132,1,0,0:0:0:0:
188,172,99277,2,0,P|174:134|178:95,1,80
40,62,99569,6,0,P|73:117|52:238,1,160
54,311,100006,2,0,P|116:295|186:363,1,160
275,287,100442,1,0,0:0:0:0:
275,287,100588,2,0,P|317:327|419:311,1,160
461,229,101025,6,0,L|451:136,1,80
441,49,101316,1,0,0:0:0:0:
441,49,101462,1,0,0:0:0:0:
358,122,101607,2,0,P|349:165|353:211,1,80
236,233,101899,6,0,P|243:165|199:57,1,160
85,39,102336,2,0,P|58:113|63:192,1,160
107,303,102773,1,0,0:0:0:0:
256,344,102918,5,0,0:0:0:0:
