osu file format v14

[General]
AudioFilename: audio.mp3
AudioLeadIn: 0
PreviewTime: 126956
Countdown: 0
SampleSet: Soft
StackLeniency: 0.7
Mode: 0
LetterboxInBreaks: 0
WidescreenStoryboard: 1

[Editor]
DistanceSpacing: 0.8
BeatDivisor: 2
GridSize: 32
TimelineZoom: 1.2

[Metadata]
Title:Yukianesa
TitleUnicode:Yukianesa
Artist:Tezuka
ArtistUnicode:Tezuka
Creator:tezukadaisuki
Version:Insane
Source:Lanota
Tags:video game vocal tezuka lanota テヅカ rock male japanese
BeatmapID:2191671
BeatmapSetID:1048556

[Difficulty]
HPDrainRate:6
CircleSize:4
OverallDifficulty:6
ApproachRate:6
SliderMultiplier:1.4
SliderTickRate:1

[Events]
//Background and Video events
Video,0,"yuki.mp4"
0,0,"yu.jpg",0,0
//Break Periods
//Storyboard Layer 0 (Background)
//Storyboard Layer 1 (Fail)
//Storyboard Layer 2 (Pass)
//Storyboard Layer 3 (Foreground)
//Storyboard Layer 4 (Overlay)
//Storyboard Sound Samples

[TimingPoints]
12,285.714285714286,4,2,0,100,1,0

[Colours]
Combo1 : 242,24,57
Combo2 : 255,172,0
Combo3 : 18,124,255

[HitObjects]
448,64,2297,21,0,0:0:0:0:
160,128,2583,1,0,0:0:0:0:
32,160,2869,1,0,0:0:0:0:
160,256,3154,1,0,0:0:0:0:
32,288,3440,1,0,0:0:0:0:
160,352,3726,1,0,0:0:0:0:
256,256,4012,1,0,0:0:0:0:
256,128,4297,1,0,0:0:0:0:
320,32,4583,1,0,0:0:0:0:
416,128,4869,1,0,0:0:0:0:
320,160,5154,1,0,0:0:0:0:
416,224,5440,1,0,0:0:0:0:
256,288,5726,1,0,0:0:0:0:
480,352,6012,1,0,0:0:0:0:
512,224,6297,1,0,0:0:0:0:
480,64,6583,1,0,0:0:0:0:
416,96,6726,1,0,0:0:0:0:
352,128,6869,1,0,0:0:0:0:
256,32,7154,1,0,0:0:0:0:
116,47,7440,1,0,0:0:0:0:
44,116,7726,1,0,0:0:0:0:
224,160,8012,1,0,0:0:0:0:
96,256,8297,1,0,0:0:0:0:
256,320,8583,1,0,0:0:0:0:
31,341,8869,1,0,0:0:0:0:
32,229,9154,1,0,0:0:0:0:
76,123,9440,1,0,0:0:0:0:
89,11,9726,1,0,0:0:0:0:
192,224,10012,1,0,0:0:0:0:
287,15,10297,1,0,0:0:0:0:
448,64,10583,1,0,0:0:0:0:
288,128,10869,1,0,0:0:0:0:
448,192,11154,1,0,0:0:0:0:
320,256,11297,1,0,0:0:0:0:
480,320,11440,1,0,0:0:0:0:
320,352,11726,1,0,0:0:0:0:
256,256,12012,1,0,0:0:0:0:
192,352,12297,1,0,0:0:0:0:
32,288,12583,1,0,0:0:0:0:
192,224,12869,1,0,0:0:0:0:
64,192,13154,1,0,0:0:0:0:
224,128,13440,1,0,0:0:0:0:
96,64,13726,1,0,0:0:0:0:
256,32,14012,1,0,0:0:0:0:
352,0,14297,1,0,0:0:0:0:
480,32,14583,1,0,0:0:0:0:
320,96,14869,1,0,0:0:0:0:
448,160,15154,1,0,0:0:0:0:
320,224,15440,1,0,0:0:0:0:
448,288,15726,1,0,0:0:0:0:
384,320,15869,1,0,0:0:0:0:
320,352,16012,1,0,0:0:0:0:
192,320,16297,1,0,0:0:0:0:
0,256,16583,1,0,0:0:0:0:
256,160,16869,1,0,0:0:0:0:
32,128,17154,1,0,0:0:0:0:
288,64,17440,1,0,0:0:0:0:
64,32,17726,1,0,0:0:0:0:
320,0,18012,1,0,0:0:0:0:
480,64,18297,1,0,0:0:0:0:
352,96,18654,1,0,0:0:0:0:
448,192,19012,1,0,0:0:0:0:
288,224,19297,1,0,0:0:0:0:
448,352,19690,1,0,0:0:0:0:
32,192,20083,1,0,0:0:0:0:
256,64,20476,1,0,0:0:0:0:
256,363,21154,1,0,0:0:0:0:
256,192,21797,1,0,0:0:0:0:
160,32,24012,5,0,0:0:0:0:
0,151,24297,1,0,0:0:0:0:
32,224,24440,1,0,0:0:0:0:
78,296,24869,2,0,P|222:262|135:175,1,280
160,96,25726,1,0,0:0:0:0:
224,64,25869,1,0,0:0:0:0:
288,32,26012,1,0,0:0:0:0:
352,96,26297,2,0,P|413:170|363:276,1,210
128,352,27154,1,0,0:0:0:0:
32,288,27440,1,0,0:0:0:0:
32,64,27726,1,0,0:0:0:0:
176,133,28583,1,0,0:0:0:0:
229,179,28869,1,0,0:0:0:0:
280,228,29012,1,0,0:0:0:0:
192,249,29440,2,0,P|179:111|323:144,1,280
352,128,30154,1,0,0:0:0:0:
384,192,30297,1,0,0:0:0:0:
416,256,30440,1,0,0:0:0:0:
448,320,30583,1,0,0:0:0:0:
288,224,30869,1,0,0:0:0:0:
96,32,31154,1,0,0:0:0:0:
96,96,31297,1,0,0:0:0:0:
104,213,31726,2,0,P|220:294|139:358,1,280
115,290,32583,1,0,0:0:0:0:
32,192,32869,2,0,L|155:111,1,140
256,320,33583,1,0,0:0:0:0:
320,64,33869,1,0,0:0:0:0:
384,64,34012,1,0,0:0:0:0:
448,64,34154,1,0,0:0:0:0:
320,224,34583,1,0,0:0:0:0:
480,352,34869,1,0,0:0:0:0:
160,320,35154,1,0,0:0:0:0:
96,288,35297,1,0,0:0:0:0:
32,320,35440,1,0,0:0:0:0:
64,64,35726,1,0,0:0:0:0:
167,134,36012,2,0,B|370:170|338:163,1,140
384,352,36583,1,0,0:0:0:0:
480,192,36869,1,0,0:0:0:0:
416,0,37154,1,0,0:0:0:0:
288,0,37440,1,0,0:0:0:0:
224,32,37583,1,0,0:0:0:0:
160,64,37726,1,0,0:0:0:0:
256,128,38012,1,0,0:0:0:0:
192,160,38154,1,0,0:0:0:0:
480,256,38440,1,0,0:0:0:0:
256,352,38726,1,0,0:0:0:0:
32,256,39154,1,0,0:0:0:0:
96,64,39440,1,0,0:0:0:0:
352,352,39726,1,0,0:0:0:0:
416,320,39869,1,0,0:0:0:0:
480,288,40012,1,0,0:0:0:0:
352,64,40583,1,0,0:0:0:0:
256,160,41012,1,0,0:0:0:0:
256,224,41440,2,0,P|160:128|256:96,1,280
256,192,42297,12,0,46297,0:0:0:0:
0,0,46869,21,0,0:0:0:0:
64,64,47012,1,0,0:0:0:0:
128,128,47154,1,0,0:0:0:0:
192,192,47297,1,0,0:0:0:0:
256,128,47440,1,0,0:0:0:0:
320,192,47583,1,0,0:0:0:0:
384,128,47726,1,0,0:0:0:0:
448,192,47869,1,0,0:0:0:0:
256,320,48154,1,0,0:0:0:0:
0,192,48440,1,0,0:0:0:0:
91,15,48869,2,0,B|166:138,1,140
256,0,49440,1,0,0:0:0:0:
384,96,49726,1,0,0:0:0:0:
448,128,49869,1,0,0:0:0:0:
448,320,50154,1,0,0:0:0:0:
160,320,50440,1,0,0:0:0:0:
96,288,50583,1,0,0:0:0:0:
384,224,50869,1,0,0:0:0:0:
32,192,51154,1,0,0:0:0:0:
64,128,51297,1,0,0:0:0:0:
96,64,51440,1,0,0:0:0:0:
224,160,51726,1,0,0:0:0:0:
256,32,52012,1,0,0:0:0:0:
288,96,52154,1,0,0:0:0:0:
384,32,52440,1,0,0:0:0:0:
480,128,52726,1,0,0:0:0:0:
320,224,53012,2,0,B|480:269|445:264,1,140
192,352,53726,1,0,0:0:0:0:
128,320,53869,1,0,0:0:0:0:
64,288,54012,1,0,0:0:0:0:
160,160,54297,1,0,0:0:0:0:
96,96,54440,1,0,0:0:0:0:
320,32,54726,2,0,L|427:128,1,140
256,128,55297,1,0,0:0:0:0:
448,224,55583,1,0,0:0:0:0:
160,192,55869,1,0,0:0:0:0:
32,288,56297,1,0,0:0:0:0:
96,320,56440,1,0,0:0:0:0:
160,352,56583,1,0,0:0:0:0:
448,224,56869,1,0,0:0:0:0:
448,160,57012,1,0,0:0:0:0:
192,288,57297,1,0,0:0:0:0:
32,192,57583,1,0,0:0:0:0:
224,96,57869,1,0,0:0:0:0:
192,32,58012,1,0,0:0:0:0:
384,96,58297,2,0,L|320:128,1,70
160,192,58583,2,0,L|256:224,1,70
416,288,58869,1,0,0:0:0:0:
480,320,59012,1,0,0:0:0:0:
480,32,59297,1,0,0:0:0:0:
352,0,59583,1,0,0:0:0:0:
288,32,59726,1,0,0:0:0:0:
224,0,59869,1,0,0:0:0:0:
64,64,60154,1,0,0:0:0:0:
256,192,60440,1,0,0:0:0:0:
192,224,60583,1,0,0:0:0:0:
448,288,60869,1,0,0:0:0:0:
384,320,61012,1,0,0:0:0:0:
320,352,61155,1,0,0:0:0:0:
122,334,61441,1,0,0:0:0:0:
66,360,61583,2,0,P|-1:278|68:230,1,210
128,96,62297,1,0,0:0:0:0:
224,192,62583,1,0,0:0:0:0:
288,160,62726,1,0,0:0:0:0:
352,192,62869,5,0,0:0:0:0:
480,288,63155,1,0,0:0:0:0:
512,0,63440,1,0,0:0:0:0:
448,0,63583,1,0,0:0:0:0:
384,0,63726,1,0,0:0:0:0:
320,0,63869,1,0,0:0:0:0:
512,128,64154,1,0,0:0:0:0:
448,128,64297,1,0,0:0:0:0:
384,128,64440,1,0,0:0:0:0:
320,128,64583,1,0,0:0:0:0:
224,0,64869,1,0,0:0:0:0:
160,32,65012,1,0,0:0:0:0:
96,64,65154,1,0,0:0:0:0:
256,192,65440,1,0,0:0:0:0:
96,256,65726,1,0,0:0:0:0:
160,288,65869,1,0,0:0:0:0:
224,320,66012,1,0,0:0:0:0:
288,352,66154,1,0,0:0:0:0:
64,352,66583,1,0,0:0:0:0:
0,256,66869,1,0,0:0:0:0:
32,192,67012,1,0,0:0:0:0:
0,128,67154,1,0,0:0:0:0:
32,64,67297,1,0,0:0:0:0:
0,0,67440,1,0,0:0:0:0:
448,32,67726,1,0,0:0:0:0:
128,192,68012,1,0,0:0:0:0:
160,256,68154,1,0,0:0:0:0:
224,192,68297,1,0,0:0:0:0:
256,256,68440,1,0,0:0:0:0:
448,96,68726,1,0,0:0:0:0:
480,256,69154,1,0,0:0:0:0:
448,320,69297,1,0,0:0:0:0:
416,384,69440,1,0,0:0:0:0:
64,352,69726,2,0,L|0:216,1,140
480,160,70297,1,0,0:0:0:0:
64,128,70583,1,0,0:0:0:0:
128,96,70726,1,0,0:0:0:0:
256,0,71154,1,0,0:0:0:0:
494,21,71440,2,0,L|256:203,1,280
0,192,72440,21,0,0:0:0:0:
256,32,72869,1,0,0:0:0:0:
0,288,73440,1,0,0:0:0:0:
32,352,73583,1,0,0:0:0:0:
96,288,73726,1,0,0:0:0:0:
128,352,73869,1,0,0:0:0:0:
192,288,74012,1,0,0:0:0:0:
224,352,74154,1,0,0:0:0:0:
320,352,74297,2,0,L|189:144,1,210
352,64,75154,1,0,0:0:0:0:
160,32,75440,1,0,0:0:0:0:
384,0,75726,1,0,0:0:0:0:
448,32,75869,1,0,0:0:0:0:
512,64,76012,1,0,0:0:0:0:
256,224,76297,1,0,0:0:0:0:
480,320,76583,1,0,0:0:0:0:
145,258,77012,2,0,L|251:58,1,210
0,64,78012,1,0,0:0:0:0:
64,96,78154,1,0,0:0:0:0:
128,128,78297,1,0,0:0:0:0:
192,160,78440,1,0,0:0:0:0:
256,192,78583,1,0,0:0:0:0:
128,352,78869,1,0,0:0:0:0:
384,320,79154,1,0,0:0:0:0:
256,32,79297,1,0,0:0:0:0:
384,64,79726,1,0,0:0:0:0:
128,64,80297,1,0,0:0:0:0:
384,160,80583,1,0,0:0:0:0:
128,160,80869,1,0,0:0:0:0:
256,256,81154,1,0,0:0:0:0:
128,256,81440,1,0,0:0:0:0:
160,320,81583,1,0,0:0:0:0:
256,352,81869,1,0,0:0:0:0:
352,320,82154,1,0,0:0:0:0:
416,256,82583,2,0,L|335:121,1,140
320,64,83012,1,0,0:0:0:0:
224,64,83154,1,0,0:0:0:0:
32,128,83440,1,0,0:0:0:0:
224,192,83726,1,0,0:0:0:0:
160,224,83869,1,0,0:0:0:0:
96,256,84012,1,0,0:0:0:0:
384,256,84440,1,0,0:0:0:0:
32,320,84869,1,0,0:0:0:0:
416,352,85154,1,0,0:0:0:0:
448,128,85440,1,0,0:0:0:0:
416,64,85583,1,0,0:0:0:0:
352,32,85726,1,0,0:0:0:0:
352,256,86154,1,0,0:0:0:0:
32,160,86440,1,0,0:0:0:0:
61,213,86583,1,0,0:0:0:0:
89,271,86726,1,0,0:0:0:0:
512,320,87154,1,0,0:0:0:0:
480,256,87297,1,0,0:0:0:0:
448,192,87440,1,0,0:0:0:0:
288,32,87726,1,0,0:0:0:0:
224,64,87869,1,0,0:0:0:0:
160,96,88012,1,0,0:0:0:0:
0,256,88440,1,0,0:0:0:0:
128,384,88726,1,0,0:0:0:0:
352,288,89012,2,0,B|463:214|406:169|333:136,1,210
256,96,89726,1,4,0:0:0:0:
256,192,89869,1,4,0:0:0:0:
254,336,90297,1,0,0:0:0:0:
188,315,90440,1,0,0:0:0:0:
133,283,90583,1,0,0:0:0:0:
32,128,90869,1,0,0:0:0:0:
89,90,91012,1,0,0:0:0:0:
142,54,91154,1,0,0:0:0:0:
448,32,91440,1,0,0:0:0:0:
380,200,91726,1,0,0:0:0:0:
332,249,91869,1,0,0:0:0:0:
280,290,92012,1,0,0:0:0:0:
128,160,92297,1,0,0:0:0:0:
177,116,92440,1,0,0:0:0:0:
232,85,92583,1,0,0:0:0:0:
448,96,92869,1,0,0:0:0:0:
480,256,93154,1,0,0:0:0:0:
431,300,93297,1,0,0:0:0:0:
380,341,93440,1,0,0:0:0:0:
160,192,93726,1,0,0:0:0:0:
416,160,94012,1,0,0:0:0:0:
256,32,94297,1,0,0:0:0:0:
128,96,94583,1,0,0:0:0:0:
82,56,94726,1,0,0:0:0:0:
31,20,94869,1,0,0:0:0:0:
0,121,95154,1,0,0:0:0:0:
41,174,95297,1,0,0:0:0:0:
94,215,95440,1,0,0:0:0:0:
0,273,95726,1,0,0:0:0:0:
56,310,95869,1,0,0:0:0:0:
111,344,96012,1,0,0:0:0:0:
168,241,96297,2,0,L|335:319,1,140
350,333,96726,1,0,0:0:0:0:
394,285,96869,1,0,0:0:0:0:
428,239,97012,1,0,0:0:0:0:
477,192,97154,1,0,0:0:0:0:
419,122,97440,1,0,0:0:0:0:
381,74,97583,1,0,0:0:0:0:
347,28,97726,1,0,0:0:0:0:
192,0,98012,1,0,0:0:0:0:
192,64,98154,1,0,0:0:0:0:
192,128,98297,1,0,0:0:0:0:
64,352,98583,1,0,0:0:0:0:
32,160,98869,1,0,0:0:0:0:
320,192,99154,1,0,0:0:0:0:
352,256,99297,1,0,0:0:0:0:
384,320,99440,1,0,0:0:0:0:
448,320,99583,1,0,0:0:0:0:
480,256,99726,1,0,0:0:0:0:
512,192,100012,1,0,0:0:0:0:
480,32,100297,1,0,0:0:0:0:
416,64,100440,1,0,0:0:0:0:
352,32,100583,1,0,0:0:0:0:
96,64,100869,1,0,0:0:0:0:
448,192,101154,1,0,0:0:0:0:
160,352,101440,1,0,0:0:0:0:
117,315,101583,1,0,0:0:0:0:
82,270,101726,1,0,0:0:0:0:
103,154,102012,1,0,0:0:0:0:
59,118,102154,1,0,0:0:0:0:
20,76,102297,1,0,0:0:0:0:
192,32,102583,1,0,0:0:0:0:
224,96,102726,1,0,0:0:0:0:
256,160,102869,1,0,0:0:0:0:
416,192,103154,1,0,0:0:0:0:
448,256,103297,1,0,0:0:0:0:
480,320,103440,1,0,0:0:0:0:
32,320,103726,1,0,0:0:0:0:
64,256,103869,1,0,0:0:0:0:
96,192,104012,1,0,0:0:0:0:
256,0,104297,1,0,0:0:0:0:
288,64,104440,1,0,0:0:0:0:
320,128,104583,1,0,0:0:0:0:
480,128,104869,1,0,0:0:0:0:
480,192,105012,1,0,0:0:0:0:
480,256,105154,1,0,0:0:0:0:
452,331,105440,2,0,L|328:236,1,140
192,96,106012,1,0,0:0:0:0:
256,96,106154,1,0,0:0:0:0:
320,96,106297,1,0,0:0:0:0:
448,192,106726,1,0,0:0:0:0:
256,320,107012,1,0,0:0:0:0:
192,256,107154,1,0,0:0:0:0:
256,192,107297,1,0,0:0:0:0:
256,0,107726,1,0,0:0:0:0:
320,96,108012,1,0,0:0:0:0:
256,128,108226,1,0,0:0:0:0:
192,160,108440,1,0,0:0:0:0:
128,192,108583,21,0,0:0:0:0:
32,352,108869,1,0,0:0:0:0:
224,352,109154,1,0,0:0:0:0:
448,320,109440,2,0,L|368:183,1,140
160,32,110012,1,0,0:0:0:0:
448,96,110297,2,0,L|493:260,1,140
256,352,110869,1,0,0:0:0:0:
96,256,111154,2,0,P|56:105|180:106,1,280
448,32,112012,1,0,0:0:0:0:
416,352,112297,1,0,0:0:0:0:
352,96,112583,1,0,0:0:0:0:
224,256,112869,1,0,0:0:0:0:
192,192,113012,1,0,0:0:0:0:
160,128,113154,1,0,0:0:0:0:
96,192,113297,1,0,0:0:0:0:
64,128,113440,1,0,0:0:0:0:
32,64,113583,1,0,0:0:0:0:
0,0,113726,1,0,0:0:0:0:
160,0,114012,1,0,0:0:0:0:
224,32,114154,1,0,0:0:0:0:
288,64,114297,1,0,0:0:0:0:
416,64,114583,1,0,0:0:0:0:
448,128,114726,1,0,0:0:0:0:
480,192,114869,1,0,0:0:0:0:
192,352,115154,1,0,0:0:0:0:
128,320,115297,1,0,0:0:0:0:
64,288,115440,1,0,0:0:0:0:
128,0,115726,1,0,0:0:0:0:
192,0,115869,1,0,0:0:0:0:
256,0,116012,1,0,0:0:0:0:
416,64,116297,1,0,0:0:0:0:
352,96,116440,1,0,0:0:0:0:
288,128,116583,2,0,L|240:195,1,70
320,192,116869,2,0,L|240:293,1,70
384,224,117154,2,0,L|316:301,1,70
256,352,117440,1,0,0:0:0:0:
192,352,117583,1,0,0:0:0:0:
128,352,117726,1,0,0:0:0:0:
64,64,118012,1,0,0:0:0:0:
256,256,118297,1,0,0:0:0:0:
480,192,118583,1,0,0:0:0:0:
256,96,118726,1,0,0:0:0:0:
320,64,118869,1,0,0:0:0:0:
480,0,119154,1,0,0:0:0:0:
224,0,119440,1,0,0:0:0:0:
128,64,119726,1,0,0:0:0:0:
64,96,119869,1,0,0:0:0:0:
0,128,120012,1,0,0:0:0:0:
224,192,120297,1,0,0:0:0:0:
128,224,120583,1,0,0:0:0:0:
224,256,120869,1,0,0:0:0:0:
128,288,121012,1,0,0:0:0:0:
224,320,121154,1,0,0:0:0:0:
288,384,121440,1,0,0:0:0:0:
352,384,121726,1,0,0:0:0:0:
416,384,122012,2,0,B|335:222|350:249,1,140
256,192,122583,21,0,0:0:0:0:
160,352,122869,1,0,0:0:0:0:
96,352,123012,1,0,0:0:0:0:
32,224,123297,2,0,P|52:95|153:73,1,210
224,96,124012,1,0,0:0:0:0:
256,160,124154,1,0,0:0:0:0:
288,224,124297,1,0,0:0:0:0:
320,288,124440,1,0,0:0:0:0:
384,320,124583,1,0,0:0:0:0:
448,288,124726,1,0,0:0:0:0:
480,224,124869,1,0,0:0:0:0:
448,160,125012,1,0,0:0:0:0:
416,96,125154,1,0,0:0:0:0:
352,64,125297,1,0,0:0:0:0:
288,96,125440,1,0,0:0:0:0:
224,128,125583,1,0,0:0:0:0:
160,160,125726,1,0,0:0:0:0:
96,192,125869,1,0,0:0:0:0:
64,256,126012,1,0,0:0:0:0:
128,320,126154,1,0,0:0:0:0:
192,352,126297,1,0,0:0:0:0:
256,320,126440,1,0,0:0:0:0:
320,288,126583,1,0,0:0:0:0:
384,256,126726,1,0,0:0:0:0:
448,64,127012,1,0,0:0:0:0:
384,96,127154,1,0,0:0:0:0:
160,256,127440,1,0,0:0:0:0:
128,192,127583,1,0,0:0:0:0:
96,0,127869,1,0,0:0:0:0:
382,0,128297,1,0,0:0:0:0:
255,46,128583,2,0,L|255:238,1,140
256,352,129154,21,4,0:0:0:0:
32,192,129440,1,0,0:0:0:0:
256,32,129726,1,0,0:0:0:0:
480,192,130012,1,0,0:0:0:0:
433,244,130154,1,0,0:0:0:0:
382,287,130297,1,0,0:0:0:0:
192,128,130583,1,0,0:0:0:0:
160,256,130869,1,0,0:0:0:0:
1,303,131154,1,0,0:0:0:0:
32,352,131297,1,0,0:0:0:0:
100,329,131440,1,0,0:0:0:0:
208,375,131726,1,0,0:0:0:0:
233,324,131869,1,0,0:0:0:0:
256,274,132012,1,0,0:0:0:0:
416,384,132154,1,0,0:0:0:0:
448,320,132297,1,0,0:0:0:0:
192,160,132583,1,0,0:0:0:0:
464,140,132869,1,0,0:0:0:0:
488,82,133012,1,0,0:0:0:0:
488,22,133154,1,0,0:0:0:0:
383,99,133440,1,0,0:0:0:0:
359,37,133583,1,0,0:0:0:0:
313,3,133726,1,0,0:0:0:0:
32,64,134012,1,0,0:0:0:0:
288,96,134297,1,0,0:0:0:0:
384,320,134583,1,0,0:0:0:0:
320,352,134726,1,0,0:0:0:0:
32,288,135154,1,0,0:0:0:0:
64,224,135297,1,0,0:0:0:0:
96,160,135440,1,0,0:0:0:0:
180,198,135726,1,0,0:0:0:0:
190,133,135869,1,0,0:0:0:0:
208,64,136012,2,0,L|322:247,1,210
448,128,136726,1,0,0:0:0:0:
320,352,137012,1,0,0:0:0:0:
512,256,137297,1,0,0:0:0:0:
512,192,137440,1,0,0:0:0:0:
480,32,137726,1,0,0:0:0:0:
352,128,138012,2,0,B|255:157|257:53,1,140
416,0,138583,1,0,0:0:0:0:
32,32,138869,1,0,0:0:0:0:
160,160,139154,1,0,0:0:0:0:
224,192,139297,1,0,0:0:0:0:
288,224,139440,1,0,0:0:0:0:
96,288,139726,1,0,0:0:0:0:
160,320,139869,1,0,0:0:0:0:
224,352,140012,1,0,0:0:0:0:
384,320,140297,1,0,0:0:0:0:
448,288,140440,1,0,0:0:0:0:
512,256,140583,5,0,0:0:0:0:
512,192,140726,1,0,0:0:0:0:
512,128,140869,1,0,0:0:0:0:
416,128,141154,1,0,0:0:0:0:
352,160,141297,1,0,0:0:0:0:
288,192,141440,1,0,0:0:0:0:
448,224,141726,1,0,0:0:0:0:
384,256,141869,1,0,0:0:0:0:
320,288,142012,1,0,0:0:0:0:
224,352,142297,2,0,L|117:259,1,140
192,128,142869,1,0,0:0:0:0:
480,96,143154,1,0,0:0:0:0:
256,0,143440,2,0,L|128:32,1,70
96,64,143726,1,0,0:0:0:0:
64,128,143869,1,0,0:0:0:0:
32,192,144012,1,0,0:0:0:0:
64,256,144297,1,0,0:0:0:0:
128,288,144440,1,0,0:0:0:0:
192,256,144583,1,0,0:0:0:0:
256,224,144869,1,0,0:0:0:0:
224,160,145012,1,0,0:0:0:0:
256,96,145154,1,0,0:0:0:0:
320,64,145440,1,0,0:0:0:0:
384,96,145583,1,0,0:0:0:0:
416,160,145726,1,0,0:0:0:0:
416,224,146012,1,0,0:0:0:0:
352,256,146154,1,0,0:0:0:0:
288,256,146297,1,0,0:0:0:0:
256,192,146583,1,0,0:0:0:0:
224,128,146726,1,0,0:0:0:0:
160,64,146869,1,0,0:0:0:0:
64,64,147154,1,0,0:0:0:0:
32,128,147297,1,0,0:0:0:0:
0,192,147440,1,0,0:0:0:0:
64,224,147726,1,0,0:0:0:0:
128,256,148012,1,0,0:0:0:0:
192,192,148297,1,0,0:0:0:0:
256,96,148440,1,0,0:0:0:0:
320,128,148726,2,0,L|384:288,1,140
224,256,149154,1,0,0:0:0:0:
128,320,149440,2,0,B|288:384,1,140
352,352,150011,21,0,0:0:0:0:
512,256,150297,1,0,0:0:0:0:
448,192,150440,1,0,0:0:0:0:
512,128,150725,1,0,0:0:0:0:
288,32,151154,1,0,0:0:0:0:
192,352,151440,1,0,0:0:0:0:
0,160,151725,1,0,0:0:0:0:
32,96,151869,1,0,0:0:0:0:
64,32,152011,1,0,0:0:0:0:
224,0,152297,1,0,0:0:0:0:
512,192,152583,1,0,0:0:0:0:
512,256,152725,1,0,0:0:0:0:
64,192,153011,1,0,0:0:0:0:
224,64,153297,1,0,0:0:0:0:
320,192,153583,1,0,0:0:0:0:
480,32,153868,1,0,0:0:0:0:
320,352,154297,1,0,0:0:0:0:
256,320,154440,1,0,0:0:0:0:
192,288,154583,1,0,0:0:0:0:
32,96,154868,1,0,0:0:0:0:
96,64,155011,1,0,0:0:0:0:
288,160,155297,1,0,0:0:0:0:
352,0,155583,1,0,0:0:0:0:
480,160,155868,1,0,0:0:0:0:
224,224,156154,1,0,0:0:0:0:
160,192,156297,1,0,0:0:0:0:
96,160,156440,1,0,0:0:0:0:
96,256,156869,2,0,P|131:330|209:314,1,140
256,320,157440,1,0,0:0:0:0:
320,288,157583,1,0,0:0:0:0:
448,32,157868,1,0,0:0:0:0:
192,256,158154,1,0,0:0:0:0:
0,96,158440,1,0,0:0:0:0:
64,64,158583,1,0,0:0:0:0:
128,0,158869,1,0,0:0:0:0:
192,0,159012,1,0,0:0:0:0:
256,0,159154,1,0,0:0:0:0:
192,96,159297,1,0,0:0:0:0:
256,96,159440,1,0,0:0:0:0:
224,192,159726,1,0,0:0:0:0:
288,192,159868,1,0,0:0:0:0:
64,320,160154,1,0,0:0:0:0:
256,352,160440,1,0,0:0:0:0:
448,320,160725,1,0,0:0:0:0:
512,224,161011,1,0,0:0:0:0:
480,160,161154,1,0,0:0:0:0:
352,32,161440,1,0,0:0:0:0:
256,256,161726,1,0,0:0:0:0:
160,32,162012,1,0,0:0:0:0:
96,64,162154,1,0,0:0:0:0:
64,192,162583,1,0,0:0:0:0:
0,256,162726,1,0,0:0:0:0:
64,320,162868,1,0,0:0:0:0:
256,192,163154,1,0,0:0:0:0:
320,224,163297,1,0,0:0:0:0:
384,256,163440,1,0,0:0:0:0:
512,192,163726,1,0,0:0:0:0:
416,32,164011,1,0,0:0:0:0:
352,32,164154,2,0,L|259:165,1,140
320,224,164726,1,0,0:0:0:0:
384,266,164869,2,0,P|297:277|242:221,1,140
192,192,165297,1,0,0:0:0:0:
160,128,165440,1,0,0:0:0:0:
128,64,165583,1,0,0:0:0:0:
96,0,165725,1,0,0:0:0:0:
0,64,166011,1,0,0:0:0:0:
96,192,166297,1,0,0:0:0:0:
64,256,166440,1,0,0:0:0:0:
416,352,166725,1,0,0:0:0:0:
160,128,167154,1,0,0:0:0:0:
352,0,167440,1,0,0:0:0:0:
384,64,167583,1,0,0:0:0:0:
416,128,167725,1,0,0:0:0:0:
448,192,167869,1,0,0:0:0:0:
480,256,168011,1,0,0:0:0:0:
224,32,168297,1,0,0:0:0:0:
384,256,168583,1,0,0:0:0:0:
416,352,168725,1,0,0:0:0:0:
128,64,169011,1,0,0:0:0:0:
256,288,169297,1,0,0:0:0:0:
0,64,169726,2,0,L|32:128,1,70
32,192,170011,1,0,0:0:0:0:
0,352,170297,1,0,0:0:0:0:
320,352,170583,1,0,0:0:0:0:
480,192,170868,1,0,0:0:0:0:
96,288,171154,1,0,0:0:0:0:
96,192,171297,1,0,0:0:0:0:
320,0,171726,1,0,0:0:0:0:
416,0,171869,1,0,0:0:0:0:
512,0,172011,2,0,L|274:182,1,280
256,32,172869,1,0,0:0:0:0:
64,352,173154,1,0,0:0:0:0:
448,128,173440,1,0,0:0:0:0:
64,128,173726,1,0,0:0:0:0:
448,352,174012,1,0,0:0:0:0:
256,32,174297,1,0,0:0:0:0:
256,192,174726,1,0,0:0:0:0:
256,320,175297,1,0,0:0:0:0:
