osu file format v14

[General]
AudioFilename: audio.mp3
AudioLeadIn: 0
PreviewTime: 49364
Countdown: 0
SampleSet: Normal
StackLeniency: 0.7
Mode: 0
LetterboxInBreaks: 0
WidescreenStoryboard: 1

[Editor]
Bookmarks: 124964
DistanceSpacing: 1.3
BeatDivisor: 4
GridSize: 4
TimelineZoom: 1.500006

[Metadata]
Title:1BitHeart
TitleUnicode:1BitHeart
Artist:Tezuka & Miwashiba feat. Minx
ArtistUnicode:Tezuka & Miwashiba feat. Minx
Creator:Epiclol
Version:Hard Alley
Source:
Tags:nanashi yoshi nanase vgperson
BeatmapID:1274796
BeatmapSetID:603591

[Difficulty]
HPDrainRate:5
CircleSize:4
OverallDifficulty:6
ApproachRate:8
SliderMultiplier:1.4
SliderTickRate:1

[Events]
//Background and Video events
0,0,"cocoalleybg.png",0,0
//Break Periods
2,79564,87224
2,116164,123524
//Storyboard Layer 0 (Background)
//Storyboard Layer 1 (Fail)
//Storyboard Layer 2 (Pass)
//Storyboard Layer 3 (Foreground)
//Storyboard Sound Samples

[TimingPoints]
2564,300,4,1,0,53,1,0
4964,-133.333333333333,4,1,0,53,0,0
7364,-100,4,1,0,53,0,0
12014,-133.333333333333,4,1,0,53,0,0
21764,-111.111111111111,4,1,0,53,0,0
31364,-133.333333333333,4,1,0,53,0,0
40964,-111.111111111111,4,1,0,53,0,0
48914,-100,4,1,0,53,0,0
50564,-76.9230769230769,4,1,0,53,0,1
79364,-100,4,1,0,53,0,0
88964,-111.111111111111,4,1,0,53,0,0
133364,-100,4,1,0,53,0,0
139364,-76.9230769230769,4,1,0,53,0,1
170564,-100,4,1,0,53,0,0
189764,-133.333333333333,4,1,0,53,0,0
192164,-100,4,1,0,53,0,0

[Colours]
Combo1 : 26,10,39
Combo2 : 206,169,160
Combo3 : 220,162,124
Combo4 : 122,55,79
Combo5 : 73,26,62

[HitObjects]
140,156,2564,6,0,P|129:210|181:269,2,140
200,100,3314,2,0,L|272:64,1,70
344,88,3614,2,0,P|392:116|480:116,2,140
184,32,4514,6,0,L|108:32,1,70
32,52,4814,1,0,0:0:0:0:
100,112,4964,6,0,P|136:144|152:204,2,105.000004005432
36,156,5714,2,0,L|36:216,1,52.5000020027161
40,260,6014,2,0,P|69:300|137:307,1,105.000004005432
204,304,6464,6,0,P|250:316|297:361,2,105.000004005432
172,196,7364,6,0,P|165:127|203:71,2,140
252,240,8114,2,0,P|320:233|376:271,2,140
168,280,8864,5,0,0:0:0:0:
92,332,9014,2,0,P|41:275|41:208,1,140
76,131,9464,1,0,0:0:0:0:
161,100,9614,2,0,B|201:96|201:96|309:136,1,140
385,122,10064,6,0,P|377:194|329:258,1,140
274,312,10514,1,0,0:0:0:0:
360,338,10664,2,0,B|412:346|412:346|464:258,1,140
472,180,11114,6,0,L|468:108,1,70
432,68,11414,2,0,P|350:65|307:23,1,140
220,44,11864,1,0,0:0:0:0:
132,44,12014,2,0,L|96:164,1,105.000004005432
20,128,12464,6,0,L|44:236,1,105.000004005432
112,280,12914,2,0,L|176:264,1,52.5000020027161
200,232,13214,2,0,P|248:221|312:260,1,105.000004005432
352,288,13664,6,0,L|384:188,1,105.000004005432
396,112,14114,1,0,0:0:0:0:
320,132,14264,1,0,0:0:0:0:
344,56,14414,2,0,P|396:36|448:59,1,105.000004005432
480,120,14864,6,0,L|444:240,1,105.000004005432
480,292,15314,2,0,L|436:340,1,52.5000020027161
392,344,15614,2,0,P|352:304|348:248,1,105.000004005432
316,184,16064,6,0,P|265:210|208:212,1,105.000004005432
140,204,16514,1,0,0:0:0:0:
184,140,16664,1,0,0:0:0:0:
104,132,16814,2,0,B|60:136|60:136|24:200,1,105.000004005432
32,268,17264,6,0,P|56:312|112:332,1,105.000004005432
172,292,17714,2,0,L|240:272,1,52.5000020027161
272,264,18014,2,0,P|324:272|364:332,1,105.000004005432
428,345,18464,6,0,L|456:243,1,105.000004005432
475,166,18914,1,0,0:0:0:0:
397,180,19064,1,0,0:0:0:0:
324,149,19214,2,0,P|283:110|278:54,1,105.000004005432
205,29,19664,6,0,L|129:126,1,105.000004005432
88,171,20114,1,0,0:0:0:0:
133,235,20264,1,0,0:0:0:0:
67,278,20414,2,0,P|94:331|146:342,1,105.000004005432
211,323,20864,5,0,0:0:0:0:
246,252,21014,2,0,L|266:136,2,105.000004005432
311,319,21764,6,0,L|403:327,1,62.9999980773926
455,313,22064,1,0,0:0:0:0:
407,246,22214,1,0,0:0:0:0:
455,179,22364,2,0,P|487:192|508:219,2,62.9999980773926
374,162,22814,2,0,P|316:122|290:67,1,125.999996154785
212,50,23264,6,0,P|218:108|174:177,1,125.999996154785
123,216,23714,2,0,P|73:273|74:329,2,125.999996154785
204,228,24464,5,0,0:0:0:0:
160,297,24614,1,0,0:0:0:0:
241,296,24764,2,0,L|313:304,1,62.9999980773926
384,318,25064,1,0,0:0:0:0:
375,236,25214,2,0,P|425:193|487:198,1,125.999996154785
451,273,25664,5,0,0:0:0:0:
383,319,25814,1,0,0:0:0:0:
302,303,25964,2,0,B|237:283|237:283|204:229,1,125.999996154785
171,160,26414,2,0,P|119:121|52:134,1,125.999996154785
100,201,26864,5,0,0:0:0:0:
24,233,27014,1,0,0:0:0:0:
90,281,27164,2,0,L|42:353,2,62.9999980773926
165,248,27614,2,0,P|233:235|283:175,1,125.999996154785
274,114,28064,5,0,0:0:0:0:
348,147,28214,1,0,0:0:0:0:
342,65,28364,2,0,P|395:29|478:40,1,125.999996154785
452,105,28814,2,0,L|428:233,1,125.999996154785
485,288,29264,6,0,B|440:320|440:320|346:308,1,125.999996154785
288,295,29714,1,0,0:0:0:0:
227,349,29864,2,0,P|152:342|114:306,2,125.999996154785
288,296,30614,5,0,0:0:0:0:
257,219,30764,1,0,0:0:0:0:
175,228,30914,2,0,P|127:193|44:208,1,125.999996154785
23,141,31364,6,0,P|19:90|45:38,1,105.000004005432
114,30,31814,1,0,0:0:0:0:
179,62,31964,2,0,P|227:57|290:12,1,105.000004005432
348,43,32414,1,0,0:0:0:0:
308,104,32564,6,0,L|356:220,1,105.000004005432
395,258,33014,1,0,0:0:0:0:
331,295,33164,2,0,P|287:326|229:329,1,105.000004005432
169,303,33614,1,0,0:0:0:0:
227,258,33764,6,0,P|268:216|272:164,1,105.000004005432
198,186,34214,2,0,L|135:160,1,52.5000020027161
76,163,34514,2,0,P|40:226|57:260,1,105.000004005432
101,305,34964,5,0,0:0:0:0:
162,264,35114,2,0,L|210:308,1,52.5000020027161
241,333,35414,1,0,0:0:0:0:
300,289,35564,2,0,P|343:324|409:313,1,105.000004005432
458,295,36014,1,0,0:0:0:0:
469,222,36164,6,0,P|468:180|414:129,2,105.000004005432
400,247,36914,1,0,0:0:0:0:
350,192,37064,1,0,0:0:0:0:
345,118,37214,1,0,0:0:0:0:
387,58,37364,6,0,L|284:27,1,105.000004005432
234,34,37814,2,0,L|190:61,1,52.5000020027161
226,124,38114,2,0,L|181:151,1,52.5000020027161
120,196,38414,1,0,0:0:0:0:
84,132,38564,6,0,P|48:178|56:232,1,105.000004005432
88,288,39014,1,0,0:0:0:0:
160,272,39164,1,0,0:0:0:0:
196,336,39314,2,0,P|248:336|300:308,1,105.000004005432
364,284,39764,6,0,L|372:348,1,52.5000020027161
444,352,40064,2,0,L|436:288,1,52.5000020027161
428,228,40364,1,0,0:0:0:0:
480,176,40514,1,0,0:0:0:0:
412,152,40664,2,0,L|348:124,1,52.5000020027161
368,48,40964,6,0,P|306:38|250:66,1,125.999996154785
188,116,41414,1,0,0:0:0:0:
120,72,41564,2,0,L|64:32,1,62.9999980773926
44,112,41864,1,0,0:0:0:0:
116,156,42014,2,0,P|144:200|112:280,1,125.999996154785
68,216,42464,5,0,0:0:0:0:
40,292,42614,1,0,0:0:0:0:
88,356,42764,2,0,L|156:352,1,62.9999980773926
224,316,43064,1,0,0:0:0:0:
296,352,43214,1,0,0:0:0:0:
364,308,43364,6,0,P|432:320|484:376,2,125.999996154785
292,272,44114,1,0,0:0:0:0:
360,228,44264,1,0,0:0:0:0:
288,192,44414,2,0,P|242:144|227:70,1,125.999996154785
156,48,44864,6,0,P|97:60|53:107,2,125.999996154785
226,87,45614,1,0,0:0:0:0:
296,48,45764,6,0,L|428:128,1,125.999996154785
472,156,46214,1,0,0:0:0:0:
484,236,46364,2,0,P|427:270|364:248,1,125.999996154785
296,228,46814,2,0,P|274:313|224:336,1,125.999996154785
216,252,47264,5,0,0:0:0:0:
156,308,47414,1,0,0:0:0:0:
136,228,47564,2,0,P|156:192|156:156,1,62.9999980773926
232,136,47864,2,0,P|192:81|125:66,1,125.999996154785
64,32,48314,6,0,L|40:120,1,62.9999980773926
40,176,48614,2,0,L|60:252,1,62.9999980773926
80,324,48914,2,0,L|48:352,6,35
232,152,50564,6,0,P|311:130|382:198,1,181.999991668702
400,272,51014,1,0,0:0:0:0:
332,320,51164,2,0,B|288:328|288:328|220:256|220:256|156:248,1,181.999991668702
124,192,51614,2,0,P|121:127|201:37,2,181.999991668702
100,272,52364,6,0,P|54:272|0:240,2,90.9999958343508
181,251,52814,1,0,0:0:0:0:
244,300,52964,6,0,B|304:324|304:324|336:276|320:204,1,181.999991668702
304,132,53414,1,0,0:0:0:0:
384,108,53564,2,0,P|430:127|473:124,2,90.9999958343508
320,56,54014,2,0,P|240:28|140:40,1,181.999991668702
64,36,54464,5,0,0:0:0:0:
28,112,54614,1,0,0:0:0:0:
108,112,54764,2,0,P|160:132|232:120,1,90.9999958343508
279,120,55064,2,0,B|291:168|291:168|219:188|155:260,1,181.999991668702
112,284,55514,5,0,0:0:0:0:
32,260,55664,2,0,P|56:200|96:184,2,90.9999958343508
44,340,56114,2,0,P|100:364|220:312,1,181.999991668702
280,284,56564,5,0,0:0:0:0:
361,276,56714,1,0,0:0:0:0:
327,350,56864,1,0,0:0:0:0:
408,348,57014,2,0,P|452:344|477:299,1,90.9999958343508
485,226,57314,1,0,0:0:0:0:
408,197,57464,2,0,B|368:165|368:165|427:117|426:36,1,181.999991668702
346,29,57914,6,0,P|279:45|254:79,1,90.9999958343508
303,132,58214,2,0,P|266:158|222:162,1,90.9999958343508
143,139,58514,1,0,0:0:0:0:
176,64,58664,1,0,0:0:0:0:
99,35,58814,2,0,P|55:47|23:90,1,90.9999958343508
9,162,59114,5,0,0:0:0:0:
81,199,59264,2,0,P|99:248|79:290,1,90.9999958343508
14,322,59564,2,0,P|51:352|124:333,1,90.9999958343508
165,314,59864,2,0,B|211:280|211:280|339:336,1,181.999991668702
402,300,60314,5,0,0:0:0:0:
346,239,60464,2,0,B|306:231|306:231|308:153|249:106,1,181.999991668702
176,72,60914,1,0,0:0:0:0:
188,154,61064,2,0,P|183:241|85:266,1,181.999991668702
116,190,61514,6,0,P|72:190|32:238,1,90.9999958343508
32,302,61814,1,0,0:0:0:0:
100,346,61964,2,0,P|180:345|265:262,2,181.999991668702
32,302,62714,5,0,0:0:0:0:
104,272,62864,2,0,B|104:222|104:222|184:222|244:166,1,181.999991668702
296,138,63314,2,0,L|368:210,1,90.9999958343508
420,258,63614,2,0,P|394:330|280:336,1,181.999991668702
224,318,64064,6,0,P|176:344|113:328,1,90.9999958343508
104,272,64364,2,0,P|136:182|120:80,2,181.999991668702
60,342,65114,5,0,0:0:0:0:
104,272,65264,2,0,P|161:195|256:153,1,181.999991668702
316,142,65714,1,0,0:0:0:0:
264,78,65864,2,0,B|232:46|232:46|80:26,1,181.999991668702
24,66,66314,5,0,0:0:0:0:
60,142,66464,2,0,P|111:215|212:226,1,181.999991668702
240,158,66914,1,0,0:0:0:0:
316,142,67064,2,0,P|404:126|482:190,1,181.999991668702
480,258,67514,6,0,P|464:301|419:327,1,90.9999958343508
360,278,67814,1,0,0:0:0:0:
324,354,67964,2,0,B|280:354|280:354|208:294|208:294|160:306,1,181.999991668702
88,334,68414,1,0,0:0:0:0:
96,254,68564,6,0,P|118:211|160:190,1,90.9999958343508
232,218,68864,2,0,L|263:132,1,90.9999958343508
344,154,69164,2,0,P|366:111|408:90,1,90.9999958343508
484,74,69464,2,0,P|448:190|396:226,1,181.999991668702
328,258,69914,5,0,0:0:0:0:
340,338,70064,1,0,0:0:0:0:
260,314,70214,1,0,0:0:0:0:
184,342,70364,2,0,P|176:298|220:246,1,90.9999958343508
260,206,70664,1,0,0:0:0:0:
188,170,70814,2,0,B|144:146|144:146|72:170|16:102,1,181.999991668702
24,30,71264,5,0,0:0:0:0:
104,54,71414,2,0,P|200:50|268:122,1,181.999991668702
292,178,71864,1,0,0:0:0:0:
348,122,72014,1,0,0:0:0:0:
332,42,72164,6,0,P|380:46|424:98,1,90.9999958343508
476,126,72464,2,0,L|396:210,1,90.9999958343508
456,262,72764,2,0,P|415:280|370:273,1,90.9999958343508
292,246,73064,1,0,0:0:0:0:
280,326,73214,1,0,0:0:0:0:
200,334,73364,6,0,P|148:326|104:298,2,90.9999958343508
208,250,73814,2,0,P|176:166|80:170,1,181.999991668702
128,234,74264,2,0,P|40:226|24:126,1,181.999991668702
60,78,74714,6,0,L|140:22,1,90.9999958343508
192,82,75014,2,0,L|308:114,1,90.9999958343508
356,130,75314,1,0,0:0:0:0:
344,50,75464,1,0,0:0:0:0:
418,83,75614,2,0,P|459:174|434:263,1,181.999991668702
392,316,76064,5,0,0:0:0:0:
322,273,76214,2,0,B|239:269|244:354|144:329,1,181.999991668702
76,315,76664,1,0,0:0:0:0:
126,250,76814,1,0,0:0:0:0:
46,232,76964,6,0,B|41:182|41:182|115:138|109:58,1,181.999991668702
172,23,77414,1,0,0:0:0:0:
216,91,77564,2,0,P|225:135|269:178,2,90.9999958343508
270,30,78014,1,0,0:0:0:0:
352,26,78164,6,0,L|452:54,1,90.9999958343508
476,126,78464,2,0,P|447:160|404:172,1,90.9999958343508
324,150,78764,2,0,L|344:250,1,90.9999958343508
312,314,79064,2,0,P|270:329|229:312,1,90.9999958343508
172,250,79364,5,0,0:0:0:0:
340,120,88664,6,0,L|376:216,1,70
383,265,88964,6,0,P|335:308|263:309,2,125.999996154785
436,202,89714,1,0,0:0:0:0:
438,120,89864,1,0,0:0:0:0:
384,57,90014,2,0,P|325:37|252:65,1,125.999996154785
202,107,90464,6,0,P|145:132|77:117,1,125.999996154785
13,80,90914,1,0,0:0:0:0:
7,161,91064,2,0,P|25:226|73:276,2,125.999996154785
13,80,91814,6,0,B|63:40|63:40|141:43,1,125.999996154785
204,61,92264,1,0,0:0:0:0:
261,119,92414,2,0,P|233:183|172:212,1,125.999996154785
108,235,92864,5,0,0:0:0:0:
172,285,93014,2,0,P|227:301|288:355,1,125.999996154785
361,354,93464,2,0,P|411:329|433:256,2,125.999996154785
279,343,94214,5,0,0:0:0:0:
298,263,94364,2,0,L|360:243,2,62.9999980773926
218,286,94814,2,0,P|159:271|140:197,1,125.999996154785
218,207,95264,6,0,L|361:163,1,125.999996154785
415,142,95714,1,0,0:0:0:0:
354,86,95864,2,0,P|304:50|234:48,2,125.999996154785
415,142,96614,6,0,L|479:210,1,62.9999980773926
432,264,96914,2,0,L|372:200,1,62.9999980773926
308,236,97214,2,0,L|368:300,1,62.9999980773926
272,304,97514,6,0,L|224:252,1,62.9999980773926
164,208,97814,2,0,P|88:208|52:268,2,125.999996154785
244,184,98564,6,0,P|308:156|324:88,2,125.999996154785
248,104,99314,1,0,0:0:0:0:
172,68,99464,2,0,P|145:82|115:125,2,62.9999980773926
244,24,99914,5,0,0:0:0:0:
324,24,100064,2,0,P|354:24|393:40,1,62.9999980773926
456,72,100364,1,0,0:0:0:0:
388,124,100514,1,0,0:0:0:0:
388,124,100664,2,0,P|346:190|340:252,2,125.999996154785
232,172,101564,6,0,P|227:236|184:304,2,125.999996154785
112,60,102464,5,0,0:0:0:0:
112,60,102614,2,0,P|64:112|68:176,1,125.999996154785
104,236,103064,2,0,P|74:303|11:342,2,125.999996154785
140,164,103814,5,0,0:0:0:0:
188,228,103964,1,0,0:0:0:0:
188,308,104114,2,0,L|268:336,1,62.9999980773926
328,348,104414,2,0,P|392:345|436:284,1,125.999996154785
356,272,104864,5,0,0:0:0:0:
412,212,105014,2,0,P|436:158|402:76,1,125.999996154785
360,40,105464,1,0,0:0:0:0:
336,120,105614,1,0,0:0:0:0:
280,60,105764,6,0,P|224:72|152:48,1,125.999996154785
80,28,106214,2,0,L|52:84,1,62.9999980773926
20,160,106514,2,0,L|96:196,1,62.9999980773926
148,224,106814,2,0,P|208:236|262:205,1,125.999996154785
324,152,107264,6,0,P|355:227|340:292,2,125.999996154785
204,40,108164,6,0,L|92:124,1,125.999996154785
268,120,108764,2,0,L|380:36,1,125.999996154785
332,204,109364,6,0,L|231:279,1,125.999996154785
68,276,109964,2,0,L|180:192,1,125.999996154785
204,40,110564,2,0,L|103:115,1,125.999996154785
268,132,111164,2,0,P|315:156|344:192,2,94.499997116089
256,192,111764,12,0,115964,0:0:0:0:
200,136,124964,5,0,0:0:0:0:
200,136,125564,1,0,0:0:0:0:
260,288,125864,1,0,0:0:0:0:
368,168,126164,6,0,L|416:300,1,125.999996154785
504,152,126764,2,0,L|460:33,1,125.999996154785
268,64,127364,6,0,L|136:48,1,125.999996154785
52,184,127964,2,0,L|184:200,1,125.999996154785
340,192,128564,6,0,L|392:324,1,125.999996154785
223,316,129164,2,0,L|176:198,1,125.999996154785
260,56,129764,6,0,L|396:64,1,125.999996154785
465,199,130364,2,0,L|339:191,1,125.999996154785
176,198,130964,6,0,P|167:162|190:119,2,62.9999980773926
236,252,131414,1,0,0:0:0:0:
288,312,131564,2,0,P|268:335|232:348,1,62.9999980773926
156,352,131864,1,0,0:0:0:0:
76,344,132014,2,0,L|40:272,1,62.9999980773926
48,204,132314,5,0,0:0:0:0:
92,136,132464,1,0,0:0:0:0:
56,64,132614,1,0,0:0:0:0:
56,64,132764,2,0,L|136:40,1,62.9999980773926
200,44,133064,2,0,L|228:128,1,62.9999980773926
308,128,133364,6,0,L|280:44,1,70
372,88,133664,2,0,L|436:24,1,70
436,128,133964,2,0,L|508:128,1,70
456,204,134264,2,0,L|504:276,1,70
480,332,134564,6,0,P|412:360|328:336,2,140
396,220,135464,1,0,0:0:0:0:
328,160,135614,2,0,P|264:148|176:188,1,140
104,160,136064,6,0,L|136:240,1,70
168,308,136364,1,0,0:0:0:0:
244,256,136514,1,0,0:0:0:0:
272,344,136664,1,0,0:0:0:0:
340,208,138014,6,0,P|384:180|404:83,3,140
348,32,139064,2,0,L|256:68,1,70
216,120,139364,6,0,P|185:175|66:174,1,181.999991668702
128,108,139814,1,0,0:0:0:0:
88,28,139964,2,0,B|40:36|40:36|52:100|-8:180,1,181.999991668702
28,252,140414,2,0,P|36:324|152:328,2,181.999991668702
120,236,141164,6,0,P|204:264|240:348,2,181.999991668702
28,252,141914,5,0,0:0:0:0:
68,168,142064,1,0,0:0:0:0:
160,156,142214,2,0,L|252:124,1,90.9999958343508
264,216,142514,2,0,L|380:244,1,90.9999958343508
392,156,142814,2,0,P|444:224|408:308,1,181.999991668702
324,336,143264,6,0,P|280:332|240:288,1,90.9999958343508
160,328,143564,2,0,L|184:232,1,90.9999958343508
200,152,143864,2,0,P|92:129|68:52,1,181.999991668702
164,60,144314,5,0,0:0:0:0:
252,32,144464,2,0,P|296:60|312:96,1,90.9999958343508
332,184,144764,1,0,0:0:0:0:
404,128,144914,1,0,0:0:0:0:
448,48,145064,2,0,P|484:85|492:123,1,90.9999958343508
468,212,145364,6,0,L|444:328,1,90.9999958343508
368,260,145664,2,0,L|376:360,1,90.9999958343508
288,328,145964,2,0,L|256:240,1,90.9999958343508
220,160,146264,2,0,P|168:96|76:118,1,181.999991668702
136,184,146714,6,0,L|84:280,1,90.9999958343508
44,340,147014,1,0,0:0:0:0:
136,328,147164,2,0,B|172:292|172:292|220:352|292:328,1,181.999991668702
372,292,147614,1,0,0:0:0:0:
424,364,147764,6,0,P|460:284|412:211,1,181.999991668702
328,176,148214,1,0,0:0:0:0:
256,228,148364,2,0,P|208:248|112:164,2,181.999991668702
260,136,149114,6,0,P|276:104|340:92,1,90.9999958343508
416,92,149414,1,0,0:0:0:0:
484,32,149564,1,0,0:0:0:0:
492,124,149714,2,0,L|468:228,1,90.9999958343508
424,292,150014,2,0,P|356:312|244:288,1,181.999991668702
212,208,150464,6,0,P|148:223|128:248,1,90.9999958343508
76,312,150764,2,0,B|48:256|48:256|76:196|64:120,2,181.999991668702
164,328,151514,5,0,0:0:0:0:
249,291,151664,2,0,P|325:233|324:120,1,181.999991668702
312,64,152114,1,0,0:0:0:0:
312,64,152264,2,0,P|396:80|424:176,1,181.999991668702
408,252,152714,5,0,0:0:0:0:
316,240,152864,2,0,B|248:224|248:224|184:128,2,181.999991668702
408,252,153614,1,0,0:0:0:0:
484,204,153764,6,0,P|496:288|408:348,1,181.999991668702
336,352,154214,1,0,0:0:0:0:
264,296,154364,2,0,L|228:208,1,90.9999958343508
144,184,154664,2,0,L|192:296,1,90.9999958343508
212,352,154964,5,0,0:0:0:0:
124,336,155114,1,0,0:0:0:0:
84,256,155264,2,0,L|44:164,1,90.9999958343508
16,88,155564,1,0,0:0:0:0:
108,84,155714,2,0,P|176:28|272:56,1,181.999991668702
352,40,156164,6,0,P|324:120|400:196,1,181.999991668702
408,108,156614,1,0,0:0:0:0:
488,152,156764,2,0,P|480:248|404:308,1,181.999991668702
340,256,157214,2,0,P|248:260|212:352,1,181.999991668702
300,336,157664,5,0,0:0:0:0:
209,332,157814,2,0,P|120:324|76:248,1,181.999991668702
132,176,158264,2,0,P|172:196|240:184,2,90.9999958343508
60,120,158714,6,0,P|77:66|112:40,1,90.9999958343508
172,104,159014,2,0,L|272:56,1,90.9999958343508
336,24,159314,2,0,P|400:88|368:168,1,181.999991668702
284,144,159764,6,0,P|260:228|336:280,1,181.999991668702
400,228,160214,2,0,P|456:284|416:372,1,181.999991668702
328,368,160664,2,0,B|276:356|276:356|176:268,1,181.999991668702
88,256,161114,6,0,P|72:220|92:160,1,90.9999958343508
172,196,161414,2,0,P|199:151|192:104,1,90.9999958343508
160,32,161714,1,0,0:0:0:0:
104,104,161864,1,0,0:0:0:0:
196,114,162014,2,0,P|272:152|348:76,1,181.999991668702
408,36,162464,5,0,0:0:0:0:
456,112,162614,2,0,P|460:196|420:288,1,181.999991668702
352,228,163064,2,0,P|308:260|301:304,1,90.9999958343508
232,352,163364,6,0,P|168:352|100:256,1,181.999991668702
92,172,163814,1,0,0:0:0:0:
176,204,163964,1,0,0:0:0:0:
224,124,164114,2,0,P|271:126|312:156,1,90.9999958343508
352,228,164414,1,0,0:0:0:0:
412,296,164564,6,0,P|472:232|468:128,3,181.999991668702
316,48,165764,5,0,0:0:0:0:
316,48,166064,2,0,B|256:80|256:80|240:224,1,181.999991668702
232,284,166514,1,0,0:0:0:0:
152,244,166664,2,0,B|92:212|92:212|76:68,1,181.999991668702
140,32,167114,5,0,0:0:0:0:
200,100,167264,2,0,B|264:128|264:128|388:116,1,181.999991668702
468,104,167714,1,0,0:0:0:0:
432,188,167864,2,0,B|403:256|403:256|489:330,2,181.999991668702
468,104,168614,6,0,L|408:32,1,90.9999958343508
324,68,168914,1,0,0:0:0:0:
240,32,169064,1,0,0:0:0:0:
240,124,169214,2,0,P|196:200|80:192,1,181.999991668702
148,128,169664,6,0,P|90:65|0:104,2,181.999991668702
200,260,170564,6,0,P|224:288|276:300,1,70
344,300,170864,1,0,0:0:0:0:
300,220,171014,2,0,P|372:208|424:256,1,140
472,324,171464,2,0,P|496:292|492:244,1,70
472,180,171764,5,0,0:0:0:0:
428,100,171914,2,0,P|375:56|304:49,1,140
216,36,172364,2,0,L|152:76,1,70
68,52,172664,2,0,L|76:148,1,70
88,212,172964,5,0,0:0:0:0:
164,164,173114,2,0,L|196:256,1,70
184,320,173414,2,0,P|256:340|328:320,1,140
328,236,173864,2,0,L|350:169,1,70
424,116,174164,5,0,0:0:0:0:
336,88,174314,2,0,P|252:72|204:16,1,140
124,36,174764,2,0,L|64:72,1,70
56,164,175064,2,0,L|140:112,1,70
208,128,175364,5,0,0:0:0:0:
160,208,175514,2,0,L|72:260,1,70
28,300,175814,2,0,P|80:348|164:332,1,140
208,276,176264,2,0,L|300:304,1,70
364,316,176564,5,0,0:0:0:0:
448,284,176714,2,0,P|476:228|456:144,1,140
392,100,177164,2,0,L|328:156,1,70
252,116,177464,2,0,L|199:162,1,70
112,140,177764,6,0,P|80:143|40:175,2,70
199,162,178214,2,0,P|177:216|96:248,1,140
16,260,178664,1,0,0:0:0:0:
76,328,178814,1,0,0:0:0:0:
164,352,178964,6,0,P|236:356|312:304,2,140
76,328,179714,2,0,P|128:272|216:272,1,140
276,240,180164,6,0,L|295:172,1,70
368,120,180464,1,0,0:0:0:0:
388,208,180614,2,0,P|400:272|472:304,1,140
484,216,181064,2,0,L|484:140,1,70
440,68,181364,5,0,0:0:0:0:
368,120,181514,2,0,P|300:95|256:34,1,140
168,44,181964,2,0,L|136:112,1,70
220,144,182264,2,0,L|252:212,1,70
160,224,182564,6,0,L|128:292,1,70
60,344,182864,1,0,0:0:0:0:
32,256,183014,2,0,P|40:176|104:144,1,140
40,68,183464,2,0,P|79:44|120:48,1,70
192,48,183764,5,0,0:0:0:0:
188,140,183914,2,0,P|260:153|328:124,1,140
384,68,184364,2,0,L|424:144,1,70
500,168,184664,2,0,L|460:244,1,70
412,300,184964,5,0,0:0:0:0:
352,232,185114,2,0,P|312:252|296:296,1,70
248,348,185414,2,0,P|172:344|120:296,1,140
80,228,185864,1,0,0:0:0:0:
172,220,186014,1,0,0:0:0:0:
124,144,186164,6,0,P|156:88|232:72,1,140
316,84,186614,1,0,0:0:0:0:
316,84,186914,2,0,L|360:224,1,140
432,268,187364,6,0,P|376:307|300:284,2,140
460,180,188114,2,0,L|456:104,1,70
376,64,188414,2,0,P|289:53|249:104,2,140
300,228,189314,6,0,P|270:258|232:264,1,70
156,268,189614,1,0,0:0:0:0:
80,220,189764,6,0,P|59:176|90:112,2,105.000004005432
80,308,190514,2,0,L|124:360,1,52.5000020027161
164,360,190814,2,0,P|212:360|268:336,1,105.000004005432
328,276,191264,6,0,P|376:300|432:292,2,105.000004005432
168,100,192164,6,0,P|118:156|116:220,2,140
240,156,192914,2,0,P|289:99|292:36,2,140
192,232,193664,5,0,0:0:0:0:
280,260,193814,2,0,B|336:272|336:272|424:236,1,140
472,172,194264,1,0,0:0:0:0:
476,80,194414,2,0,B|420:68|420:68|332:104,1,140
272,156,194864,6,0,P|202:197|132:167,1,140
84,116,195314,1,0,0:0:0:0:
60,204,195464,2,0,P|76:272|168:288,1,140
196,364,195914,6,0,L|232:300,1,70
276,224,196214,1,0,0:0:0:0:
256,192,196664,12,0,202214,0:0:0:0:
