osu file format v14

[General]
AudioFilename: audio.mp3
AudioLeadIn: 0
PreviewTime: 8853
Countdown: 0
SampleSet: Soft
StackLeniency: 0.7
Mode: 0
LetterboxInBreaks: 0
EpilepsyWarning: 1
WidescreenStoryboard: 1

[Editor]
Bookmarks: 8951,23172,37394,40965,55172
DistanceSpacing: 0.6
BeatDivisor: 4
GridSize: 32
TimelineZoom: 1

[Metadata]
Title:Ottugi Dart
TitleUnicode:오뚝이다트
Artist:Teuni Teuni
ArtistUnicode:트니트니
Creator:Len
Version:Normal
Source:
Tags:korean fast jieusieu Nameless Player 던질까 말까 deonjilkka malkka Half 율동동요 4탄 가을
BeatmapID:2217245
BeatmapSetID:1058672

[Difficulty]
HPDrainRate:3.5
CircleSize:4
OverallDifficulty:4
ApproachRate:4.5
SliderMultiplier:1.4
SliderTickRate:1

[Events]
//Background and Video events
0,0,"jirijiri.jpg",0,0
//Break Periods
2,37609,39705
//Storyboard Layer 0 (Background)
//Storyboard Layer 1 (Fail)
//Storyboard Layer 2 (Pass)
//Storyboard Layer 3 (Foreground)
//Storyboard Layer 4 (Overlay)
//Storyboard Sound Samples

[TimingPoints]
76,444.444444444444,4,2,1,80,1,0
3187,-100,4,2,1,60,0,0
3298,-100,4,2,2,60,0,0
3409,-100,4,2,3,60,0,0
3520,-100,4,2,4,60,0,0
3631,-100,4,2,1,80,0,0
4964,-100,4,2,1,60,0,0
5075,-100,4,2,2,60,0,0
5187,-100,4,2,3,60,0,0
5298,-100,4,2,4,60,0,0
5409,-100,4,2,1,80,0,0
6742,-100,4,2,1,60,0,0
7187,-100,4,2,1,80,0,0
8520,-100,4,2,1,60,0,0
8964,-100,4,2,1,80,0,0
13853,-100,4,2,1,60,0,0
13964,-100,4,2,2,60,0,0
14075,-100,4,2,3,60,0,0
14187,-100,4,2,4,60,0,0
14298,-100,4,2,1,80,0,0
15631,-100,4,2,1,60,0,0
16075,-100,4,2,1,80,0,0
20964,-100,4,2,1,60,0,0
21075,-100,4,2,2,60,0,0
21187,-100,4,2,3,60,0,0
21298,-100,4,2,4,60,0,0
21409,-100,4,2,1,80,0,0
22742,-100,4,2,1,60,0,0
23187,-100,4,2,1,80,0,0
23631,-100,4,2,12,80,0,0
25853,-100,4,2,12,100,0,0
26075,-100,4,2,10,80,0,0
26298,-100,4,2,3,60,0,0
26520,-100,4,2,4,60,0,0
26742,-100,4,2,1,80,0,0
27187,-100,4,2,12,80,0,0
29409,-100,4,2,12,100,0,0
29631,-100,4,2,10,80,0,0
29853,-100,4,2,3,60,0,0
30075,-100,4,2,4,60,0,0
30298,-100,4,2,1,80,0,0
30742,-100,4,2,12,80,0,0
32964,-100,4,2,12,100,0,0
33187,-100,4,2,10,80,0,0
33409,-100,4,2,3,60,0,0
33631,-100,4,2,4,60,0,0
33853,-100,4,2,1,80,0,0
34298,-100,4,2,12,80,0,0
36520,-100,4,2,12,100,0,0
36742,-100,4,2,10,80,0,0
36964,-100,4,2,3,60,0,0
37187,-100,4,2,4,60,0,0
37409,-100,4,2,1,80,0,0
38742,-100,4,2,1,60,0,0
39187,-100,4,2,1,80,0,0
40520,-100,4,2,1,60,0,0
40964,-100,4,2,1,80,0,0
45853,-100,4,2,1,60,0,0
45964,-100,4,2,2,60,0,0
46075,-100,4,2,3,60,0,0
46187,-100,4,2,4,60,0,0
46298,-100,4,2,1,80,0,0
47631,-100,4,2,1,60,0,0
48075,-100,4,2,1,80,0,0
52964,-100,4,2,1,60,0,0
53075,-100,4,2,2,60,0,0
53187,-100,4,2,3,60,0,0
53298,-100,4,2,4,60,0,0
53409,-100,4,2,1,80,0,0
54742,-100,4,2,1,60,0,0
55187,-100,4,2,1,80,0,0
56520,-100,4,2,1,60,0,0
56964,-100,4,2,1,90,0,0
58298,-100,4,2,1,70,0,0
58742,-100,4,2,1,100,0,0
60075,-100,4,2,1,80,0,0
60464,-100,4,2,1,50,0,0
60520,-100,4,2,5,90,0,0

[Colours]
Combo1 : 255,233,164
Combo2 : 162,255,162
Combo3 : 159,203,255
Combo4 : 251,181,191

[HitObjects]
256,192,5409,12,12,8076,0:1:0:0:
482,31,8964,6,0,P|457:91|379:82,1,140,6|12,0:3|0:0,0:0:0:0:
365,56,9630,1,2,0:0:0:0:
347,19,9853,2,0,L|201:36,1,140,6|12,0:0|0:0,0:0:0:0:
106,131,10742,6,0,P|131:191|209:182,1,140,6|12,0:0|0:0,0:0:0:0:
223,156,11408,1,2,0:0:0:0:
241,119,11631,2,0,L|387:136,1,140,6|12,0:0|0:0,0:0:0:0:
467,246,12520,6,0,L|480:401,2,140,2|2|2,0:0|0:0|0:0,0:0:0:0:
356,333,13853,1,8,0:0:0:0:
229,281,14297,5,2,0:0:0:0:
229,281,14519,2,0,L|58:290,1,140,12|2,0:3|0:0,0:0:0:0:
49,305,15186,2,0,P|60:229|62:157,1,140,12|8,0:1|0:0,0:0:0:0:
30,31,16075,6,0,P|55:91|133:82,1,140,6|12,0:3|0:0,0:0:0:0:
147,56,16741,1,2,0:0:0:0:
165,19,16964,2,0,L|311:36,1,140,6|12,0:0|0:0,0:0:0:0:
406,131,17853,6,0,P|381:191|303:182,1,140,6|12,0:0|0:0,0:0:0:0:
289,156,18519,1,2,0:0:0:0:
271,119,18742,2,0,L|125:136,1,140,6|12,0:0|0:0,0:0:0:0:
25,227,19631,6,0,L|12:382,2,140,6|2|2,0:0|0:0|0:0,0:0:0:0:
94,349,20964,1,8,0:0:0:0:
207,267,21408,5,2,0:0:0:0:
207,267,21630,2,0,L|378:276,1,140,12|2,0:3|0:0,0:0:0:0:
371,308,22297,2,0,P|435:326|471:247,1,140,12|12,0:1|0:3,0:0:0:0:
398,156,23187,6,0,L|391:63,2,70,6|0|12,0:0|0:0|0:0,0:0:0:0:
269,100,24076,2,0,L|275:240,1,140,4|12,0:0|0:0,0:0:0:0:
194,359,24965,6,0,L|189:277,1,70,6|0,0:0|0:0,0:0:0:0:
159,262,25409,2,0,L|154:180,1,70,12|2,0:0|0:0,0:0:0:0:
181,159,25854,1,8,0:0:0:0:
73,71,26298,1,8,0:0:0:0:
202,14,26743,6,0,L|303:9,2,70,6|0|12,0:3|0:0|0:0,0:0:0:0:
73,71,27631,2,0,P|55:122|117:191,1,140,4|12,0:0|0:0,0:0:0:0:
159,316,28520,6,0,L|254:309,1,70,6|0,0:0|0:0,0:0:0:0:
258,278,28965,2,0,L|353:285,2,70,12|0|0,0:0|0:0|0:0,0:0:0:0:
193,155,29854,1,8,0:0:0:0:
65,211,30298,6,0,P|25:170|53:72,1,140,6|12,0:3|0:0,0:0:0:0:
34,51,30965,2,0,P|110:66|195:67,1,140,2|2,0:0|0:0,0:0:0:0:
204,42,31631,1,12,0:0:0:0:
338,87,32076,6,0,L|344:171,1,70,6|0,0:0|0:0,0:0:0:0:
378,179,32520,2,0,L|372:263,2,70,12|2|8,0:0|0:0|0:0,0:0:0:0:
461,66,33409,1,8,0:0:0:0:
334,7,33853,6,0,L|173:19,1,140,6|12,0:3|0:0,0:0:0:0:
173,52,34520,2,0,P|119:26|52:81,1,140,2|2,0:0|0:0,0:0:0:0:
37,103,35187,1,12,0:0:0:0:
131,207,35631,6,0,L|140:291,1,70,6|0,0:0|0:0,0:0:0:0:
168,306,36076,2,0,L|159:390,2,70,12|0|8,0:0|0:0|0:0,0:0:0:0:
298,253,36965,1,8,0:0:0:0:
393,357,37409,1,6,0:1:0:0:
30,353,40965,6,0,P|55:293|133:302,1,140,6|12,0:3|0:0,0:0:0:0:
147,328,41631,1,2,0:0:0:0:
165,365,41854,2,0,L|311:348,1,140,6|12,0:0|0:0,0:0:0:0:
406,253,42743,6,0,P|381:193|303:202,1,140,6|12,0:0|0:0,0:0:0:0:
289,228,43409,1,2,0:0:0:0:
271,265,43632,2,0,L|125:248,1,140,6|12,0:0|0:0,0:0:0:0:
45,138,44520,6,0,L|32:-17,2,140,2|2|2,0:0|0:0|0:0,0:0:0:0:
156,51,45854,1,8,0:0:0:0:
283,103,46298,5,2,0:0:0:0:
283,103,46520,2,0,L|454:94,1,140,12|2,0:3|0:0,0:0:0:0:
463,79,47187,2,0,P|452:155|450:227,1,140,12|8,0:1|0:0,0:0:0:0:
482,353,48076,6,0,P|457:293|379:302,1,140,6|12,0:3|0:0,0:0:0:0:
365,328,48742,1,2,0:0:0:0:
347,365,48965,2,0,L|201:348,1,140,6|12,0:0|0:0,0:0:0:0:
106,253,49854,6,0,P|131:193|209:202,1,140,6|12,0:0|0:0,0:0:0:0:
223,228,50520,1,2,0:0:0:0:
241,265,50743,2,0,L|387:248,1,140,6|12,0:0|0:0,0:0:0:0:
487,157,51631,6,0,L|500:2,2,140,6|2|2,0:0|0:0|0:0,0:0:0:0:
418,35,52965,1,8,0:0:0:0:
305,117,53409,5,2,0:0:0:0:
305,117,53631,2,0,L|134:108,1,140,12|2,0:3|0:0,0:0:0:0:
141,76,54298,2,0,P|77:58|41:137,1,140,12|12,0:1|0:3,0:0:0:0:
15,248,55187,5,2,0:0:0:0:
15,248,55409,2,0,L|165:235,1,140,12|2,0:1|0:0,0:0:0:0:
180,269,56076,2,0,P|226:252|281:332,1,140,12|12,0:3|0:1,0:0:0:0:
405,378,56964,5,2,0:0:0:0:
405,378,57186,2,0,L|418:228,1,140,12|2,0:1|0:0,0:0:0:0:
384,213,57853,2,0,P|401:167|321:112,1,140,12|12,0:3|0:1,0:0:0:0:
220,40,58742,5,2,0:0:0:0:
220,40,58964,2,0,L|233:190,1,140,12|2,0:1|0:0,0:0:0:0:
199,205,59631,2,0,P|216:251|136:306,1,140,12|12,0:3|0:1,0:0:0:0:
121,287,60298,1,8,0:0:0:0:
83,306,60520,1,12,0:0:0:0:
