osu file format v14

[General]
AudioFilename: audio.mp3
AudioLeadIn: 0
PreviewTime: 8853
Countdown: 0
SampleSet: Soft
StackLeniency: 0.7
Mode: 0
LetterboxInBreaks: 0
EpilepsyWarning: 1
WidescreenStoryboard: 1

[Editor]
Bookmarks: 8951,23172,37394,40965,55172
DistanceSpacing: 1
BeatDivisor: 4
GridSize: 32
TimelineZoom: 1

[Metadata]
Title:Ottugi Dart
TitleUnicode:오뚝이다트
Artist:Teuni Teuni
ArtistUnicode:트니트니
Creator:Len
Version:Hyper
Source:
Tags:korean fast jieusieu Nameless Player 던질까 말까 deonjilkka malkka Half 율동동요 4탄 가을
BeatmapID:2217242
BeatmapSetID:1058672

[Difficulty]
HPDrainRate:5
CircleSize:4
OverallDifficulty:6.2
ApproachRate:7
SliderMultiplier:1.8
SliderTickRate:1

[Events]
//Background and Video events
0,0,"jirijiri.jpg",0,0
//Break Periods
2,37609,40065
//Storyboard Layer 0 (Background)
//Storyboard Layer 1 (Fail)
//Storyboard Layer 2 (Pass)
//Storyboard Layer 3 (Foreground)
//Storyboard Layer 4 (Overlay)
//Storyboard Sound Samples

[TimingPoints]
76,444.444444444444,4,2,1,80,1,0
3187,-100,4,2,1,60,0,0
3298,-100,4,2,2,60,0,0
3409,-100,4,2,3,60,0,0
3520,-100,4,2,4,60,0,0
3631,-100,4,2,1,80,0,0
4964,-100,4,2,1,60,0,0
5075,-100,4,2,2,60,0,0
5187,-100,4,2,3,60,0,0
5298,-100,4,2,4,60,0,0
5409,-100,4,2,1,80,0,0
6742,-100,4,2,1,60,0,0
7187,-100,4,2,1,80,0,0
8520,-100,4,2,1,60,0,0
8964,-100,4,2,1,80,0,0
13853,-100,4,2,1,60,0,0
13964,-100,4,2,2,60,0,0
14075,-100,4,2,3,60,0,0
14187,-100,4,2,4,60,0,0
14298,-100,4,2,1,80,0,0
15631,-100,4,2,1,60,0,0
16075,-100,4,2,1,80,0,0
20964,-100,4,2,1,60,0,0
21075,-100,4,2,2,60,0,0
21187,-100,4,2,3,60,0,0
21298,-100,4,2,4,60,0,0
21409,-100,4,2,1,80,0,0
22742,-100,4,2,1,60,0,0
23187,-100,4,2,1,80,0,0
23631,-100,4,2,12,80,0,0
25853,-100,4,2,12,100,0,0
26075,-100,4,2,10,80,0,0
26298,-100,4,2,3,60,0,0
26520,-100,4,2,4,60,0,0
26742,-100,4,2,1,80,0,0
27187,-100,4,2,12,80,0,0
29409,-100,4,2,12,100,0,0
29631,-100,4,2,10,80,0,0
29853,-100,4,2,3,60,0,0
30075,-100,4,2,4,60,0,0
30298,-100,4,2,1,80,0,0
30742,-100,4,2,12,80,0,0
32964,-100,4,2,12,100,0,0
33187,-100,4,2,10,80,0,0
33409,-100,4,2,3,60,0,0
33631,-100,4,2,4,60,0,0
33853,-100,4,2,1,80,0,0
34298,-100,4,2,12,80,0,0
36520,-100,4,2,12,100,0,0
36742,-100,4,2,10,80,0,0
36964,-100,4,2,3,60,0,0
37187,-100,4,2,4,60,0,0
37409,-100,4,2,1,80,0,0
38742,-100,4,2,1,60,0,0
39187,-100,4,2,1,80,0,0
40520,-100,4,2,1,60,0,0
40964,-100,4,2,1,80,0,0
45853,-100,4,2,1,60,0,0
45964,-100,4,2,2,60,0,0
46075,-100,4,2,3,60,0,0
46187,-100,4,2,4,60,0,0
46298,-100,4,2,1,80,0,0
47631,-100,4,2,1,60,0,0
48075,-100,4,2,1,80,0,0
52964,-100,4,2,1,60,0,0
53075,-100,4,2,2,60,0,0
53187,-100,4,2,3,60,0,0
53298,-100,4,2,4,60,0,0
53409,-100,4,2,1,80,0,0
54742,-100,4,2,1,60,0,0
55187,-100,4,2,1,80,0,0
56520,-100,4,2,1,60,0,0
56964,-100,4,2,1,90,0,0
58298,-100,4,2,1,70,0,0
58742,-100,4,2,1,100,0,0
60075,-100,4,2,1,80,0,0
60464,-100,4,2,1,50,0,0
60520,-100,4,2,5,90,0,0

[Colours]
Combo1 : 255,233,164
Combo2 : 162,255,162
Combo3 : 159,203,255
Combo4 : 251,181,191

[HitObjects]
36,94,5409,6,0,B|202:142|137:30|311:82,1,270,2|2,0:0|0:0,0:0:0:0:
355,146,6298,2,0,P|409:138|432:97,1,90,12|0,0:1|0:0,0:0:0:0:
456,25,6743,1,8,0:0:0:0:
481,203,7187,6,0,B|315:155|380:267|206:215,1,270,2|2,0:0|0:0,0:0:0:0:
162,151,8076,2,0,P|108:159|85:200,1,90,12|0,0:1|0:0,0:0:0:0:
53,267,8520,2,0,L|57:324,2,45,8|8|8,0:0|0:0|0:0,0:0:0:0:
136,302,8965,5,6,0:3:0:0:
218,263,9187,2,0,L|221:218,2,45,0|0|12,0:0|0:0|0:0,0:0:0:0:
281,326,9631,2,0,L|377:316,1,90,2|4,0:0|0:0,0:0:0:0:
457,339,10076,1,2,0:0:0:0:
457,339,10187,1,0,0:0:0:0:
457,339,10298,1,12,0:0:0:0:
502,261,10520,6,0,L|491:143,1,90,2|6,0:0|0:0,0:0:0:0:
417,122,10965,2,0,L|420:77,2,45,0|0|12,0:0|0:0|0:0,0:0:0:0:
359,191,11409,2,0,L|244:202,1,90,2|4,0:0|0:0,0:0:0:0:
203,261,11854,1,2,0:0:0:0:
203,261,11965,1,0,0:0:0:0:
203,261,12076,1,12,0:0:0:0:
168,178,12298,1,2,0:0:0:0:
88,219,12520,6,0,B|87:118|24:164|40:42,2,180,2|2|2,0:0|0:0|0:0,0:0:0:0:
120,31,13854,1,8,0:0:0:0:
0,210,14298,5,2,0:0:0:0:
0,210,14520,1,12,0:3:0:0:
168,384,14964,5,0,0:0:0:0:
204,299,15187,2,0,P|150:277|96:278,1,90,12|0,0:1|0:0,0:0:0:0:
149,185,15631,2,0,L|205:177,3,45,8|8|8|8,0:0|0:0|0:0|0:0,0:0:0:0:
212,196,16076,6,0,P|266:204|318:220,1,90,6|0,0:3|0:0,0:0:0:0:
329,247,16409,1,0,0:0:0:0:
340,259,16520,2,0,P|394:251|446:235,1,90,12|2,0:0|0:0,0:0:0:0:
481,168,16965,1,4,0:0:0:0:
435,90,17187,2,0,L|443:31,2,45,2|0|12,0:0|0:0|0:0,0:0:0:0:
352,125,17631,6,0,L|261:119,1,90,2|6,0:0|0:0,0:0:0:0:
212,196,18076,2,0,L|218:240,2,45,0|0|12,0:0|0:0|0:0,0:0:0:0:
122,186,18520,2,0,L|133:71,1,90,2|4,0:0|0:0,0:0:0:0:
44,67,18965,1,2,0:0:0:0:
44,67,19076,1,0,0:0:0:0:
44,67,19187,1,12,0:0:0:0:
110,6,19409,1,2,0:0:0:0:
195,32,19631,6,0,B|307:47|253:-11|378:10,2,180,6|2|2,0:0|0:0|0:0,0:0:0:0:
385,87,20965,1,8,0:0:0:0:
211,209,21409,6,0,P|221:165|222:109,1,90,2|12,0:0|0:3,0:0:0:0:
273,293,21854,1,0,0:0:0:0:
355,244,22076,2,0,P|356:288|366:332,1,90,2|12,0:0|0:1,0:0:0:0:
298,168,22520,1,0,0:0:0:0:
436,212,22743,2,0,L|483:208,3,45,8|8|8|8,0:0|0:0|0:0|0:0,0:0:0:0:
496,221,23187,6,0,L|508:96,1,90,6|0,0:0|0:0,0:0:0:0:
455,56,23631,1,12,0:0:0:0:
387,115,23854,1,2,0:0:0:0:
387,115,23965,2,0,P|329:124|288:51,1,135,0|2,0:0|0:0,0:0:0:0:
212,17,24520,2,0,L|116:26,1,90,12|2,0:0|0:0,0:0:0:0:
32,23,24965,6,0,L|25:76,3,45,6|0|0|0,0:0|0:0|0:0|0:0,0:0:0:0:
54,102,25409,2,0,L|47:155,3,45,12|0|2|0,0:0|0:0|0:0|0:0,0:0:0:0:
18,180,25854,2,0,L|33:288,1,90,8|0,0:0|0:0,0:0:0:0:
15,357,26298,1,8,0:0:0:0:
100,329,26520,1,8,0:0:0:0:
177,375,26743,6,0,P|183:329|193:279,1,90,6|0,0:3|0:0,0:0:0:0:
152,205,27187,1,12,0:0:0:0:
221,148,27409,1,2,0:0:0:0:
221,148,27520,2,0,P|291:152|318:234,1,135,0|2,0:0|0:0,0:0:0:0:
410,183,28076,2,0,P|398:226|392:271,1,90,12|0,0:0|0:0,0:0:0:0:
420,356,28520,6,0,L|356:350,3,45,6|0|0|0,0:0|0:0|0:0|0:0,0:0:0:0:
333,369,28965,2,0,L|269:363,3,45,12|0|0|0,0:0|0:0|0:0|0:0,0:0:0:0:
245,377,29409,6,0,L|238:273,1,90,8|4,0:0|0:0,0:0:0:0:
253,198,29854,1,8,0:0:0:0:
167,225,30076,1,8,0:0:0:0:
113,152,30298,6,0,L|107:44,1,90,6|0,0:3|0:0,0:0:0:0:
182,10,30743,1,12,0:0:0:0:
240,78,30965,1,2,0:0:0:0:
240,78,31076,2,0,P|286:50|370:73,1,135,0|2,0:0|0:0,0:0:0:0:
445,33,31631,2,0,L|432:138,1,90,12|2,0:0|0:0,0:0:0:0:
478,201,32076,6,0,L|483:258,3,45,6|0|0|0,0:0|0:0|0:0|0:0,0:0:0:0:
440,263,32520,2,0,L|445:320,3,45,12|0|2|0,0:0|0:0|0:0|0:0,0:0:0:0:
464,348,32965,2,0,L|367:340,1,90,8|4,0:0|0:0,0:0:0:0:
327,263,33409,1,8,0:0:0:0:
268,331,33631,1,8,0:0:0:0:
268,331,33743,1,8,0:0:0:0:
268,331,33854,6,0,P|219:329|181:358,1,90,6|0,0:3|0:0,0:0:0:0:
97,363,34298,1,12,0:0:0:0:
41,292,34520,1,2,0:0:0:0:
41,292,34631,2,0,L|61:142,1,135,0|2,0:0|0:0,0:0:0:0:
4,85,35187,2,0,P|9:32|49:5,1,90,12|0,0:0|0:0,0:0:0:0:
109,58,35631,6,0,L|176:53,3,45,6|0|0|0,0:0|0:0|0:0|0:0,0:0:0:0:
187,84,36076,2,0,L|254:79,3,45,12|0|0|0,0:0|0:0|0:0|0:0,0:0:0:0:
270,57,36520,2,0,L|258:151,1,90,8|4,0:0|0:0,0:0:0:0:
306,222,36965,1,8,0:0:0:0:
306,233,37076,1,8,0:0:0:0:
307,244,37187,1,8,0:0:0:0:
308,255,37298,1,8,0:0:0:0:
308,266,37409,1,6,0:1:0:0:
376,82,40965,5,6,0:3:0:0:
294,121,41187,2,0,L|291:166,2,45,2|0|12,0:0|0:0|0:0,0:0:0:0:
231,58,41631,2,0,L|135:68,1,90,2|6,0:0|0:0,0:0:0:0:
55,45,42076,1,2,0:0:0:0:
55,45,42187,1,0,0:0:0:0:
55,45,42298,1,12,0:0:0:0:
10,123,42520,6,0,L|21:241,1,90,2|6,0:0|0:0,0:0:0:0:
95,262,42965,2,0,L|92:307,2,45,2|0|12,0:0|0:0|0:0,0:0:0:0:
153,193,43409,2,0,L|268:182,1,90,2|6,0:0|0:0,0:0:0:0:
309,123,43854,1,2,0:0:0:0:
309,123,43965,1,0,0:0:0:0:
309,123,44076,1,12,0:0:0:0:
344,206,44298,1,2,0:0:0:0:
424,165,44520,6,0,B|425:266|488:220|472:342,2,180,2|2|2,0:0|0:0|0:0,0:0:0:0:
392,353,45854,1,8,0:0:0:0:
512,174,46298,5,2,0:0:0:0:
512,174,46520,1,12,0:3:0:0:
344,0,46964,5,0,0:0:0:0:
308,85,47187,2,0,P|362:107|416:106,1,90,12|0,0:1|0:0,0:0:0:0:
363,199,47631,2,0,L|307:207,3,45,8|8|8|8,0:0|0:0|0:0|0:0,0:0:0:0:
300,188,48076,6,0,P|246:180|194:164,1,90,6|2,0:3|0:0,0:0:0:0:
183,137,48409,1,0,0:0:0:0:
172,125,48520,2,0,P|118:133|66:149,1,90,12|2,0:0|0:0,0:0:0:0:
31,216,48965,1,6,0:0:0:0:
77,294,49187,2,0,L|69:353,2,45,2|0|12,0:0|0:0|0:0,0:0:0:0:
160,259,49631,6,0,L|251:265,1,90,2|6,0:0|0:0,0:0:0:0:
300,188,50076,2,0,L|294:144,2,45,2|0|12,0:0|0:0|0:0,0:0:0:0:
390,198,50520,2,0,L|379:313,1,90,2|6,0:0|0:0,0:0:0:0:
468,317,50965,1,2,0:0:0:0:
468,317,51076,1,0,0:0:0:0:
468,317,51187,1,12,0:0:0:0:
402,378,51409,1,2,0:0:0:0:
317,352,51631,6,0,B|205:337|259:395|134:374,2,180,6|2|2,0:0|0:0|0:0,0:0:0:0:
127,297,52965,1,8,0:0:0:0:
301,175,53409,6,0,P|291:219|290:275,1,90,2|12,0:0|0:3,0:0:0:0:
239,91,53854,1,0,0:0:0:0:
157,140,54076,2,0,P|156:96|146:52,1,90,2|12,0:0|0:1,0:0:0:0:
214,216,54520,1,0,0:0:0:0:
134,258,54743,2,0,L|87:262,3,45,12|8|8|8,0:3|0:0|0:0|0:0,0:0:0:0:
76,248,55187,6,0,L|68:356,1,90,2|12,0:0|0:1,0:0:0:0:
397,341,55853,1,2,0:0:0:0:
397,341,56075,2,0,L|404:251,1,90,12|0,0:3|0:0,0:0:0:0:
326,207,56520,1,12,0:1:0:0:
357,122,56743,1,8,0:0:0:0:
357,122,56854,1,8,0:0:0:0:
357,122,56965,6,0,L|352:19,1,90,2|12,0:0|0:3,0:0:0:0:
506,279,57631,1,2,0:0:0:0:
506,279,57853,2,0,L|499:369,1,90,12|0,0:3|0:0,0:0:0:0:
398,174,58298,1,12,0:3:0:0:
412,356,58520,1,8,0:0:0:0:
412,356,58631,1,8,0:0:0:0:
412,356,58743,6,0,P|344:353|309:321,1,90,2|12,0:0|0:1,0:0:0:0:
226,210,59187,1,0,0:0:0:0:
160,310,59409,6,0,P|228:307|263:275,1,90,2|12,0:0|0:3,0:0:0:0:
273,129,59854,1,0,0:0:0:0:
343,184,60076,5,12,0:1:0:0:
342,197,60187,1,8,0:0:0:0:
341,211,60298,1,8,0:0:0:0:
340,224,60409,1,8,0:0:0:0:
339,237,60520,1,12,0:0:0:0:
