osu file format v14

[General]
AudioFilename: audio.mp3
AudioLeadIn: 0
PreviewTime: 8853
Countdown: 0
SampleSet: Soft
StackLeniency: 0.7
Mode: 0
LetterboxInBreaks: 0
EpilepsyWarning: 1
WidescreenStoryboard: 1

[Editor]
Bookmarks: 8951,23172,37394,40965,55172
DistanceSpacing: 1
BeatDivisor: 4
GridSize: 32
TimelineZoom: 1

[Metadata]
Title:Ottugi Dart
TitleUnicode:오뚝이다트
Artist:Teuni Teuni
ArtistUnicode:트니트니
Creator:Len
Version:Classic Extra
Source:
Tags:korean fast jieusieu Nameless Player 던질까 말까 deonjilkka malkka Half 율동동요 4탄 가을
BeatmapID:2217239
BeatmapSetID:1058672

[Difficulty]
HPDrainRate:5
CircleSize:4
OverallDifficulty:8.5
ApproachRate:8.5
SliderMultiplier:1.9
SliderTickRate:1

[Events]
//Background and Video events
0,0,"jirijiri.jpg",0,0
//Break Periods
2,37609,39845
//Storyboard Layer 0 (Background)
//Storyboard Layer 1 (Fail)
//Storyboard Layer 2 (Pass)
//Storyboard Layer 3 (Foreground)
//Storyboard Layer 4 (Overlay)
//Storyboard Sound Samples

[TimingPoints]
76,444.444444444444,4,2,1,80,1,0
3187,-100,4,2,1,60,0,0
3298,-100,4,2,2,60,0,0
3409,-100,4,2,3,60,0,0
3520,-100,4,2,4,60,0,0
3631,-100,4,2,1,80,0,0
4964,-100,4,2,1,60,0,0
5075,-100,4,2,2,60,0,0
5187,-100,4,2,3,60,0,0
5298,-100,4,2,4,60,0,0
5409,-100,4,2,1,80,0,0
6742,-100,4,2,1,60,0,0
7187,-100,4,2,1,80,0,0
8520,-100,4,2,1,60,0,0
8964,-100,4,2,1,80,0,0
13853,-100,4,2,1,60,0,0
13964,-100,4,2,2,60,0,0
14075,-100,4,2,3,60,0,0
14187,-100,4,2,4,60,0,0
14298,-100,4,2,1,80,0,0
15631,-100,4,2,1,60,0,0
16075,-100,4,2,1,80,0,0
20964,-100,4,2,1,60,0,0
21075,-100,4,2,2,60,0,0
21187,-100,4,2,3,60,0,0
21298,-100,4,2,4,60,0,0
21409,-100,4,2,1,80,0,0
22742,-100,4,2,1,60,0,0
23187,-100,4,2,1,80,0,0
23631,-100,4,2,12,80,0,0
25853,-100,4,2,12,100,0,0
26075,-100,4,2,10,80,0,0
26298,-100,4,2,3,60,0,0
26520,-100,4,2,4,60,0,0
26742,-100,4,2,1,80,0,0
27187,-100,4,2,12,80,0,0
29409,-100,4,2,12,100,0,0
29631,-100,4,2,10,80,0,0
29853,-100,4,2,3,60,0,0
30075,-100,4,2,4,60,0,0
30298,-100,4,2,1,80,0,0
30742,-100,4,2,12,80,0,0
32964,-100,4,2,12,100,0,0
33187,-100,4,2,10,80,0,0
33409,-100,4,2,3,60,0,0
33631,-100,4,2,4,60,0,0
33853,-100,4,2,1,80,0,0
34298,-100,4,2,12,80,0,0
36520,-100,4,2,12,100,0,0
36742,-100,4,2,10,80,0,0
36964,-100,4,2,3,60,0,0
37187,-100,4,2,4,60,0,0
37409,-100,4,2,1,80,0,0
38742,-100,4,2,1,60,0,0
39187,-100,4,2,1,80,0,0
40520,-100,4,2,1,60,0,0
40964,-100,4,2,1,80,0,0
45853,-100,4,2,1,60,0,0
45964,-100,4,2,2,60,0,0
46075,-100,4,2,3,60,0,0
46187,-100,4,2,4,60,0,0
46298,-100,4,2,1,80,0,0
47631,-100,4,2,1,60,0,0
48075,-100,4,2,1,80,0,0
52964,-100,4,2,1,60,0,0
53075,-100,4,2,2,60,0,0
53187,-100,4,2,3,60,0,0
53298,-100,4,2,4,60,0,0
53409,-100,4,2,1,80,0,0
54742,-100,4,2,1,60,0,0
55187,-100,4,2,1,80,0,0
56520,-100,4,2,1,60,0,0
56964,-100,4,2,1,90,0,0
58298,-100,4,2,1,70,0,0
58742,-100,4,2,1,100,0,0
60075,-100,4,2,1,80,0,0
60464,-100,4,2,1,50,0,0
60520,-100,4,2,5,90,0,0

[Colours]
Combo1 : 255,233,164
Combo2 : 162,255,162
Combo3 : 159,203,255
Combo4 : 251,181,191

[HitObjects]
73,71,5409,6,0,B|199:53|121:136|281:109,2,190,2|0|12,0:0|0:0|0:1,0:0:0:0:
410,173,6743,1,8,0:0:0:0:
410,173,6854,1,8,0:0:0:0:
410,173,6965,1,8,0:0:0:0:
410,173,7076,1,8,0:0:0:0:
410,173,7187,6,0,B|284:155|362:238|202:211,2,190,2|0|12,0:0|0:0|0:1,0:0:0:0:
115,215,8520,1,8,0:0:0:0:
115,215,8631,1,8,0:0:0:0:
115,215,8743,1,8,0:0:0:0:
115,215,8854,1,8,0:0:0:0:
115,215,8965,6,0,L|118:346,1,95,6|0,0:3|0:0,0:0:0:0:
185,358,9298,1,0,0:0:0:0:
185,358,9409,2,0,P|236:372|281:346,1,95,12|2,0:0|0:0,0:0:0:0:
484,359,9854,6,0,L|481:228,1,95,4|2,0:0|0:0,0:0:0:0:
402,276,10187,1,0,0:0:0:0:
402,276,10298,2,0,P|351:262|306:288,1,95,12|2,0:0|0:0,0:0:0:0:
115,215,10743,6,0,L|118:346,1,95,6|0,0:0|0:0,0:0:0:0:
185,358,11076,1,0,0:0:0:0:
185,358,11187,2,0,P|236:372|281:346,1,95,12|2,0:0|0:0,0:0:0:0:
484,359,11631,6,0,L|481:228,1,95,4|2,0:0|0:0,0:0:0:0:
402,276,11964,1,0,0:0:0:0:
402,276,12075,2,0,P|351:262|306:288,1,95,12|2,0:0|0:0,0:0:0:0:
60,336,12520,5,2,0:0:0:0:
82,94,12743,1,8,0:1:0:0:
324,116,12965,1,0,0:0:0:0:
302,358,13187,1,14,0:1:0:0:
35,244,13409,5,2,0:0:0:0:
175,9,13631,1,8,0:0:0:0:
410,149,13854,1,8,0:0:0:0:
270,384,14076,1,8,0:0:0:0:
65,63,14298,5,2,0:0:0:0:
65,63,14409,1,0,0:0:0:0:
65,63,14520,2,0,L|58:4,2,47.5,12|0|0,0:3|0:0|0:0,0:0:0:0:
410,149,14965,5,2,0:0:0:0:
410,149,15076,1,0,0:0:0:0:
410,149,15187,2,0,L|418:209,2,47.5,12|0|0,0:1|0:0|0:0,0:0:0:0:
99,351,15631,5,8,0:0:0:0:
99,351,15743,1,8,0:0:0:0:
99,351,15854,1,8,0:0:0:0:
99,351,15965,1,8,0:0:0:0:
99,351,16076,6,0,L|225:362,1,95,6|0,0:3|0:0,0:0:0:0:
272,334,16409,1,0,0:0:0:0:
272,334,16520,2,0,P|288:286|269:238,1,95,12|2,0:0|0:0,0:0:0:0:
384,69,16965,6,0,L|258:58,1,95,4|2,0:0|0:0,0:0:0:0:
211,86,17298,1,0,0:0:0:0:
211,86,17409,2,0,P|195:134|214:182,1,95,12|2,0:0|0:0,0:0:0:0:
99,351,17854,6,0,L|225:362,1,95,6|0,0:0|0:0,0:0:0:0:
272,334,18187,1,0,0:0:0:0:
272,334,18298,2,0,P|288:286|269:238,1,95,12|2,0:0|0:0,0:0:0:0:
384,69,18743,6,0,L|258:58,1,95,4|2,0:0|0:0,0:0:0:0:
211,86,19076,1,0,0:0:0:0:
211,86,19187,2,0,P|195:134|214:182,1,95,12|2,0:0|0:0,0:0:0:0:
423,301,19631,5,6,0:0:0:0:
94,207,19854,1,8,0:0:0:0:
439,129,20076,1,0,0:0:0:0:
66,65,20298,1,14,0:1:0:0:
192,369,20520,5,2,0:0:0:0:
470,290,20743,1,8,0:0:0:0:
391,12,20965,1,8,0:0:0:0:
113,91,21187,1,8,0:0:0:0:
502,202,21409,5,2,0:0:0:0:
502,202,21520,1,0,0:0:0:0:
502,202,21631,2,0,L|441:209,2,47.5,12|0|0,0:3|0:0|0:0,0:0:0:0:
154,24,22076,5,2,0:0:0:0:
154,24,22187,1,0,0:0:0:0:
154,24,22298,2,0,L|163:81,2,47.5,12|0|0,0:1|0:0|0:0,0:0:0:0:
243,362,22743,5,8,0:0:0:0:
243,362,22854,1,8,0:0:0:0:
243,362,22965,1,8,0:0:0:0:
243,362,23076,1,8,0:0:0:0:
243,362,23187,6,0,L|135:351,1,95,6|0,0:0|0:0,0:0:0:0:
11,194,23631,1,12,0:0:0:0:
62,366,23854,1,2,0:0:0:0:
62,366,23965,2,0,P|46:311|125:253,1,142.5,0|2,0:0|0:0,0:0:0:0:
190,167,24520,2,0,L|197:274,1,95,12|2,0:0|0:0,0:0:0:0:
241,74,24965,5,6,0:0:0:0:
259,68,25076,1,0,0:0:0:0:
273,85,25187,1,0,0:0:0:0:
298,79,25298,1,0,0:0:0:0:
307,95,25409,1,12,0:0:0:0:
334,92,25520,1,0,0:0:0:0:
338,102,25631,1,2,0:0:0:0:
360,100,25743,1,0,0:0:0:0:
376,118,25854,6,0,L|388:21,1,95,8|0,0:0|0:0,0:0:0:0:
432,265,26298,1,8,0:0:0:0:
432,265,26409,1,8,0:0:0:0:
432,265,26520,1,8,0:0:0:0:
432,265,26631,1,8,0:0:0:0:
432,265,26743,6,0,L|441:372,1,95,6|0,0:3|0:0,0:0:0:0:
506,207,27187,1,12,0:0:0:0:
348,318,27409,1,2,0:0:0:0:
348,318,27520,2,0,B|250:322|311:274|183:285,1,142.5,0|2,0:0|0:0,0:0:0:0:
122,342,28076,2,0,L|110:226,1,95,12|0,0:0|0:0,0:0:0:0:
238,113,28520,5,6,0:0:0:0:
256,107,28631,1,0,0:0:0:0:
270,124,28742,1,0,0:0:0:0:
295,118,28853,1,0,0:0:0:0:
304,134,28964,1,12,0:0:0:0:
331,131,29075,1,0,0:0:0:0:
335,141,29186,1,2,0:0:0:0:
357,139,29298,1,0,0:0:0:0:
376,152,29409,6,0,L|369:55,1,95,8|4,0:0|0:0,0:0:0:0:
389,286,29854,2,0,L|383:365,3,47.5,8|0|0|0,0:0|0:0|0:0|0:0,0:0:0:0:
398,355,30298,6,0,L|286:342,1,95,6|0,0:3|0:0,0:0:0:0:
268,259,30743,1,12,0:0:0:0:
158,359,30965,1,2,0:0:0:0:
158,359,31076,2,0,P|131:302|193:232,1,142.5,0|2,0:0|0:0,0:0:0:0:
219,47,31631,2,0,L|226:182,1,95,12|2,0:0|0:0,0:0:0:0:
444,341,32076,5,6,0:0:0:0:
427,332,32187,1,0,0:0:0:0:
406,338,32298,1,0,0:0:0:0:
392,322,32409,1,0,0:0:0:0:
358,331,32520,1,12,0:0:0:0:
346,314,32631,1,0,0:0:0:0:
326,324,32743,1,2,0:0:0:0:
303,313,32854,1,0,0:0:0:0:
281,317,32965,6,0,L|274:215,1,95,8|4,0:0|0:0,0:0:0:0:
484,129,33409,1,8,0:0:0:0:
484,129,33520,1,8,0:0:0:0:
484,129,33631,1,8,0:0:0:0:
484,129,33743,1,8,0:0:0:0:
484,129,33854,6,0,L|495:24,1,95,6|0,0:3|0:0,0:0:0:0:
244,34,34298,1,12,0:0:0:0:
397,77,34520,1,2,0:0:0:0:
397,77,34631,2,0,P|341:80|295:154,1,142.5,0|2,0:0|0:0,0:0:0:0:
194,111,35187,2,0,L|204:206,1,95,12|0,0:0|0:0,0:0:0:0:
444,341,35631,5,6,0:0:0:0:
427,332,35742,1,0,0:0:0:0:
406,338,35853,1,0,0:0:0:0:
392,322,35964,1,0,0:0:0:0:
358,331,36075,1,12,0:0:0:0:
346,314,36186,1,0,0:0:0:0:
326,324,36298,1,2,0:0:0:0:
303,313,36409,1,0,0:0:0:0:
283,318,36520,6,0,L|291:220,1,95,8|4,0:0|0:0,0:0:0:0:
223,15,36965,2,0,L|231:78,4,47.5,8|8|8|8|6,0:0|0:0|0:0|0:0|0:1,0:0:0:0:
397,169,40520,5,8,0:0:0:0:
397,169,40631,1,8,0:0:0:0:
397,169,40743,1,8,0:0:0:0:
397,169,40854,1,8,0:0:0:0:
397,169,40965,6,0,L|394:38,1,95,6|2,0:3|0:0,0:0:0:0:
327,26,41298,1,0,0:0:0:0:
327,26,41409,2,0,P|276:12|231:38,1,95,12|2,0:0|0:0,0:0:0:0:
28,25,41854,6,0,L|31:156,1,95,6|2,0:0|0:0,0:0:0:0:
110,108,42187,1,0,0:0:0:0:
110,108,42298,2,0,P|161:122|206:96,1,95,12|2,0:0|0:0,0:0:0:0:
397,169,42743,6,0,L|394:38,1,95,6|2,0:0|0:0,0:0:0:0:
327,26,43076,1,0,0:0:0:0:
327,26,43187,2,0,P|276:12|231:38,1,95,12|2,0:0|0:0,0:0:0:0:
28,25,43631,6,0,L|31:156,1,95,6|2,0:0|0:0,0:0:0:0:
110,108,43964,1,0,0:0:0:0:
110,108,44075,2,0,P|161:122|206:96,1,95,12|2,0:0|0:0,0:0:0:0:
452,48,44520,5,2,0:0:0:0:
430,290,44743,1,8,0:1:0:0:
188,268,44965,1,0,0:0:0:0:
210,26,45187,1,14,0:1:0:0:
477,140,45409,5,2,0:0:0:0:
337,375,45631,1,8,0:0:0:0:
102,235,45854,1,8,0:0:0:0:
242,0,46076,1,8,0:0:0:0:
65,63,46298,5,2,0:0:0:0:
65,63,46409,1,0,0:0:0:0:
65,63,46520,2,0,L|58:4,2,47.5,12|0|0,0:3|0:0|0:0,0:0:0:0:
410,149,46965,5,2,0:0:0:0:
410,149,47076,1,0,0:0:0:0:
410,149,47187,2,0,L|418:209,2,47.5,12|0|0,0:1|0:0|0:0,0:0:0:0:
413,33,47631,5,8,0:0:0:0:
413,33,47743,1,8,0:0:0:0:
413,33,47854,1,8,0:0:0:0:
413,33,47965,1,8,0:0:0:0:
413,33,48076,6,0,L|287:22,1,95,6|2,0:3|0:0,0:0:0:0:
240,50,48409,1,0,0:0:0:0:
240,50,48520,2,0,P|224:98|243:146,1,95,12|2,0:0|0:0,0:0:0:0:
128,315,48965,6,0,L|254:326,1,95,6|2,0:0|0:0,0:0:0:0:
301,298,49298,1,0,0:0:0:0:
301,298,49409,2,0,P|317:250|298:202,1,95,12|2,0:0|0:0,0:0:0:0:
413,33,49854,6,0,L|287:22,1,95,6|2,0:0|0:0,0:0:0:0:
240,50,50187,1,0,0:0:0:0:
240,50,50298,2,0,P|224:98|243:146,1,95,12|2,0:0|0:0,0:0:0:0:
128,315,50743,6,0,L|254:326,1,95,6|2,0:0|0:0,0:0:0:0:
301,298,51076,1,0,0:0:0:0:
301,298,51187,2,0,P|317:250|298:202,1,95,12|2,0:0|0:0,0:0:0:0:
41,239,51631,5,6,0:0:0:0:
472,139,51854,1,8,0:0:0:0:
35,127,52075,1,0,0:0:0:0:
468,246,52298,1,14,0:1:0:0:
320,15,52520,5,2,0:0:0:0:
42,94,52743,1,8,0:0:0:0:
121,372,52965,1,8,0:0:0:0:
399,293,53187,1,8,0:0:0:0:
129,26,53409,5,2,0:0:0:0:
131,41,53520,1,0,0:0:0:0:
133,55,53631,2,0,L|124:118,2,47.5,12|0|0,0:3|0:0|0:0,0:0:0:0:
226,360,54076,5,2,0:0:0:0:
224,345,54187,1,0,0:0:0:0:
222,331,54298,2,0,L|231:268,2,47.5,12|0|0,0:1|0:0|0:0,0:0:0:0:
351,78,54743,5,12,0:3:0:0:
374,81,54854,1,8,0:0:0:0:
398,84,54965,1,8,0:0:0:0:
421,87,55076,1,8,0:0:0:0:
445,90,55187,6,0,L|441:32,3,47.5,2|0|12|0,0:0|0:0|0:1|0:0,0:0:0:0:
366,222,55854,6,0,L|361:163,3,47.5,2|0|12|0,0:0|0:0|0:3|0:0,0:0:0:0:
395,329,56520,6,0,L|390:377,1,47.5,12|8,0:1|0:0,0:0:0:0:
268,264,56743,2,0,L|255:197,1,47.5,8|8,0:0|0:0,0:0:0:0:
158,347,56965,5,2,0:0:0:0:
134,344,57076,1,0,0:0:0:0:
110,341,57187,1,12,0:3:0:0:
87,338,57298,1,0,0:0:0:0:
25,225,57631,5,2,0:0:0:0:
48,228,57742,1,0,0:0:0:0:
72,231,57853,1,12,0:1:0:0:
96,234,57964,1,0,0:0:0:0:
297,156,58298,5,12,0:3:0:0:
311,124,58409,1,8,0:0:0:0:
310,88,58520,1,8,0:0:0:0:
292,58,58631,1,8,0:0:0:0:
262,40,58743,6,0,L|195:43,1,47.5,2|0,0:0|0:0,0:0:0:0:
77,113,58965,2,0,L|125:111,1,47.5,12|0,0:1|0:0,0:0:0:0:
366,248,59409,6,0,L|299:251,1,47.5,2|0,0:0|0:0,0:0:0:0:
73,326,59631,2,0,L|121:324,1,47.5,12|0,0:3|0:0,0:0:0:0:
473,365,60076,5,12,0:1:0:0:
473,365,60187,1,8,0:0:0:0:
473,365,60298,1,8,0:0:0:0:
473,365,60409,1,8,0:0:0:0:
473,365,60520,1,12,0:0:0:0:
