osu file format v14

[General]
AudioFilename: audio.mp3
AudioLeadIn: 0
PreviewTime: 92323
Countdown: 0
SampleSet: Soft
StackLeniency: 0.4
Mode: 0
LetterboxInBreaks: 0
WidescreenStoryboard: 0

[Editor]
DistanceSpacing: 1.7
BeatDivisor: 4
GridSize: 32
TimelineZoom: 0.9

[Metadata]
Title:Connected Yours Forever
TitleUnicode:Connected Yours Forever
Artist:Tetris Effect Original Soundtrack
ArtistUnicode:Tetris Effect Original Soundtrack
Creator:Sakura Blossom
Version:Devotion Effect
Source:
Tags:Oklayyyy, Tetris Effect, I'm Yours Forever, Aspire, love, Sakura Blossom, tetris, effect, im yours, forever, im yours forever, Aspire,
BeatmapID:1800387
BeatmapSetID:860498

[Difficulty]
HPDrainRate:4
CircleSize:4.5
OverallDifficulty:7
ApproachRate:8
SliderMultiplier:1.4
SliderTickRate:1

[Events]
//Background and Video events
0,0,"image0 (2).jpg",0,0
//Break Periods
//Storyboard Layer 0 (Background)
//Storyboard Layer 1 (Fail)
//Storyboard Layer 2 (Pass)
//Storyboard Layer 3 (Foreground)
//Storyboard Sound Samples

[TimingPoints]
13886,624.997872340425,4,2,0,25,1,0
14198,-100,4,2,0,25,0,0
14510,-100,4,2,0,5,0,0
14823,-100,4,2,0,25,0,0
15135,-100,4,2,0,5,0,0
15448,-100,4,2,0,25,0,0
15760,-100,4,2,0,5,0,0
16073,-100,4,2,0,25,0,0
16385,-100,4,2,0,5,0,0
16698,-100,4,2,0,25,0,0
17010,-100,4,2,0,5,0,0
17323,-100,4,2,0,25,0,0
17635,-100,4,2,0,5,0,0
17948,-100,4,2,0,25,0,0
18260,-100,4,2,0,5,0,0
18573,-100,4,2,0,25,0,0
18885,-100,4,2,0,5,0,0
19198,-100,4,2,0,25,0,0
19510,-100,4,2,0,5,0,0
19823,-100,4,2,0,25,0,0
20135,-100,4,2,0,5,0,0
20448,-100,4,2,0,25,0,0
20760,-100,4,2,0,5,0,0
21073,-100,4,2,0,25,0,0
21385,-100,4,2,0,5,0,0
21698,-100,4,2,0,25,0,0
22010,-100,4,2,0,5,0,0
22323,-100,4,2,0,25,0,0
22635,-100,4,2,0,5,0,0
22948,-100,4,2,0,25,0,0
23260,-100,4,2,0,5,0,0
23573,-100,4,2,0,25,0,0
23885,-100,4,2,0,5,0,0
24198,-100,4,2,0,25,0,0
24510,-100,4,2,0,5,0,0
24823,-100,4,2,0,25,0,0
25135,-100,4,2,0,5,0,0
25448,-100,4,2,0,25,0,0
25760,-100,4,2,0,5,0,0
26073,-100,4,2,0,25,0,0
26385,-100,4,2,0,5,0,0
26698,-100,4,2,0,25,0,0
27010,-100,4,2,0,5,0,0
27323,-100,4,2,0,25,0,0
27635,-100,4,2,0,5,0,0
27948,-100,4,2,0,25,0,0
28260,-100,4,2,0,5,0,0
28573,-100,4,2,0,25,0,0
28885,-100,4,2,0,5,0,0
29198,-100,4,2,0,25,0,0
29510,-100,4,2,0,5,0,0
29823,-100,4,2,0,25,0,0
30135,-100,4,2,0,5,0,0
30448,-100,4,2,0,25,0,0
30760,-100,4,2,0,5,0,0
31073,-100,4,2,0,25,0,0
31385,-100,4,2,0,5,0,0
31698,-100,4,2,0,25,0,0
32010,-100,4,2,0,5,0,0
32323,-100,4,2,0,25,0,0
32635,-100,4,2,0,5,0,0
32948,-100,4,2,0,25,0,0
33260,-100,4,2,0,5,0,0
33573,-100,4,2,0,25,0,0
33885,-80,4,2,0,25,0,0
53885,-200,4,2,0,25,0,0
55760,-50,4,2,0,25,0,0
56385,-200,4,2,0,25,0,0
58260,-400,4,2,0,25,0,0
58885,-200,4,2,0,25,0,0
60760,-50,4,2,0,25,0,0
61385,-200,4,2,0,25,0,0
63260,-400,4,2,0,25,0,0
63885,-200,4,2,0,25,0,0
65760,-50,4,2,0,25,0,0
66385,-200,4,2,0,25,0,0
68260,-400,4,2,0,25,0,0
68885,-200,4,2,0,25,0,0
70760,-50,4,2,0,25,0,0
71385,-200,4,2,0,25,0,0
73260,-62.5,4,2,0,25,0,0
76385,-200,4,2,0,25,0,0
78260,-400,4,2,0,25,0,0
78885,-200,4,2,0,25,0,0
80760,-50,4,2,0,25,0,0
81385,-200,4,2,0,25,0,0
83260,-400,4,2,0,25,0,0
83885,-200,4,2,0,25,0,0
85760,-50,4,2,0,25,0,0
86385,-200,4,2,0,25,0,0
88260,-400,4,2,0,25,0,0
88885,-200,4,2,0,25,0,0
90760,-50,4,2,0,25,0,0
91385,-200,4,2,0,25,0,0
93260,-400,4,2,0,25,0,0
93885,-100,4,2,0,25,0,0
95135,-100,4,2,0,15,0,0
95448,-100,4,2,0,25,0,0
95760,-50,4,2,0,25,0,0
96385,-100,4,2,0,25,0,0
97635,-200,4,2,0,25,0,0
98260,-400,4,2,0,25,0,0
98885,-100,4,2,0,25,0,0
100135,-100,4,2,0,15,0,0
100448,-100,4,2,0,25,0,0
100760,-50,4,2,0,25,0,0
101385,-100,4,2,0,25,0,0
102635,-200,4,2,0,25,0,0
103260,-400,4,2,0,25,0,0
103885,-100,4,2,0,25,0,0
105135,-100,4,2,0,15,0,0
105448,-100,4,2,0,25,0,0
105760,-50,4,2,0,25,0,0
106385,-100,4,2,0,25,0,0
107635,-200,4,2,0,25,0,0
108260,-400,4,2,0,25,0,0
108885,-100,4,2,0,25,0,0
110135,-100,4,2,0,15,0,0
110448,-100,4,2,0,25,0,0
110760,-50,4,2,0,25,0,0
111385,-100,4,2,0,25,0,0
112635,-100,4,2,0,15,0,0
113260,-400,4,2,0,25,0,0
113885,-133.333333333333,4,2,0,45,0,1
115760,-50,4,2,0,50,0,1
116385,-100,4,2,0,45,0,1
117635,-200,4,2,0,45,0,1
118260,-400,4,2,0,50,0,1
118885,-100,4,2,0,45,0,1
120135,-100,4,2,0,15,0,1
120448,-100,4,2,0,45,0,1
120760,-50,4,2,0,50,0,1
121385,-100,4,2,0,45,0,1
122635,-133.333333333333,4,2,0,45,0,1
123260,-400,4,2,0,50,0,1
123885,-133.333333333333,4,2,0,45,0,1
125760,-50,4,2,0,50,0,1
126385,-133.333333333333,4,2,0,45,0,1
128260,-400,4,2,0,50,0,1
128885,-133.333333333333,4,2,0,45,0,1
130760,-50,4,2,0,50,0,1
131385,-133.333333333333,4,2,0,45,0,1
133260,-400,4,2,0,50,0,1
133885,-133.333333333333,4,2,0,60,0,1
134198,-133.333333333333,4,2,0,45,0,1
135760,-50,4,2,0,50,0,1
136385,-133.333333333333,4,2,0,45,0,1
138260,-400,4,2,0,50,0,1
138885,-100,4,2,0,45,0,1
140448,-100,4,2,0,15,0,0
140760,-100,4,2,0,10,0,0
141385,-200,4,2,0,15,0,0
143260,-200,4,2,0,5,0,0

[HitObjects]
254,191,13885,5,0,0:0:0:0:
299,240,14198,6,0,L|365:290,1,70
275,129,14823,2,0,L|286:47,1,70,0|0,2:0|2:0,2:0:0:0:
191,205,15448,2,0,L|115:236,1,70,0|0,2:0|2:0,2:0:0:0:
60,119,16073,6,0,L|134:175,1,70,0|0,2:0|2:0,2:0:0:0:
195,139,16698,2,0,L|206:45,1,70,0|0,2:0|2:0,2:0:0:0:
284,59,17323,2,0,L|358:115,1,70,0|0,2:0|2:0,2:0:0:0:
356,242,17948,6,0,L|290:270,1,70
315,110,18573,2,0,L|372:151,1,70
218,209,19198,2,0,L|223:137,1,70,0|8,0:0|0:0,0:0:0:0:
127,192,19823,6,0,L|80:245,1,70
240,274,20448,2,0,L|216:206,1,70
117,336,21073,2,0,L|186:348,1,70,0|8,0:0|0:0,0:0:0:0:
218,209,21698,6,0,L|225:137,1,70
365,233,22323,2,0,L|300:262,1,70,0|8,0:0|0:0,0:0:0:0:
307,99,22948,2,0,L|365:140,1,70
440,81,23573,6,0,L|482:136,1,70,0|0,2:0|2:0,2:0:0:0:
499,220,24198,2,0,L|429:228,1,70,0|0,2:0|2:0,2:0:0:0:
418,314,24823,2,0,L|460:369,1,70,0|0,2:0|2:0,2:0:0:0:
368,247,25448,6,0,P|344:296|339:327,1,70
341,173,26073,2,0,P|298:208|281:233,1,70
347,94,26698,2,0,P|293:108|266:123,1,70
236,171,27323,6,0,P|223:156|213:87,1,70
238,250,27948,2,0,P|219:247|167:200,1,70,0|0,3:0|3:0,3:0:0:0:
286,311,28573,2,0,P|269:320|199:314,1,70,0|0,3:0|3:0,3:0:0:0:
51,285,29198,6,0,L|62:366,1,70
136,223,29823,2,0,L|125:304,1,70
48,146,30448,2,0,L|68:212,1,70
215,100,31073,6,0,L|151:130,1,70
141,220,31698,2,0,L|198:263,1,70
287,226,32323,2,0,L|293:154,1,70,0|8,0:0|0:0,0:0:0:0:
426,127,32948,6,0,L|379:180,1,70
296,115,33573,1,0,0:0:0:0:
237,202,33885,6,8,L|201:167,1,43.75,0|0,0:0|0:0,0:0:0:0:
342,247,34197,2,0,L|294:261,1,43.75
414,275,34510,2,0,L|426:226,1,43.75
391,359,34822,6,0,L|354:322,1,43.75
290,370,35135,2,0,L|265:328,1,43.75
188,353,35448,2,0,L|175:305,1,43.75,2|0,0:0|0:0,0:0:0:0:
344,290,35760,6,0,L|319:247,1,43.75
234,273,36073,2,0,L|246:227,1,43.75
151,232,36385,2,0,L|151:182,1,43.75
295,185,36698,6,0,L|282:138,1,43.75
196,144,37010,2,0,L|197:93,1,43.75
118,97,37323,2,0,L|73:121,1,43.75
145,195,37635,6,0,L|164:233,1,43.75
168,316,37948,2,0,L|125:313,1,43.75
50,279,38260,2,0,L|72:242,1,43.75
177,163,38573,6,0,L|157:202,1,43.75
97,148,38885,2,0,L|73:111,1,43.75
152,89,39198,2,0,L|196:86,1,43.75
302,108,39510,6,0,L|249:126,1,43.75
357,40,39823,2,0,L|304:22,1,43.75
428,97,40135,2,0,L|378:123,1,43.75
415,229,40448,6,0,L|433:176,1,43.75
347,284,40760,2,0,L|329:231,1,43.75
404,355,41073,2,0,L|430:305,1,43.75
263,223,41385,6,0,L|256:178,1,43.75
182,247,41698,2,0,L|188:201,1,43.75
106,259,42010,2,0,L|94:215,1,43.75,2|0,0:0|0:0,0:0:0:0:
256,179,42323,6,0,L|266:133,1,43.75
338,202,42635,2,0,L|336:158,1,43.75
413,224,42948,2,0,L|442:192,1,43.75,2|0,0:0|0:0,0:0:0:0:
457,111,43260,6,0,L|451:66,1,43.75
325,96,43573,2,0,L|388:87,1,43.75
265,33,43885,2,0,L|246:85,1,43.75
178,36,44198,6,0,L|146:66,1,43.75
71,89,44511,2,0,L|61:131,1,43.75
77,208,44823,2,0,L|45:239,1,43.75,2|0,0:0|0:0,0:0:0:0:
111,280,45135,6,0,L|153:288,1,43.75
228,266,45448,2,0,L|258:296,1,43.75
288,370,45760,2,0,L|331:378,1,43.75,2|0,0:0|0:0,0:0:0:0:
390,325,46073,6,8,L|425:361,1,43.75,0|0,0:0|0:0,0:0:0:0:
345,220,46385,2,0,L|331:268,1,43.75
317,148,46698,2,0,L|366:136,1,43.75
310,71,47010,6,0,L|310:27,1,43.75
196,13,47323,2,0,L|233:35,1,43.75
83,74,47635,2,8,L|121:52,1,43.75,0|0,0:0|0:0,0:0:0:0:
143,133,47948,6,0,L|168:172,1,43.75
68,174,48260,2,0,L|100:203,1,43.75
0,212,48573,2,0,L|2:255,1,43.75,2|0,0:0|0:0,0:0:0:0:
76,281,48885,6,0,L|119:287,1,43.75
148,363,49198,2,0,L|191:357,1,43.75
290,309,49510,2,0,L|247:302,1,43.75,2|0,0:0|0:0,0:0:0:0:
381,275,49823,6,0,L|332:227,1,43.75
437,173,50135,2,0,L|421:239,1,43.75
322,153,50448,2,0,L|384:177,1,43.75,0|8,0:0|0:0,0:0:0:0:
378,90,50760,6,0,L|426:41,1,43.75
480,146,51072,2,0,L|414:130,1,43.75
500,31,51385,2,0,L|476:93,1,43.75,0|8,0:0|0:0,0:0:0:0:
480,146,51698,6,0,L|432:195,1,43.75
378,90,52010,2,0,L|444:106,1,43.75
358,205,52323,2,0,L|382:143,1,43.75,0|8,0:0|0:0,0:0:0:0:
378,90,52635,6,0,L|425:119,1,43.75
290,91,52948,2,0,L|310:143,1,43.75
288,1,53260,2,0,L|340:22,1,43.75
176,83,53573,2,0,L|231:75,1,43.75
97,148,53885,6,0,L|143:168,1,35
112,237,54510,2,0,L|78:218,1,35
200,236,55135,2,0,L|182:190,1,35
167,315,55760,6,0,B|141:306|121:310|121:310|114:306|114:306|115:313|115:313|43:341,1,140
45,235,56385,6,8,L|39:285,1,35,0|0,0:0|0:0,0:0:0:0:
96,133,57010,2,0,L|52:154,1,35
133,65,57635,2,0,L|172:94,1,35
219,36,58260,6,0,L|239:33,1,17.5
264,126,58885,6,8,L|220:99,1,35,0|0,0:0|0:0,0:0:0:0:
334,215,59510,2,0,L|333:166,1,35
380,277,60135,2,0,L|336:300,1,35
408,210,60760,6,0,B|411:172|411:172|410:165|410:165|413:169|413:169|442:133|437:96|437:96|441:85,1,140
388,2,61385,6,0,L|398:35,1,35
296,71,62010,2,0,L|321:46,1,35
175,52,62635,2,8,L|209:60,1,35,0|0,0:0|0:0,0:0:0:0:
141,126,63260,6,0,L|133:144,1,17.5
155,211,63885,6,0,L|191:187,1,35
196,286,64510,2,0,L|223:256,1,35
234,354,65135,2,0,L|275:352,1,35,2|0,0:0|0:0,0:0:0:0:
340,317,65760,6,0,B|286:244|343:238|299:173,1,140
262,118,66385,6,0,L|303:110,1,35
379,132,67010,2,0,L|407:103,1,35
439,28,67635,2,0,L|479:20,1,35,2|0,0:0|0:0,0:0:0:0:
485,106,68260,6,0,L|485:125,1,17.5
391,164,68885,6,0,L|378:131,1,35,2|0,0:0|0:0,0:0:0:0:
503,205,69510,2,0,L|473:185,1,35
510,322,70135,2,0,L|497:289,1,35
431,331,70760,6,0,B|398:342|383:354|383:354|337:403|259:359,1,140
324,310,71385,6,0,L|289:275,1,35
223,321,72010,2,0,L|199:281,1,35
121,304,72635,2,0,L|109:259,1,35,2|0,0:0|0:0,0:0:0:0:
149,206,73260,6,0,B|86:181|25:200|25:200|13:248|-25:275|-25:275|67:283|83:165|22:83|164:-7|164:-7|100:74|115:158|175:216|205:232|253:243|253:243|266:245,1,896
330,226,76073,5,0,0:0:0:0:
407,180,76385,2,0,L|418:135,1,35
479,190,77010,2,0,L|512:222,1,35
512,105,77635,2,0,L|467:117,1,35
422,74,78260,6,0,L|419:52,1,17.5
337,32,78885,6,0,L|311:63,1,35
226,60,79510,2,0,L|215:99,1,35
143,138,80135,2,0,L|150:177,1,35
244,209,80760,6,0,B|203:237|203:237|191:263|191:263|165:277|165:277|138:310,1,140
67,324,81385,6,0,L|57:363,1,35
30,224,82010,2,0,L|41:266,1,35
139,243,82635,2,0,L|99:269,1,35
91,184,83260,6,0,L|98:165,1,17.5
139,243,83885,6,0,L|175:220,1,35
243,255,84510,2,0,L|271:223,1,35
292,136,85135,2,0,L|256:157,1,35,2|0,0:0|0:0,0:0:0:0:
185,161,85760,6,0,B|199:112|180:71|180:71|206:55|207:19,1,140
304,56,86385,6,8,P|283:37|269:21,1,35,0|0,0:0|0:0,0:0:0:0:
403,101,87010,2,0,P|382:108|358:114,1,35
481,129,87635,2,0,P|487:108|492:79,1,35
446,34,88260,6,0,L|470:32,1,17.5
382,77,88885,6,0,L|414:105,1,35
320,136,89510,2,0,L|355:154,1,35
264,190,90135,2,0,L|276:229,1,35,2|0,0:0|0:0,0:0:0:0:
193,221,90760,6,0,B|160:215|160:215|144:217|144:217|119:212|119:212|99:209|99:209|81:195|81:195|67:192|67:192|43:181,1,140
57,109,91385,6,0,P|32:112|11:117,1,35
137,83,92010,2,0,P|119:60|103:46,1,35
211,107,92635,2,0,P|212:90|209:66,1,35
282,146,93260,6,0,L|290:130,1,17.5
345,71,93885,6,0,B|386:105|368:142|368:142|362:151|362:151|370:158|370:158|366:202|389:228|389:228|383:252|387:267,1,210
368,333,95135,2,0,L|371:355,2,17.5
313,282,95448,5,0,0:0:0:0:
388,255,95760,6,0,B|414:256|430:280|430:280|426:221|426:221|432:208|432:208|423:191|423:191|423:172,1,140
426,117,96385,6,0,B|390:112|366:69|366:69|306:69|306:69|300:63|300:63|297:70|297:70|229:78,1,210
181,103,97635,2,0,L|164:146,1,35
98,165,98260,6,0,L|92:149,1,17.5
78,73,98885,6,0,B|125:89|154:24|154:24|230:36|227:108,1,210
241,166,100135,2,0,L|218:167,2,17.5
296,115,100448,5,0,0:0:0:0:
321,188,100760,6,0,B|304:217|304:217|302:233|302:233|294:248|294:248|297:264|297:264|289:280|289:280|290:299|290:299|281:322,1,140
208,335,101385,6,0,B|201:289|180:262|180:262|148:244|101:247|101:247|121:220|103:181,1,210
91,125,102635,6,0,L|60:90,1,35
27,31,103260,6,0,L|50:29,1,17.5
124,41,103885,6,0,B|152:47|189:41|189:41|219:64|261:57|261:57|287:81|325:84,1,210
388,44,105135,2,0,L|386:22,2,17.5
389,120,105448,5,0,0:0:0:0:
454,83,105760,6,0,B|471:107|472:127|472:127|510:158|500:210,1,140,0|0,2:0|2:0,2:0:0:0:
430,189,106385,6,0,B|312:240|339:140|209:187,1,210
163,220,107635,6,0,L|150:264,1,35
202,310,108260,6,0,L|221:294,1,17.5
270,247,108885,6,0,B|294:287|294:287|422:300|422:300|465:342,1,210
495,384,110135,2,0,L|512:384,2,17.5
512,310,110448,5,0,0:0:0:0:
475,245,110760,6,0,B|464:220|483:187|483:187|452:151|462:99,1,140
485,45,111385,6,0,B|409:20|418:75|346:30|346:30|327:63|293:68,1,210
226,102,112635,2,0,L|210:107,2,17.5
232,28,112948,5,0,0:0:0:0:
162,52,113260,6,0,L|138:57,1,17.5
156,128,113885,6,0,P|145:162|138:196,1,52.5000020027161
213,190,114510,2,0,P|217:225|225:259,1,52.5000020027161
291,217,115135,2,0,P|309:247|331:274,1,52.5000020027161
377,215,115760,6,0,B|411:227|411:227|430:244|430:244|456:251|456:251|478:273|478:273|505:283,1,140
500,352,116385,6,0,B|491:351|469:363|469:363|438:347|397:363|397:363|388:357|388:357|381:365|381:365|350:392|306:361,1,210
253,313,117635,6,0,L|213:320,1,35
158,352,118260,6,0,L|139:338,1,17.5
108,278,118885,6,0,B|121:272|126:266|126:266|134:266|134:266|134:260|134:260|141:261|141:261|142:254|142:254|151:256|151:256|154:248|154:248|162:249|162:249|166:240|166:240|176:239|176:239|179:231|179:231|189:232|189:232|192:223|192:223|201:224|201:224|204:216|204:216|213:217|213:217|216:209|216:209|225:211|225:211|226:203|226:203|236:205|236:205|237:197|237:197|246:198|246:198|248:189|248:189|256:187|263:186,1,210
271,122,120135,2,0,L|266:106,2,17.5
322,177,120448,5,0,0:0:0:0:
299,245,120760,6,0,B|370:274|366:212|449:246,1,140
504,219,121385,6,0,B|490:167|449:168|449:168|438:169|438:169|435:159|435:159|394:144|380:112|380:112|356:108|344:98,1,210
277,92,122635,6,0,P|245:93|221:99,1,52.5000020027161
159,130,123260,6,0,L|140:127,1,17.5
81,170,123885,6,0,P|72:152|77:97,1,52.5000020027161
75,244,124510,2,0,P|55:239|16:200,1,52.5000020027161
124,298,125135,2,0,P|107:309|52:314,1,52.5000020027161
147,231,125760,6,0,B|189:220|189:220|234:251|291:255,1,140
343,216,126385,6,0,P|351:233|347:289,1,52.5000020027161
349,142,127010,2,0,P|368:146|407:185,1,52.5000020027161
300,88,127635,2,0,P|316:76|371:71,1,52.5000020027161
277,159,128260,6,0,L|255:161,1,17.5
186,154,128885,6,0,P|186:172|216:220,1,52.5000020027161
145,91,129510,2,0,P|130:103|113:156,1,52.5000020027161
163,20,130135,2,0,P|143:16|92:38,1,52.5000020027161
221,68,130760,6,0,B|265:108|323:89|323:89|337:102|361:108,1,140
394,165,131385,6,0,P|406:151|419:96,1,52.5000020027161
378,238,132010,2,0,P|397:239|446:213,1,52.5000020027161
315,276,132635,2,0,P|326:292|377:313,1,52.5000020027161
312,204,133260,6,0,L|292:201,1,17.5
245,256,133885,6,0,P|212:252|184:258,1,52.5000020027161
155,321,134510,2,0,P|122:325|94:319,1,52.5000020027161
58,263,135135,2,0,P|62:230|56:202,1,52.5000020027161
33,145,135760,6,0,B|29:119|36:98|36:98|23:69|19:39|42:6,1,140
100,55,136385,6,0,P|115:76|128:98,1,52.5000020027161
199,74,137010,2,0,P|203:99|206:125,1,52.5000020027161
278,137,137635,2,0,P|271:162|263:187,1,52.5000020027161
244,277,138260,6,0,L|247:260,1,17.5
316,236,138885,6,0,B|368:230|415:258|415:258|474:276|510:206|462:156|462:156|482:111|447:49,1,350
404,16,140760,2,0,L|359:-1,2,35
385,91,141385,6,0,B|372:97|367:103|367:103|359:103|359:103|359:109|359:109|352:108|352:108|351:115|351:115|342:113|342:113|339:121|339:121|331:120|331:120|327:129|327:129|317:130|317:130|314:138|314:138|304:137|304:137|301:146|301:146|292:145|292:145|289:153|289:153|280:152|280:152|277:160|277:160|268:158|268:158|267:166|267:166|257:164|257:164|256:172|256:172|247:171|247:171|245:180|245:180|237:182,1,210
