osu file format v14

[General]
AudioFilename: TetrisTheme2.mp3
AudioLeadIn: 0
PreviewTime: 4
Countdown: 1
SampleSet: Normal
StackLeniency: 0.7
Mode: 0
LetterboxInBreaks: 0
WidescreenStoryboard: 1

[Editor]
DistanceSpacing: 0.8
BeatDivisor: 2
GridSize: 32
TimelineZoom: 1

[Metadata]
Title:Theme 2
TitleUnicode:Theme 2
Artist:Tetris
ArtistUnicode:Tetris
Creator:sorata143
Version:Normal
Source:Tetris Java Game
Tags:tetris midi game level2 synthesia blackmidi
BeatmapID:1173083
BeatmapSetID:554070

[Difficulty]
HPDrainRate:4
CircleSize:3.6
OverallDifficulty:5
ApproachRate:4.5
SliderMultiplier:1.1
SliderTickRate:2

[Events]
//Background and Video events
0,0,"TetrisTheme2.jpg",0,0
//Break Periods
//Storyboard Layer 0 (Background)
//Storyboard Layer 1 (Fail)
//Storyboard Layer 2 (Pass)
//Storyboard Layer 3 (Foreground)
//Storyboard Sound Samples

[TimingPoints]
2.5714285714284,428.571428571429,4,1,0,10,1,0
3,-100,4,1,0,10,0,1

[HitObjects]
352,288,10,6,0,P|192:288|160:288,1,165
160,288,859,2,0,L|160:96,1,165
160,96,1716,2,0,L|352:96,1,165
352,96,2574,2,0,L|352:288,1,165
128,320,3431,5,0,0:0:0:0:
192,256,3645,2,0,L|320:128,1,165
384,64,4502,1,0,0:0:0:0:
320,128,4716,2,0,L|192:256,1,165
128,320,5574,1,0,0:0:0:0:
224,320,5788,1,0,0:0:0:0:
288,320,6002,1,0,0:0:0:0:
384,320,6216,1,0,0:0:0:0:
384,224,6431,2,0,P|480:288|448:384,1,220
320,352,7502,6,0,L|192:352,2,110
384,320,8574,1,0,0:0:0:0:
320,256,8788,2,0,L|192:128,1,165
128,64,9645,1,0,0:0:0:0:
192,128,9859,2,0,L|320:256,1,165
384,320,10716,1,0,0:0:0:0:
288,320,10931,1,0,0:0:0:0:
224,320,11145,1,0,0:0:0:0:
128,320,11359,1,0,0:0:0:0:
128,224,11574,6,0,P|32:320|64:384,1,220
192,352,12645,2,0,L|320:352,2,110
256,192,13716,1,0,0:0:0:0:
224,32,15002,2,0,L|288:32,1,55
256,192,15431,1,0,0:0:0:0:
64,32,16716,5,0,0:0:0:0:
160,32,16931,2,0,L|160:96,1,55
160,192,17359,1,0,0:0:0:0:
64,192,17574,1,0,0:0:0:0:
64,320,17788,1,0,0:0:0:0:
160,320,18002,2,0,L|160:256,1,55
256,256,18431,2,0,L|384:256,1,110
448,320,20145,5,0,0:0:0:0:
352,320,20359,2,0,L|352:256,1,55
352,192,20788,1,0,0:0:0:0:
448,192,21002,1,0,0:0:0:0:
448,32,21216,1,0,0:0:0:0:
352,32,21431,2,0,L|352:96,1,55
256,128,21859,2,0,L|128:128,1,110
320,128,23574,5,0,0:0:0:0:
320,32,24002,2,0,B|256:96|224:128|192:160|160:128|128:96|96:64|96:64,1,275
32,128,25288,1,0,0:0:0:0:
192,256,25502,1,0,0:0:0:0:
192,352,25716,2,0,B|256:288|288:256|320:224|352:256|384:288|416:320|416:320,1,275
480,256,27002,1,0,0:0:0:0:
416,224,27216,6,0,L|384:160,1,55
320,160,27645,2,0,L|288:224,1,55
224,224,28074,2,0,L|192:160,1,55
128,160,28502,2,0,L|96:224,1,55
288,288,28931,2,0,L|224:256,1,55
224,192,29359,2,0,L|288:160,1,55
288,96,29788,2,0,L|224:64,1,55
160,96,30216,5,0,0:0:0:0:
64,192,30431,1,0,0:0:0:0:
160,288,30645,1,0,0:0:0:0:
160,384,30859,2,0,L|288:384,1,110
288,192,31502,2,0,L|224:192,1,55
352,288,31931,5,0,0:0:0:0:
448,192,32145,1,0,0:0:0:0:
352,96,32359,1,0,0:0:0:0:
352,0,32574,2,0,L|224:0,1,110
96,96,33216,1,0,0:0:0:0:
96,192,33431,1,0,0:0:0:0:
96,288,33645,2,0,L|-32:256,1,110
0,352,34288,1,0,0:0:0:0:
256,192,34716,12,0,37288,0:0:0:0:
352,96,37716,6,0,P|256:96|160:96,1,165
160,96,38573,2,0,L|160:288,1,165
160,288,39430,2,0,L|352:288,1,165
352,288,40288,2,0,L|352:96,1,165
128,64,41145,5,0,0:0:0:0:
192,128,41359,2,0,L|320:256,1,165
384,320,42216,1,0,0:0:0:0:
320,256,42431,2,0,L|192:128,1,165
128,64,43289,1,0,0:0:0:0:
224,64,43502,1,0,0:0:0:0:
288,64,43716,1,0,0:0:0:0:
384,64,43930,1,0,0:0:0:0:
384,160,44145,2,0,P|480:96|448:0,1,220
320,32,45216,6,0,L|192:32,2,110
384,64,46288,1,0,0:0:0:0:
320,128,46502,2,0,L|192:256,1,165
128,320,47359,1,0,0:0:0:0:
192,256,47574,2,0,L|320:128,1,165
384,64,48431,1,0,0:0:0:0:
288,64,48646,1,0,0:0:0:0:
224,64,48860,1,0,0:0:0:0:
128,64,49074,1,0,0:0:0:0:
128,160,49289,6,0,P|32:64|64:0,1,220
192,32,50359,2,0,L|320:32,2,110
256,192,51430,1,0,0:0:0:0:
288,352,52716,2,0,L|224:352,1,55
256,192,53145,1,0,0:0:0:0:
512,352,54431,5,0,0:0:0:0:
512,256,54646,2,0,L|448:256,1,55
352,256,55074,1,0,0:0:0:0:
352,352,55289,1,0,0:0:0:0:
224,352,55503,1,0,0:0:0:0:
224,256,55717,2,0,L|288:256,1,55
288,160,56146,2,0,L|288:32,1,110
32,32,57859,5,0,0:0:0:0:
32,128,58073,2,0,L|96:128,1,55
160,128,58502,1,0,0:0:0:0:
160,32,58716,1,0,0:0:0:0:
320,32,58930,1,0,0:0:0:0:
320,128,59145,2,0,L|256:128,1,55
224,224,59573,2,0,L|224:352,1,110
352,320,61288,5,0,0:0:0:0:
448,320,61716,2,0,B|384:256|352:224|320:192|352:160|384:128|416:96|416:96,1,275
352,32,63002,1,0,0:0:0:0:
160,64,63216,1,0,0:0:0:0:
64,64,63430,2,0,B|128:128|160:160|192:192|160:224|128:256|96:288|96:288,1,275
160,352,64716,1,0,0:0:0:0:
224,352,64931,6,0,L|288:320,1,55
288,256,65360,2,0,L|224:224,1,55
224,160,65789,2,0,L|288:128,1,55
288,64,66217,2,0,L|224:32,1,55
160,224,66645,2,0,L|192:160,1,55
256,160,67073,2,0,L|288:224,1,55
352,224,67502,2,0,L|384:160,1,55
352,96,67931,5,0,0:0:0:0:
256,0,68146,1,0,0:0:0:0:
160,96,68360,1,0,0:0:0:0:
64,96,68574,2,0,L|64:224,1,110
256,224,69217,2,0,L|256:160,1,55
160,288,69645,5,0,0:0:0:0:
256,384,69859,1,0,0:0:0:0:
352,288,70073,1,0,0:0:0:0:
448,288,70288,2,0,L|448:160,1,110
352,128,70931,1,0,0:0:0:0:
256,128,71146,1,0,0:0:0:0:
160,128,71360,2,0,L|192:0,1,110
96,32,72003,1,0,0:0:0:0:
256,192,72216,12,0,75002,0:0:0:0:
