osu file format v14

[General]
AudioFilename: TetrisTheme2.mp3
AudioLeadIn: 0
PreviewTime: 4
Countdown: 1
SampleSet: Normal
StackLeniency: 0.7
Mode: 0
LetterboxInBreaks: 0
WidescreenStoryboard: 1

[Editor]
DistanceSpacing: 0.8
BeatDivisor: 4
GridSize: 8
TimelineZoom: 3.199999

[Metadata]
Title:Theme 2
TitleUnicode:Theme 2
Artist:Tetris
ArtistUnicode:Tetris
Creator:sorata143
Version:Insane
Source:Tetris Java Game
Tags:tetris midi game level2 synthesia blackmidi
BeatmapID:1173082
BeatmapSetID:554070

[Difficulty]
HPDrainRate:6.2
CircleSize:4
OverallDifficulty:7.6
ApproachRate:8.6
SliderMultiplier:1.1
SliderTickRate:2

[Events]
//Background and Video events
0,0,"TetrisTheme2.jpg",0,0
//Break Periods
//Storyboard Layer 0 (Background)
//Storyboard Layer 1 (Fail)
//Storyboard Layer 2 (Pass)
//Storyboard Layer 3 (Foreground)
//Storyboard Sound Samples

[TimingPoints]
2.5714285714284,428.571428571429,4,1,0,10,1,0
3,-100,4,1,0,10,0,1

[HitObjects]
96,352,0,5,0,0:0:0:0:
192,256,216,1,0,0:0:0:0:
192,256,324,1,0,0:0:0:0:
192,256,431,1,0,0:0:0:0:
96,352,645,1,0,0:0:0:0:
320,352,859,5,0,0:0:0:0:
416,256,1073,1,0,0:0:0:0:
416,256,1181,1,0,0:0:0:0:
416,256,1288,1,0,0:0:0:0:
320,352,1502,1,0,0:0:0:0:
416,128,1716,5,0,0:0:0:0:
320,32,1930,1,0,0:0:0:0:
320,32,2038,1,0,0:0:0:0:
320,32,2145,1,0,0:0:0:0:
416,128,2359,1,0,0:0:0:0:
192,128,2574,5,0,0:0:0:0:
96,32,2788,1,0,0:0:0:0:
96,32,2896,1,0,0:0:0:0:
96,32,3003,1,0,0:0:0:0:
192,128,3217,1,0,0:0:0:0:
96,128,3431,5,0,0:0:0:0:
192,320,3645,1,0,0:0:0:0:
288,96,3859,1,0,0:0:0:0:
448,288,4074,2,0,L|384:256,1,55
288,352,4502,5,0,0:0:0:0:
314,352,4609,1,0,0:0:0:0:
268,353,4716,1,0,0:0:0:0:
96,320,4931,2,0,L|96:256,1,55
157,83,5359,1,0,0:0:0:0:
160,96,5466,1,0,0:0:0:0:
192,96,5573,1,0,0:0:0:0:
448,96,5788,2,0,L|384:64,1,55
224,224,6216,6,0,L|224:256,1,27.5
448,160,6430,1,0,0:0:0:0:
384,352,6645,2,0,L|320:352,1,55
256,192,7074,1,0,0:0:0:0:
224,160,7181,1,0,0:0:0:0:
224,160,7288,1,0,0:0:0:0:
64,64,7503,2,0,L|3:99,1,55
288,352,7931,5,0,0:0:0:0:
128,288,8038,1,0,0:0:0:0:
288,352,8145,1,0,0:0:0:0:
288,352,8360,2,0,L|352:320,1,55
256,160,8788,5,0,0:0:0:0:
448,256,9002,1,0,0:0:0:0:
448,96,9216,2,0,L|448:32,1,55
224,64,9645,5,0,0:0:0:0:
224,64,9752,1,0,0:0:0:0:
224,64,9859,1,0,0:0:0:0:
32,224,10074,2,0,L|96:192,1,55
288,160,10502,2,0,L|288:192,1,27.5
288,187,10716,1,0,0:0:0:0:
456,216,10931,2,0,L|520:248,1,55
304,336,11359,5,0,0:0:0:0:
272,336,11466,1,0,0:0:0:0:
304,336,11573,1,0,0:0:0:0:
144,352,11788,2,0,L|80:320,1,55
0,128,12216,1,0,0:0:0:0:
144,192,12324,2,0,L|176:192,1,27.5
256,56,12645,2,0,L|192:24,1,55
128,224,13074,5,0,0:0:0:0:
320,192,13181,1,0,0:0:0:0:
128,224,13288,1,0,0:0:0:0:
456,32,13503,2,0,L|520:64,1,55
508,273,13931,1,0,0:0:0:0:
504,316,14038,1,0,0:0:0:0:
480,288,14145,1,0,0:0:0:0:
312,320,14360,2,0,L|248:288,1,55
136,128,14788,6,0,L|136:96,1,27.5
328,176,15002,1,0,0:0:0:0:
224,352,15217,2,0,L|160:352,1,55
0,312,15645,1,0,0:0:0:0:
0,312,15752,1,0,0:0:0:0:
64,192,15859,1,0,0:0:0:0:
64,192,16074,2,0,L|32:128,1,55
120,8,16502,1,0,0:0:0:0:
224,128,16610,2,0,L|192:160,1,27.5
352,64,16931,6,0,L|416:64,1,55
416,64,17359,1,0,0:0:0:0:
416,64,17466,1,0,0:0:0:0:
416,64,17573,1,0,0:0:0:0:
448,128,17788,2,0,L|512:96,1,55
352,224,18216,1,0,0:0:0:0:
288,64,18324,2,0,L|288:32,1,27.5
200,208,18645,2,0,L|168:272,1,55
32,304,19074,6,0,L|32:336,1,27.5
32,64,19288,1,0,0:0:0:0:
32,304,19503,2,0,L|64:368,1,55
160,320,19931,1,0,0:0:0:0:
192,320,20038,1,0,0:0:0:0:
160,320,20145,1,0,0:0:0:0:
328,184,20360,2,0,L|264:216,1,55
384,344,20788,5,0,0:0:0:0:
384,344,20895,1,0,0:0:0:0:
512,256,21002,1,0,0:0:0:0:
512,72,21217,2,0,L|512:8,1,55
272,56,21645,2,0,L|280:88,1,27.5
416,192,21859,1,0,0:0:0:0:
256,256,22074,2,0,L|192:288,1,55
192,96,22502,5,0,0:0:0:0:
192,96,22609,1,0,0:0:0:0:
0,40,22716,1,0,0:0:0:0:
0,104,22931,2,0,L|0:40,1,55
200,176,23359,1,0,0:0:0:0:
200,194,23466,1,0,0:0:0:0:
200,215,23573,1,0,0:0:0:0:
64,328,23788,2,0,L|128:352,1,55
352,288,24216,5,0,0:0:0:0:
352,288,24323,1,0,0:0:0:0:
352,288,24430,1,0,0:0:0:0:
320,96,24645,1,0,0:0:0:0:
160,192,24859,1,0,0:0:0:0:
320,96,25074,1,0,0:0:0:0:
256,192,25288,2,0,L|256:256,1,55
256,96,25716,5,0,0:0:0:0:
160,288,25931,1,0,0:0:0:0:
160,288,26038,1,0,0:0:0:0:
160,288,26145,1,0,0:0:0:0:
192,96,26360,1,0,0:0:0:0:
352,192,26574,1,0,0:0:0:0:
192,96,26789,1,0,0:0:0:0:
256,224,27002,2,0,L|256:160,1,55
320,352,27431,5,0,0:0:0:0:
416,328,27645,1,0,0:0:0:0:
416,256,27752,1,0,0:0:0:0:
416,184,27859,1,0,0:0:0:0:
480,128,28074,5,0,0:0:0:0:
352,32,28288,1,0,0:0:0:0:
360,192,28502,1,0,0:0:0:0:
288,192,28609,1,0,0:0:0:0:
216,192,28716,1,0,0:0:0:0:
256,352,28931,5,0,0:0:0:0:
64,320,29145,1,0,0:0:0:0:
224,256,29359,1,0,0:0:0:0:
96,232,29466,1,0,0:0:0:0:
96,160,29573,1,0,0:0:0:0:
96,88,29788,1,0,0:0:0:0:
96,160,30002,1,0,0:0:0:0:
256,96,30216,6,0,L|320:64,1,55
160,320,30645,1,0,0:0:0:0:
416,256,30859,1,0,0:0:0:0:
360,72,31074,1,0,0:0:0:0:
280,176,31181,1,0,0:0:0:0:
216,64,31288,1,0,0:0:0:0:
288,256,31502,1,0,0:0:0:0:
288,256,31931,5,0,0:0:0:0:
64,288,32038,1,0,0:0:0:0:
288,256,32145,1,0,0:0:0:0:
64,288,32359,1,0,0:0:0:0:
96,64,32574,1,0,0:0:0:0:
192,136,32788,1,0,0:0:0:0:
328,176,32895,1,0,0:0:0:0:
296,48,33002,1,0,0:0:0:0:
328,176,33216,1,0,0:0:0:0:
192,128,33645,6,0,P|224:224|288:224,1,165
288,224,34502,1,0,0:0:0:0:
192,128,34609,1,0,0:0:0:0:
280,128,34716,1,0,0:0:0:0:
192,224,34931,2,0,L|256:224,1,55
256,192,35574,12,0,36859,0:0:0:0:
256,192,37288,5,2,0:0:0:0:
64,352,37716,1,0,0:0:0:0:
192,256,37930,1,0,0:0:0:0:
128,256,38038,1,0,0:0:0:0:
192,320,38145,1,0,0:0:0:0:
128,320,38359,1,0,0:0:0:0:
288,352,38573,5,0,0:0:0:0:
352,256,38787,1,0,0:0:0:0:
416,320,38895,1,0,0:0:0:0:
352,320,39002,1,0,0:0:0:0:
416,256,39216,1,0,0:0:0:0:
448,128,39430,5,0,0:0:0:0:
384,32,39644,1,0,0:0:0:0:
320,96,39752,1,0,0:0:0:0:
384,96,39859,1,0,0:0:0:0:
320,32,40073,1,0,0:0:0:0:
224,128,40288,5,0,0:0:0:0:
96,96,40502,1,0,0:0:0:0:
160,32,40610,1,0,0:0:0:0:
96,32,40717,1,0,0:0:0:0:
160,96,40931,1,0,0:0:0:0:
224,128,41145,5,0,0:0:0:0:
296,320,41359,1,0,0:0:0:0:
400,176,41573,1,0,0:0:0:0:
128,256,41788,2,0,L|192:224,1,55
256,192,42216,5,0,0:0:0:0:
64,160,42323,1,0,0:0:0:0:
256,192,42430,1,0,0:0:0:0:
64,160,42645,2,0,L|32:96,1,55
256,176,43073,1,0,0:0:0:0:
256,360,43180,1,0,0:0:0:0:
136,280,43287,1,0,0:0:0:0:
416,288,43502,2,0,L|352:288,1,55
288,256,43930,6,0,L|256:224,1,27.5
128,320,44144,1,0,0:0:0:0:
128,320,44359,2,0,L|192:352,1,55
320,256,44788,1,0,0:0:0:0:
320,256,44895,1,0,0:0:0:0:
470,329,45002,1,0,0:0:0:0:
416,336,45217,2,0,L|480:328,1,55
448,176,45645,5,0,0:0:0:0:
384,192,45752,1,0,0:0:0:0:
416,184,45859,1,0,0:0:0:0:
352,32,46074,2,0,L|288:64,1,55
224,176,46502,5,0,0:0:0:0:
32,248,46716,1,0,0:0:0:0:
96,96,46930,2,0,L|96:32,1,55
224,64,47359,5,0,0:0:0:0:
304,192,47466,1,0,0:0:0:0:
224,64,47573,1,0,0:0:0:0:
392,80,47788,2,0,L|456:48,1,55
168,240,48216,2,0,L|136:240,1,27.5
168,240,48430,1,0,0:0:0:0:
352,160,48645,2,0,L|352:224,1,55
384,224,49073,5,0,0:0:0:0:
416,288,49180,1,0,0:0:0:0:
448,352,49287,1,0,0:0:0:0:
512,176,49502,2,0,L|512:112,1,55
448,352,49930,1,0,0:0:0:0:
256,256,50038,2,0,L|224:256,1,27.5
256,96,50359,2,0,L|320:64,1,55
256,96,50788,5,0,0:0:0:0:
128,16,50895,1,0,0:0:0:0:
64,128,51002,1,0,0:0:0:0:
64,128,51217,2,0,L|32:192,1,55
128,256,51645,1,0,0:0:0:0:
132,299,51752,1,0,0:0:0:0:
273,348,51859,1,0,0:0:0:0:
220,335,52074,2,0,L|288:352,1,55
320,256,52502,6,0,L|320:224,1,27.5
320,256,52716,1,0,0:0:0:0:
320,256,52931,2,0,L|256:256,1,55
424,224,53359,1,0,0:0:0:0:
456,120,53466,1,0,0:0:0:0:
456,56,53573,1,0,0:0:0:0:
456,120,53788,2,0,L|456:56,1,55
320,256,54216,1,0,0:0:0:0:
160,160,54324,2,0,L|192:128,1,27.5
256,32,54645,6,0,L|320:64,1,55
416,64,55073,1,0,0:0:0:0:
416,64,55180,1,0,0:0:0:0:
416,64,55287,1,0,0:0:0:0:
496,200,55502,2,0,L|464:264,1,55
352,200,55930,1,0,0:0:0:0:
208,104,56038,2,0,L|216:136,1,27.5
320,352,56359,2,0,L|272:304,1,55
128,256,56788,6,0,L|128:224,1,27.5
8,336,57002,1,0,0:0:0:0:
32,96,57217,2,0,L|64:32,1,55
192,192,57645,1,0,0:0:0:0:
224,224,57752,1,0,0:0:0:0:
192,224,57859,1,0,0:0:0:0:
352,160,58074,2,0,L|288:128,1,55
448,64,58502,5,0,0:0:0:0:
448,64,58609,1,0,0:0:0:0:
512,160,58716,1,0,0:0:0:0:
408,352,58931,2,0,L|376:288,1,55
424,200,59359,2,0,L|392:168,1,27.5
256,96,59573,1,0,0:0:0:0:
280,272,59788,2,0,L|216:304,1,55
72,184,60216,5,0,0:0:0:0:
72,184,60323,1,0,0:0:0:0:
32,352,60430,1,0,0:0:0:0:
32,352,60645,2,0,L|64:288,1,55
216,336,61073,1,0,0:0:0:0:
248,344,61180,1,0,0:0:0:0:
184,328,61287,1,0,0:0:0:0:
256,192,61502,2,0,L|320:160,1,55
352,24,61930,5,0,0:0:0:0:
352,96,62037,1,0,0:0:0:0:
352,168,62144,1,0,0:0:0:0:
320,288,62359,1,0,0:0:0:0:
160,192,62573,1,0,0:0:0:0:
320,288,62788,1,0,0:0:0:0:
256,192,63002,2,0,L|256:128,1,55
256,288,63430,5,0,0:0:0:0:
160,168,63645,1,0,0:0:0:0:
160,96,63752,1,0,0:0:0:0:
160,24,63859,1,0,0:0:0:0:
192,288,64074,1,0,0:0:0:0:
352,192,64288,1,0,0:0:0:0:
192,288,64503,1,0,0:0:0:0:
256,192,64716,2,0,L|256:256,1,55
192,352,65145,5,0,0:0:0:0:
80,304,65359,1,0,0:0:0:0:
136,248,65466,1,0,0:0:0:0:
56,232,65573,1,0,0:0:0:0:
64,160,65788,5,0,0:0:0:0:
160,64,66002,1,0,0:0:0:0:
272,144,66216,1,0,0:0:0:0:
176,192,66323,1,0,0:0:0:0:
256,240,66430,1,0,0:0:0:0:
224,352,66645,5,0,0:0:0:0:
440,272,66859,1,0,0:0:0:0:
328,240,67073,1,0,0:0:0:0:
416,144,67180,1,0,0:0:0:0:
440,272,67287,1,0,0:0:0:0:
288,96,67502,1,0,0:0:0:0:
224,64,67716,1,0,0:0:0:0:
288,96,67930,6,0,L|224:64,1,55
288,256,68359,1,0,0:0:0:0:
97,223,68573,1,0,0:0:0:0:
192,96,68788,1,0,0:0:0:0:
288,80,68895,1,0,0:0:0:0:
256,160,69002,1,0,0:0:0:0:
288,80,69216,1,0,0:0:0:0:
160,320,69645,5,0,0:0:0:0:
288,256,69752,1,0,0:0:0:0:
160,288,69859,1,0,0:0:0:0:
320,224,70073,1,0,0:0:0:0:
416,96,70288,1,0,0:0:0:0:
288,64,70502,1,0,0:0:0:0:
288,64,70609,1,0,0:0:0:0:
416,160,70716,1,0,0:0:0:0:
416,160,70930,1,0,0:0:0:0:
320,128,71359,6,0,P|288:224|224:224,1,165
224,224,72216,1,0,0:0:0:0:
312,128,72323,1,0,0:0:0:0:
224,128,72430,1,0,0:0:0:0:
320,224,72645,2,0,L|256:224,1,55
256,192,73288,12,0,74573,0:0:0:0:
256,192,75002,5,0,0:0:0:0:
