osu file format v14

[General]
AudioFilename: TetrisTheme2.mp3
AudioLeadIn: 0
PreviewTime: 4
Countdown: 1
SampleSet: Normal
StackLeniency: 0.7
Mode: 0
LetterboxInBreaks: 0
WidescreenStoryboard: 0

[Editor]
DistanceSpacing: 0.8
BeatDivisor: 2
GridSize: 16
TimelineZoom: 1

[Metadata]
Title:Theme 2
TitleUnicode:Theme 2
Artist:Tetris
ArtistUnicode:Tetris
Creator:sorata143
Version:Easy
Source:Tetris Java Game
Tags:tetris midi game level2 synthesia blackmidi
BeatmapID:1173080
BeatmapSetID:554070

[Difficulty]
HPDrainRate:3
CircleSize:3.4
OverallDifficulty:3
ApproachRate:3
SliderMultiplier:1.1
SliderTickRate:2

[Events]
//Background and Video events
0,0,"TetrisTheme2.jpg",0,0
//Break Periods
//Storyboard Layer 0 (Background)
//Storyboard Layer 1 (Fail)
//Storyboard Layer 2 (Pass)
//Storyboard Layer 3 (Foreground)
//Storyboard Sound Samples

[TimingPoints]
2.5714285714284,428.571428571429,4,1,0,10,1,0
3,-100,4,1,0,10,0,1

[HitObjects]
128,64,73,5,0,0:0:0:0:
256,64,431,1,0,0:0:0:0:
384,64,859,1,0,0:0:0:0:
384,320,1716,1,0,0:0:0:0:
256,320,2145,1,0,0:0:0:0:
128,320,2574,1,0,0:0:0:0:
128,224,3395,5,0,0:0:0:0:
384,224,4288,1,0,0:0:0:0:
384,160,5145,1,0,0:0:0:0:
128,160,6002,1,0,0:0:0:0:
192,224,6859,1,0,0:0:0:0:
320,224,7681,1,0,0:0:0:0:
256,160,8574,1,0,0:0:0:0:
256,96,9431,5,0,0:0:0:0:
256,192,9859,1,0,0:0:0:0:
256,288,10288,1,0,0:0:0:0:
160,192,11181,1,0,0:0:0:0:
256,192,11574,1,0,0:0:0:0:
352,192,12002,1,0,0:0:0:0:
256,320,12859,1,0,0:0:0:0:
256,192,13716,1,0,0:0:0:0:
256,64,15002,2,0,L|256:128,2,55
256,192,16716,5,0,0:0:0:0:
128,192,17145,1,0,0:0:0:0:
256,192,17574,1,0,0:0:0:0:
384,192,18002,1,0,0:0:0:0:
256,192,18431,1,0,0:0:0:0:
256,64,18859,1,0,0:0:0:0:
256,192,20145,5,0,0:0:0:0:
384,192,20574,1,0,0:0:0:0:
256,192,21002,1,0,0:0:0:0:
128,192,21431,1,0,0:0:0:0:
256,192,21859,1,0,0:0:0:0:
256,320,22288,1,0,0:0:0:0:
96,64,24002,5,0,0:0:0:0:
144,96,24431,1,0,0:0:0:0:
192,128,24859,1,0,0:0:0:0:
320,256,25716,1,0,0:0:0:0:
368,288,26145,1,0,0:0:0:0:
416,320,26574,1,0,0:0:0:0:
416,64,27431,5,0,0:0:0:0:
368,96,27859,1,0,0:0:0:0:
320,128,28288,1,0,0:0:0:0:
192,256,29145,1,0,0:0:0:0:
144,288,29574,1,0,0:0:0:0:
96,320,30002,1,0,0:0:0:0:
256,320,30859,6,0,B|320:320|320:256|416:352|256:192,1,220
256,64,32574,2,0,B|192:64|192:128|96:32|256:192,1,220
256,192,34288,12,0,36859,0:0:0:0:
384,320,37716,5,0,0:0:0:0:
256,320,38145,1,0,0:0:0:0:
128,320,38574,1,0,0:0:0:0:
128,64,39431,1,0,0:0:0:0:
256,64,39859,1,0,0:0:0:0:
384,64,40288,1,0,0:0:0:0:
384,160,41145,5,0,0:0:0:0:
128,160,42002,1,0,0:0:0:0:
128,224,42859,1,0,0:0:0:0:
384,224,43716,1,0,0:0:0:0:
320,160,44574,1,0,0:0:0:0:
192,160,45431,1,0,0:0:0:0:
256,224,46288,1,0,0:0:0:0:
256,288,47145,5,0,0:0:0:0:
256,192,47574,1,0,0:0:0:0:
256,96,48002,1,0,0:0:0:0:
352,192,48859,1,0,0:0:0:0:
256,192,49288,1,0,0:0:0:0:
160,192,49716,1,0,0:0:0:0:
256,64,50574,1,0,0:0:0:0:
256,192,51431,1,0,0:0:0:0:
256,320,52716,2,0,L|256:256,2,55
256,192,54431,5,0,0:0:0:0:
384,192,54859,1,0,0:0:0:0:
256,192,55288,1,0,0:0:0:0:
128,192,55716,1,0,0:0:0:0:
256,192,56145,1,0,0:0:0:0:
256,320,56574,1,0,0:0:0:0:
256,192,57859,5,0,0:0:0:0:
128,192,58288,1,0,0:0:0:0:
256,192,58716,1,0,0:0:0:0:
384,192,59145,1,0,0:0:0:0:
256,192,59574,1,0,0:0:0:0:
256,64,60002,1,0,0:0:0:0:
416,320,61716,5,0,0:0:0:0:
368,288,62145,1,0,0:0:0:0:
320,256,62574,1,0,0:0:0:0:
192,128,63431,1,0,0:0:0:0:
144,96,63859,1,0,0:0:0:0:
96,64,64288,1,0,0:0:0:0:
96,320,65145,5,0,0:0:0:0:
144,288,65574,1,0,0:0:0:0:
192,256,66002,1,0,0:0:0:0:
320,128,66859,1,0,0:0:0:0:
368,96,67288,1,0,0:0:0:0:
416,64,67716,1,0,0:0:0:0:
256,64,68574,6,0,B|320:64|320:128|416:32|256:192,1,220
256,320,70289,2,0,B|192:320|192:256|96:352|256:192,1,220
256,192,72002,12,0,75002,0:0:0:0:
