osu file format v14

[General]
AudioFilename: audio.mp3
AudioLeadIn: 0
PreviewTime: 54833
Countdown: 0
SampleSet: Soft
StackLeniency: 0.7
Mode: 0
LetterboxInBreaks: 0
WidescreenStoryboard: 0

[Editor]
DistanceSpacing: 2.5
BeatDivisor: 8
GridSize: 4
TimelineZoom: 4.200001

[Metadata]
Title:Kyoukaisen
TitleUnicode:境界線
Artist:Tetrarkhia
ArtistUnicode:Tetrarkhia
Creator:_kotachi_
Version:Horizon
Source:Re:ステージ!プリズムステップ
Tags:テトラルキア Re:Stage!
BeatmapID:2183210
BeatmapSetID:1044337

[Difficulty]
HPDrainRate:5
CircleSize:3.8
OverallDifficulty:9.2
ApproachRate:9.7
SliderMultiplier:1.82
SliderTickRate:1

[Events]
//Background and Video events
0,0,"BG.jpg",0,0
//Break Periods
//Storyboard Layer 0 (Background)
//Storyboard Layer 1 (Fail)
//Storyboard Layer 2 (Pass)
//Storyboard Layer 3 (Foreground)
//Storyboard Layer 4 (Overlay)
//Storyboard Sound Samples

[TimingPoints]
507,256.410256410256,4,2,2,40,1,0
507,-133.333333333333,4,2,2,40,0,0
3327,-83.3333333333333,4,2,2,70,0,0
4481,-90.9090909090909,4,2,1,70,0,0
8712,-90.9090909090909,4,2,2,70,0,0
8968,-90.9090909090909,4,2,1,70,0,0
11660,-90.9090909090909,4,2,2,70,0,0
11917,-90.9090909090909,4,2,1,70,0,0
16917,-90.9090909090909,4,2,2,70,0,0
18968,-90.9090909090909,4,2,1,70,0,0
21019,-100,4,2,1,60,0,0
28968,-117.647058823529,4,2,1,60,0,0
29224,-100,4,2,1,60,0,0
36276,-100,4,2,2,70,0,0
36532,-100,4,2,1,70,0,0
37430,-100,4,2,1,60,0,0
44481,-100,4,2,2,70,0,0
44737,-100,4,2,1,70,0,0
45635,-133.333333333333,4,2,1,60,0,0
49737,-100,4,2,1,60,0,0
52686,-100,4,2,2,60,0,0
52942,-100,4,2,1,60,0,0
53840,-100,4,2,1,70,0,0
54481,-100,4,2,10,70,0,0
54609,-100,4,2,1,70,0,0
55378,-200,4,2,1,70,0,0
55891,-86.9565217391303,4,2,1,75,0,1
85506,-86.9565217391303,4,2,2,75,0,1
85763,-86.9565217391303,4,2,1,75,0,1
89609,-86.9565217391303,4,2,2,75,0,1
90763,-90.9090909090909,4,2,1,60,0,0

[Colours]
Combo1 : 255,0,128
Combo2 : 255,128,64
Combo3 : 255,0,0
Combo4 : 255,255,0

[HitObjects]
120,108,507,6,0,L|110:40,2,68.250002603531,12|0|0,0:1|0:0|0:0,0:0:0:0:
97,202,891,2,0,P|163:188|231:178,1,136.500005207062,2|0,0:0|0:0,0:0:0:0:
289,254,1276,2,0,L|358:256,1,68.250002603531,0|2,0:0|0:0,0:0:0:0:
445,317,1532,6,0,P|496:282|486:211,1,136.500005207062,2|0,0:0|0:0,0:0:0:0:
411,154,1917,1,0,0:0:0:0:
289,254,2045,6,0,B|241:247|241:247|211:264|211:264|153:255,1,136.500005207062,4|2,0:0|0:0,0:0:0:0:
313,340,2430,1,0,0:0:0:0:
276,162,2558,6,0,L|263:92,1,68.250002603531,12|0,0:1|0:0,0:0:0:0:
185,42,2814,1,2,0:0:0:0:
346,78,2942,2,0,B|424:91|397:36|482:55,1,136.500005207062,2|0,0:0|0:0,0:0:0:0:
336,57,3327,5,8,1:2:0:0:
420,287,3455,6,0,B|482:321|482:321|450:173,1,218.399993334961,14|8,0:1|1:2,0:0:0:0:
142,113,3840,5,8,1:2:0:0:
355,196,3968,1,8,0:1:0:0:
135,315,4096,6,0,L|178:296,1,36.3999988891602,8|0,1:2|1:0,0:0:0:0:
450,176,4224,1,12,0:1:0:0:
460,166,4481,6,0,P|365:146|256:127,1,200.200006109619,12|10,0:1|0:1,0:0:0:0:
70,69,4865,2,0,B|48:116|48:116|69:160,1,100.10000305481,10|0,0:0|0:0,0:0:0:0:
256,280,5122,1,10,0:1:0:0:
324,52,5250,1,10,0:1:0:0:
146,191,5378,1,8,0:0:0:0:
355,343,5506,6,0,B|388:290|388:290|354:153,1,200.200006109619,10|8,0:1|0:1,0:0:0:0:
192,45,5891,1,10,0:0:0:0:
342,140,6019,1,2,0:0:0:0:
146,191,6148,1,10,0:1:0:0:
417,72,6276,2,0,P|443:122|437:172,1,100.10000305481,10|8,0:1|0:0,0:0:0:0:
232,302,6532,6,0,B|126:336|153:239|38:281,1,200.200006109619,10|8,0:1|0:1,0:0:0:0:
237,122,6917,2,0,B|254:168|254:168|239:216,1,100.10000305481,8|2,0:0|0:0,0:0:0:0:
104,40,7173,1,10,0:1:0:0:
296,59,7301,2,0,P|362:47|403:34,1,100.10000305481,10|8,0:1|0:0,0:0:0:0:
480,247,7558,6,0,P|446:155|351:140,1,200.200006109619,10|8,0:1|0:1,0:0:0:0:
178,332,7942,1,8,0:0:0:0:
387,230,8071,1,2,0:0:0:0:
225,178,8199,1,8,0:1:0:0:
368,355,8327,1,8,0:1:0:0:
161,323,8455,2,0,B|122:332|122:332|110:345|110:345|59:355,1,100.10000305481,8|0,0:0|0:0,0:0:0:0:
44,109,8712,6,0,B|97:75|97:75|73:214,1,200.200006109619,14|8,0:1|0:0,0:0:0:0:
59,2,9096,1,2,0:0:0:0:
293,110,9224,1,10,0:1:0:0:
213,7,9353,2,0,B|186:-1|186:-1|199:69,1,100.10000305481,8|8,0:1|0:0,0:0:0:0:
251,317,9609,6,0,B|326:326|326:326|366:291|366:291|454:299,1,200.200006109619,10|8,0:1|0:1,0:0:0:0:
293,233,9994,2,0,B|280:198|280:198|305:126,1,100.10000305481,8|2,0:0|0:0,0:0:0:0:
446,17,10250,1,8,0:1:0:0:
374,192,10378,1,8,0:1:0:0:
199,69,10506,2,0,P|150:79|102:95,1,100.10000305481,8|2,0:0|0:0,0:0:0:0:
69,280,10763,6,0,P|170:256|165:163,1,200.200006109619,10|8,0:1|0:0,0:0:0:0:
102,95,11148,1,2,0:0:0:0:
292,233,11276,1,8,0:1:0:0:
232,45,11404,1,10,0:1:0:0:
105,211,11532,1,8,0:0:0:0:
322,111,11660,6,0,B|396:102|396:102|440:131|440:131|512:121,1,200.200006109619,14|10,0:1|0:1,0:0:0:0:
284,212,12045,1,8,0:0:0:0:
426,7,12173,1,8,0:1:0:0:
398,341,12301,5,10,0:0:0:0:
167,102,12430,1,8,0:1:0:0:
512,121,12558,1,8,0:0:0:0:
237,324,12686,6,0,P|165:297|191:161,1,200.200006109619,12|10,0:1|0:1,0:0:0:0:
345,31,13071,1,10,0:0:0:0:
228,238,13199,1,2,0:0:0:0:
219,9,13327,1,10,0:1:0:0:
419,179,13455,2,0,B|461:187|461:187|471:198|471:198|516:207,1,100.10000305481,10|8,0:1|0:0,0:0:0:0:
181,97,13712,6,0,B|117:107|117:107|79:154|79:154|0:172,1,200.200006109619,10|8,0:1|0:1,0:0:0:0:
143,357,14096,2,0,B|162:319|162:319|142:245,1,100.10000305481,8|2,0:0|0:0,0:0:0:0:
25,79,14353,1,10,0:1:0:0:
279,147,14481,1,10,0:1:0:0:
25,79,14609,1,8,0:0:0:0:
219,9,14737,6,0,B|163:62|163:62|194:180,1,200.200006109619,10|8,0:1|0:1,0:0:0:0:
431,290,15122,2,0,P|425:239|392:196,1,100.10000305481,8|2,0:0|0:0,0:0:0:0:
194,180,15378,1,10,0:1:0:0:
347,356,15506,1,8,0:1:0:0:
303,119,15635,1,8,0:0:0:0:
120,332,15763,6,0,P|110:251|227:182,1,200.200006109619,10|8,0:1|0:1,0:0:0:0:
397,200,16148,1,8,0:0:0:0:
205,280,16276,1,8,0:1:0:0:
461,102,16404,5,8,0:3:0:0:
347,356,16532,1,0,1:0:0:0:
347,356,16596,1,0,1:0:0:0:
347,356,16660,1,8,0:0:0:0:
277,122,16789,1,8,0:0:0:0:
510,274,16917,6,0,B|470:279|470:279|458:292|458:292|414:298,1,100.10000305481,14|2,0:1|0:0,0:0:0:0:
212,371,17173,1,8,0:0:0:0:
348,149,17301,6,0,P|339:74|225:65,1,200.200006109619,12|8,0:1|0:1,0:0:0:0:
412,212,17686,1,8,0:0:0:0:
109,220,17814,6,0,B|189:235|189:235|213:276|213:276|299:294,1,200.200006109619,12|8,0:1|0:1,0:0:0:0:
134,338,18199,1,8,0:0:0:0:
277,122,18327,6,0,P|328:83|427:97,1,150.150004582214,12|0,0:1|0:0,0:0:0:0:
425,98,18583,1,10,0:1:0:0:
512,304,18712,2,0,B|472:296|472:296|456:305|456:305|413:297,1,100.10000305481,8|0,0:0|0:0,0:0:0:0:
76,99,18968,5,12,0:1:0:0:
212,328,19096,1,0,0:0:0:0:
233,44,19224,5,8,0:0:0:0:
64,292,19353,1,10,0:1:0:0:
129,5,19481,5,10,0:0:0:0:
396,211,19609,2,0,P|443:191|493:171,1,100.10000305481,10|0,0:1|0:0,0:0:0:0:
137,27,19865,6,0,P|174:145|202:245,1,200.200006109619,12|10,0:1|0:1,0:0:0:0:
446,361,20250,2,0,P|456:311|471:246,1,100.10000305481,8|0,0:0|0:0,0:0:0:0:
503,97,20506,5,8,0:3:0:0:
288,266,20635,1,0,1:0:0:0:
288,266,20699,1,0,1:0:0:0:
288,266,20763,1,8,0:0:0:0:
284,15,20891,1,8,0:0:0:0:
194,218,21019,6,0,B|130:230|130:230|93:202|93:202|19:216,1,182,14|8,0:1|0:0,0:0:0:0:
157,52,21404,2,0,P|155:106|157:156,1,91,2|8,0:0|0:1,0:0:0:0:
288,266,21660,2,0,P|289:220|287:175,1,91,10|8,0:1|0:0,0:0:0:0:
284,15,21917,6,0,P|326:-6|468:33,1,182,10|8,0:1|0:1,0:0:0:0:
510,168,22301,2,0,L|420:185,1,91,10|0,0:0|0:0,0:0:0:0:
290,352,22558,2,0,B|274:311|274:311|289:260,1,91,10|8,0:1|0:1,0:0:0:0:
156,142,22814,2,0,B|172:183|172:183|157:234,1,91,10|0,0:0|0:0,0:0:0:0:
66,77,23071,6,0,B|188:50|188:50|233:94,1,182,10|8,0:1|0:0,0:0:0:0:
84,187,23455,1,2,0:0:0:0:
272,252,23583,2,0,P|318:240|365:234,1,91,8|8,0:1|0:1,0:0:0:0:
156,142,23840,1,8,0:0:0:0:
116,330,23968,6,0,B|174:348|174:348|158:227,1,182,10|8,0:1|0:1,0:0:0:0:
93,88,24353,2,0,P|134:63|179:62,1,91,8|0,0:0|0:0,0:0:0:0:
376,144,24609,2,0,P|367:190|360:233,1,91,10|8,0:1|0:1,0:0:0:0:
258,16,24865,2,0,P|267:60|274:108,1,91,10|0,0:0|0:0,0:0:0:0:
271,339,25122,6,0,P|248:270|148:241,1,182,10|8,0:1|0:0,0:0:0:0:
77,304,25506,1,2,0:0:0:0:
156,142,25635,2,0,B|171:107|171:107|154:56,1,91,8|8,0:1|0:1,0:0:0:0:
0,25,25891,2,0,B|-15:60|-15:60|1:110,1,91,8|0,0:0|0:0,0:0:0:0:
150,240,26148,6,0,P|263:217|335:204,1,182,10|8,0:1|0:0,0:0:0:0:
431,56,26532,2,0,P|379:68|336:75,1,91,2|8,0:0|0:1,0:0:0:0:
154,56,26789,1,8,0:1:0:0:
338,184,26917,2,0,P|382:191|427:202,1,91,8|0,0:0|0:0,0:0:0:0:
194,350,27173,6,0,P|129:275|184:211,1,182,10|8,0:1|0:0,0:0:0:0:
365,278,27558,2,0,P|355:316|344:369,1,91,2|8,0:0|0:1,0:0:0:0:
234,154,27814,2,0,P|244:192|255:245,1,91,10|8,0:1|0:0,0:0:0:0:
382,41,28071,6,0,B|316:36|316:36|275:64|275:64|205:57,1,182,10|8,0:1|0:1,0:0:0:0:
4,145,28455,1,8,0:0:0:0:
198,49,28583,1,2,0:0:0:0:
14,43,28712,5,10,0:1:0:0:
195,194,28840,1,8,0:1:0:0:
104,4,28968,6,0,B|109:37|109:37|104:52|104:52|108:83,1,77.3500014753342,12|0,0:0|0:0,0:0:0:0:
48,275,29224,6,0,P|65:224|195:195,1,182,12|8,0:1|0:0,0:0:0:0:
341,303,29609,1,0,0:0:0:0:
305,123,29737,2,0,P|290:173|279:217,2,91,10|8|10,0:1|0:1|0:0,0:0:0:0:
455,50,30122,6,0,B|357:74|388:1|281:25,1,182,10|8,0:1|0:1,0:0:0:0:
295,206,30506,2,0,P|307:162|320:118,1,91,10|0,0:0|0:0,0:0:0:0:
84,188,30763,2,0,P|115:220|146:254,1,91,10|8,0:1|0:1,0:0:0:0:
200,3,31019,2,0,L|113:30,1,91,10|0,0:0|0:0,0:0:0:0:
37,251,31276,6,0,B|-13:276|-13:276|9:151,1,182,10|8,0:1|0:0,0:0:0:0:
280,210,31660,2,0,L|392:190,1,91,2|8,0:0|0:1,0:0:0:0:
190,270,31917,2,0,B|169:231|169:231|178:185,1,91,10|8,0:1|0:0,0:0:0:0:
325,77,32173,6,0,P|269:90|200:-3,1,182,10|8,0:1|0:1,0:0:0:0:
394,23,32558,2,0,B|419:51|419:51|411:106,1,91,8|0,0:0|0:0,0:0:0:0:
342,320,32814,1,10,0:1:0:0:
286,181,32942,1,8,0:1:0:0:
417,263,33071,2,0,P|481:250|511:245,1,91,8|0,0:0|0:0,0:0:0:0:
225,352,33327,6,0,P|162:292|189:209,1,182,12|8,0:1|0:0,0:0:0:0:
319,89,33712,2,0,L|228:81,1,91,2|8,0:0|0:1,0:0:0:0:
413,181,33968,1,8,0:1:0:0:
430,76,34096,2,0,L|411:165,1,91,8|0,0:0|0:0,0:0:0:0:
479,326,34353,6,0,B|411:312|411:312|374:333|374:333|305:319,1,182,10|8,0:1|0:0,0:0:0:0:
121,357,34737,2,0,P|54:279|126:232,1,182,10|8,0:1|0:1,0:0:0:0:
228,81,35122,2,0,P|211:147|202:186,1,91,8|0,0:0|0:0,0:0:0:0:
0,36,35378,6,0,L|135:21,1,136.5,10|0,0:1|0:0,0:0:0:0:
135,21,35635,1,8,0:0:0:0:
315,172,35763,2,0,B|358:180|358:180|403:154,1,91,2|8,0:0|0:1,0:0:0:0:
238,0,36019,2,0,P|245:55|248:104,1,91,10|8,0:1|0:0,0:0:0:0:
284,342,36276,6,0,P|294:228|303:161,1,182,14|8,0:1|0:1,0:0:0:0:
412,72,36660,1,8,0:0:0:0:
204,183,36789,1,8,0:1:0:0:
407,256,36917,5,8,0:0:0:0:
247,90,37045,1,8,0:3:0:0:
247,90,37109,1,8,0:3:0:0:
247,90,37173,1,8,0:1:0:0:
197,324,37301,1,8,0:1:0:0:
330,55,37430,6,0,L|135:46,1,182,14|8,0:1|0:0,0:0:0:0:
42,111,37814,1,0,0:0:0:0:
61,10,37942,2,0,L|51:109,2,91,10|8|8,0:1|0:1|0:0,0:0:0:0:
110,355,38455,6,0,P|151:319|65:276,1,182,10|8,0:1|0:0,0:0:0:0:
239,336,38840,2,0,P|295:323|337:315,1,91,2|8,0:0|0:1,0:0:0:0:
431,322,39096,1,8,0:1:0:0:
390,227,39224,2,0,P|377:186|371:126,1,91,10|0,0:0|0:0,0:0:0:0:
459,55,39481,6,0,L|261:28,2,182,10|10|10,0:1|0:0|0:1,0:0:0:0:
461,149,40122,2,0,L|363:137,1,91,8|8,0:1|0:0,0:0:0:0:
203,236,40378,6,0,P|130:192|157:112,1,182,10|8,0:1|0:1,0:0:0:0:
278,197,40763,2,0,P|288:235|275:286,1,91,8|0,0:0|0:0,0:0:0:0:
186,328,41019,1,10,0:1:0:0:
284,177,41148,1,8,0:1:0:0:
391,357,41276,1,8,0:0:0:0:
391,357,41532,6,0,B|371:300|371:300|398:244|398:244|377:188,1,182,10|8,0:1|0:0,0:0:0:0:
289,90,41917,1,0,0:0:0:0:
289,90,42045,2,0,B|268:145|268:145|295:201|295:201|275:258,1,182,10|8,0:1|0:0,0:0:0:0:
197,334,42430,5,0,0:1:0:0:
197,334,42558,2,0,P|146:287|45:317,1,182,10|8,0:1|0:0,0:0:0:0:
180,202,42942,2,0,P|110:204|60:297,1,182,10|8,0:1|0:1,0:0:0:0:
71,50,43327,2,0,L|85:198,1,136.5,8|0,0:0|0:0,0:0:0:0:
84,186,43583,6,0,P|181:171|277:161,2,182,10|8|10,0:1|0:0|0:1,0:0:0:0:
165,287,44224,2,0,P|161:332|159:377,1,91,8|8,0:1|0:0,0:0:0:0:
356,271,44481,6,0,B|296:258|296:258|250:283|250:283|183:267,1,182,14|8,0:1|0:1,0:0:0:0:
313,349,44865,1,8,0:0:0:0:
224,136,44994,5,0,1:0:0:0:
224,136,45058,1,0,1:0:0:0:
224,136,45122,1,8,0:0:0:0:
464,246,45250,1,8,0:3:0:0:
271,236,45378,5,8,0:3:0:0:
403,139,45506,1,4,0:3:0:0:
207,110,45635,6,0,L|51:134,1,136.500005207062,14|2,0:1|0:0,0:0:0:0:
118,31,46019,1,8,0:1:0:0:
140,207,46148,2,0,P|119:288|104:354,1,136.500005207062,10|10,0:0|0:1,0:0:0:0:
39,263,46532,1,0,0:0:0:0:
224,327,46660,5,10,0:1:0:0:
224,327,46789,2,0,B|277:318|277:318|309:327|309:327|370:314,1,136.500005207062,8|8,0:0|0:1,0:0:0:0:
397,185,47173,2,0,P|347:189|318:230,1,102.375003905296,8|0,0:0|0:0,0:0:0:0:
316,245,47430,2,0,L|300:170,1,68.250002603531,10|8,0:1|0:0,0:0:0:0:
210,114,47686,6,0,P|260:70|327:72,1,136.500005207062,10|2,0:1|0:0,0:0:0:0:
301,178,48071,1,0,0:0:0:0:
301,178,48199,2,0,L|316:245,2,68.250002603531,10|0|10,0:0|0:0|0:0,0:0:0:0:
237,346,48583,6,0,P|295:327|319:323,1,68.250002603531,10|0,0:1|0:0,0:0:0:0:
416,338,48840,5,8,0:0:0:0:
288,165,48968,1,0,1:0:0:0:
237,346,49096,5,8,0:1:0:0:
477,177,49224,1,12,0:0:0:0:
139,78,49481,5,8,1:2:0:0:
477,177,49737,6,0,B|416:168|416:168|376:189|376:189|287:176,1,182,12|8,0:1|0:0,0:0:0:0:
225,116,50122,1,0,0:0:0:0:
119,248,50250,2,0,P|67:219|82:144,1,136.5,10|0,0:1|0:0,0:0:0:0:
88,143,50506,1,8,0:0:0:0:
235,253,50635,6,0,P|223:323|219:355,1,91,10|0,0:1|0:0,0:0:0:0:
167,181,50891,1,8,0:1:0:0:
338,286,51019,2,0,P|394:277|434:274,1,91,10|0,0:0|0:0,0:0:0:0:
167,181,51276,2,0,P|111:172|71:169,1,91,10|8,0:1|0:1,0:0:0:0:
338,48,51532,2,0,P|323:94|311:137,1,91,10|0,0:0|0:0,0:0:0:0:
210,353,51789,6,0,P|191:213|180:158,1,182,12|8,0:1|0:0,0:0:0:0:
338,48,52173,2,0,L|428:56,1,91,2|8,0:0|0:1,0:0:0:0:
167,181,52430,2,0,L|76:172,1,91,10|8,0:1|0:0,0:0:0:0:
325,36,52686,6,0,P|335:113|347:230,1,182,14|8,0:1|0:1,0:0:0:0:
210,353,53071,2,0,P|168:345|119:339,1,91,8|0,0:0|0:0,0:0:0:0:
246,137,53327,1,8,0:1:0:0:
310,338,53455,1,8,0:1:0:0:
167,181,53583,2,0,B|153:134|153:134|170:89,1,91,8|2,0:0|0:0,0:0:0:0:
318,20,53840,5,12,0:0:0:0:
275,241,53968,1,8,0:1:0:0:
230,23,54096,5,8,0:0:0:0:
293,331,54224,1,8,0:1:0:0:
58,206,54353,5,8,0:0:0:0:
338,128,54481,1,12,0:1:0:0:
56,194,54609,5,8,0:0:0:0:
384,295,54737,1,8,0:1:0:0:
124,287,54865,5,12,0:1:0:0:
306,37,54993,1,8,0:0:0:0:
306,346,55122,1,8,0:0:0:0:
124,96,55249,1,8,0:0:0:0:
417,192,55378,6,0,L|318:206,1,91,8|0,1:2|0:0,0:0:0:0:
422,180,55891,6,0,B|348:167|348:167|306:202|306:202|210:190,1,209.300003992081,12|8,0:1|0:0,0:0:0:0:
135,85,56276,1,0,0:0:0:0:
84,306,56404,2,0,P|3:283|21:166,1,209.300003992081,10|8,0:1|0:0,0:0:0:0:
205,291,56789,1,0,0:0:0:0:
282,114,56917,6,0,B|295:61|295:61|265:6,1,104.65000199604,10|0,0:1|0:0,0:0:0:0:
123,250,57173,2,0,B|110:303|110:303|140:358,1,104.65000199604,10|0,0:0|0:0,0:0:0:0:
371,197,57430,1,10,0:1:0:0:
135,232,57558,1,8,0:1:0:0:
321,361,57686,1,8,0:0:0:0:
147,216,57814,1,0,0:0:0:0:
437,134,57942,6,0,B|452:130|474:110|474:110|448:273,1,209.300003992081,10|8,0:1|0:0,0:0:0:0:
175,110,58327,2,0,P|196:64|242:39,1,104.65000199604,2|8,0:0|0:1,0:0:0:0:
205,291,58583,1,8,0:1:0:0:
0,181,58712,2,0,B|64:190|64:190|84:210|84:210|148:216,1,156.975002994061,10|0,0:0|0:0,0:0:0:0:
168,221,58968,5,0,0:0:0:0:
138,1,59096,1,8,0:1:0:0:
368,76,59224,2,0,B|390:109|390:109|372:171,1,104.65000199604,10|0,0:0|0:0,0:0:0:0:
163,311,59481,2,0,P|112:317|59:326,1,104.65000199604,10|8,0:1|0:1,0:0:0:0:
360,328,59737,2,0,P|416:334|464:341,1,104.65000199604,10|0,0:0|0:0,0:0:0:0:
258,94,59994,6,0,P|179:112|174:227,1,209.300003992081,10|8,0:1|0:0,0:0:0:0:
366,163,60378,1,0,0:0:0:0:
297,7,60506,2,0,B|254:2|254:2|233:14|233:14|171:10,1,104.65000199604,10|8,0:1|0:1,0:0:0:0:
269,247,60763,1,8,0:0:0:0:
441,62,60891,1,0,0:0:0:0:
428,275,61019,6,0,P|400:319|356:345,1,104.65000199604,10|0,0:1|0:0,0:0:0:0:
104,298,61276,2,0,P|79:252|78:200,1,104.65000199604,8|0,0:0|0:0,0:0:0:0:
249,2,61532,2,0,P|300:3|345:28,1,104.65000199604,10|8,0:1|0:1,0:0:0:0:
104,298,61789,6,0,L|-17:285,1,104.65000199604,12|0,0:0|0:0,0:0:0:0:
259,194,62045,5,10,0:1:0:0:
259,194,62173,1,0,0:0:0:0:
345,28,62301,2,0,P|299:2|248:1,1,104.65000199604,10|0,0:0|0:0,0:0:0:0:
78,200,62557,2,0,P|79:252|104:298,1,104.65000199604,8|8,0:1|0:1,0:0:0:0:
356,345,62814,1,8,0:0:0:0:
356,345,62942,2,0,P|400:319|422:165,1,209.300003992081,10|8,0:1|0:1,0:0:0:0:
214,101,63327,5,8,0:0:0:0:
352,243,63455,1,0,0:0:0:0:
323,62,63583,5,8,0:1:0:0:
197,312,63712,1,0,1:0:0:0:
197,312,63776,1,0,1:0:0:0:
197,312,63840,1,8,0:0:0:0:
98,39,63968,1,8,0:0:0:0:
379,160,64096,6,0,B|261:127|296:226|174:183,1,209.300003992081,12|8,0:1|0:0,0:0:0:0:
22,68,64481,1,0,0:0:0:0:
92,217,64609,2,0,P|78:273|66:337,1,104.65000199604,10|8,0:1|0:1,0:0:0:0:
9,158,64865,1,8,0:0:0:0:
197,312,64994,6,0,B|274:296|274:296|324:320|324:320|401:304,1,209.300003992081,10|8,0:1|0:1,0:0:0:0:
458,103,65378,2,0,P|403:123|374:186,1,104.65000199604,8|0,0:0|0:0,0:0:0:0:
469,363,65635,2,0,P|477:305|485:253,1,104.65000199604,10|8,0:1|0:1,0:0:0:0:
274,88,65891,2,0,P|281:139|288:191,1,104.65000199604,10|0,0:0|0:1,0:0:0:0:
176,336,66148,6,0,P|103:319|123:190,1,209.300003992081,10|8,0:1|0:0,0:0:0:0:
274,89,66532,2,0,P|226:81|164:77,1,104.65000199604,2|8,0:0|0:1,0:0:0:0:
233,252,66789,1,8,0:1:0:0:
382,126,66917,2,0,P|377:73|371:16,1,104.65000199604,10|0,0:0|0:0,0:0:0:0:
441,238,67173,6,0,P|291:243|216:253,2,209.300003992081,8|8|8,0:1|0:0|0:1,0:0:0:0:
270,153,67814,1,8,0:1:0:0:
185,333,67942,2,0,B|143:293|143:293|164:196,1,156.975002994061,8|0,0:0|0:0,0:0:0:0:
270,153,68199,6,0,P|227:158|167:171,1,104.65000199604,12|0,0:1|0:0,0:0:0:0:
380,49,68455,2,0,P|423:54|482:67,1,104.65000199604,10|0,0:0|0:0,0:0:0:0:
306,277,68712,1,10,0:1:0:0:
254,36,68840,1,8,0:1:0:0:
473,162,68968,1,8,0:0:0:0:
249,171,69096,6,0,B|196:172|154:134|154:134|151:195|101:226,1,209.300003992081,10|8,0:1|0:1,0:0:0:0:
54,43,69481,2,0,P|38:91|56:139,1,104.65000199604,10|0,0:0|0:0,0:0:0:0:
322,216,69737,2,0,P|338:167|320:119,1,104.65000199604,10|8,0:1|0:1,0:0:0:0:
96,335,69994,2,0,P|168:344|204:351,1,104.65000199604,8|0,0:0|0:0,0:0:0:0:
465,77,70250,6,0,B|428:28|359:40|359:40|354:98|309:125,1,209.300003992081,12|8,0:0|0:1,0:0:0:0:
54,43,70635,2,0,P|119:30|166:148,1,209.300003992081,12|8,0:0|0:1,0:0:0:0:
9,309,71019,2,0,B|14:267|14:267|3:250|3:250|8:207,1,104.65000199604,12|0,0:0|0:0,0:0:0:0:
101,106,71276,5,8,0:1:0:0:
193,319,71404,2,0,L|302:302,1,104.65000199604,8|0,0:0|0:0,0:0:0:0:
99,185,71660,1,8,0:1:0:0:
369,42,71789,6,0,L|360:93,1,52.3250009980202,8|0,0:0|1:0,0:0:0:0:
193,319,71917,2,0,L|184:267,1,52.3250009980202,8|0,0:0|1:0,0:0:0:0:
139,14,72045,5,8,0:0:0:0:
317,336,72173,1,8,0:0:0:0:
8,122,72301,6,0,B|42:97|42:97|206:126,1,209.300003992081,12|8,0:1|0:0,0:0:0:0:
439,161,72686,1,0,0:0:0:0:
184,267,72814,2,0,B|202:250|202:250|289:239,1,104.65000199604,10|8,0:1|0:1,0:0:0:0:
414,362,73071,2,0,B|335:351|335:351|316:335,1,104.65000199604,8|0,0:0|0:0,0:0:0:0:
454,57,73327,6,0,L|440:160,1,104.65000199604,10|0,0:1|0:0,0:0:0:0:
296,244,73583,2,0,L|282:140,1,104.65000199604,10|0,0:0|0:0,0:0:0:0:
264,35,73840,1,10,0:1:0:0:
397,255,73968,1,8,0:1:0:0:
384,0,74096,1,10,0:0:0:0:
401,273,74224,1,0,0:0:0:0:
166,150,74353,6,0,B|112:140|112:140|72:164|72:164|6:152,1,156.975002994061,10|0,0:1|0:0,0:0:0:0:
25,145,74609,1,8,0:0:0:0:
203,344,74737,2,0,P|289:326|270:193,1,209.300003992081,10|8,0:1|0:1,0:0:0:0:
156,45,75122,2,0,L|165:149,1,104.65000199604,10|0,0:0|0:0,0:0:0:0:
231,266,75378,5,0,0:0:0:0:
286,68,75506,1,8,0:1:0:0:
125,232,75635,2,0,P|75:215|13:201,1,104.65000199604,10|0,0:0|0:0,0:0:0:0:
305,328,75891,2,0,P|312:284|324:223,1,104.65000199604,10|8,0:1|0:1,0:0:0:0:
438,48,76148,2,0,P|448:99|457:150,1,104.65000199604,10|0,0:0|0:0,0:0:0:0:
403,339,76404,6,0,B|287:374|327:276|203:317,1,209.300003992081,10|8,0:1|0:0,0:0:0:0:
84,362,76789,1,0,0:0:0:0:
218,224,76917,2,0,P|225:173|235:120,1,104.65000199604,10|8,0:1|0:1,0:0:0:0:
178,33,77173,1,8,0:0:0:0:
317,185,77301,1,0,0:0:0:0:
132,265,77430,6,0,P|84:243|33:230,1,104.65000199604,10|0,0:1|0:0,0:0:0:0:
240,99,77686,2,0,P|192:120|141:133,1,104.65000199604,10|0,0:0|0:0,0:0:0:0:
332,369,77942,2,0,P|304:326|265:291,1,104.65000199604,10|8,0:1|0:1,0:0:0:0:
442,17,78199,6,0,B|450:108|450:108|472:151|472:151|458:194|458:194|472:339,1,313.950005988121,14|8,0:0|0:1,0:0:0:0:
100,230,78712,5,8,0:0:0:0:
387,163,78842,1,8,0:1:0:0:
200,337,78968,5,8,0:0:0:0:
286,56,79096,1,8,0:1:0:0:
343,304,79224,5,12,0:0:0:0:
143,89,79353,2,0,L|29:67,1,104.65000199604,10|0,0:1|0:0,0:0:0:0:
244,238,79609,5,8,0:1:0:0:
286,56,79737,2,0,L|410:46,1,104.65000199604,8|0,0:0|0:0,0:0:0:0:
181,172,79994,5,8,0:1:0:0:
467,287,80122,1,0,1:0:0:0:
467,287,80186,1,0,1:0:0:0:
467,287,80250,1,8,0:0:0:0:
295,30,80378,1,8,0:0:0:0:
226,327,80506,6,0,B|151:318|151:318|110:353|110:353|16:339,1,209.300003992081,12|8,0:1|0:0,0:0:0:0:
181,172,80891,1,0,0:0:0:0:
251,337,81019,2,0,P|313:327|361:328,1,104.65000199604,10|8,0:1|0:1,0:0:0:0:
112,237,81276,1,10,0:0:0:0:
297,40,81404,6,0,L|268:247,1,209.300003992081,10|8,0:1|0:1,0:0:0:0:
107,132,81789,2,0,P|108:187|112:237,1,104.65000199604,8|0,0:0|0:0,0:0:0:0:
213,29,82046,2,0,P|168:13|100:0,1,104.65000199604,10|8,0:1|0:1,0:0:0:0:
357,185,82302,2,0,P|306:207|252:224,1,104.65000199604,10|0,0:0|0:1,0:0:0:0:
468,23,82558,6,0,P|475:84|497:230,1,209.300003992081,10|8,0:1|0:0,0:0:0:0:
328,374,82942,2,0,P|253:334|281:203,1,209.300003992081,10|8,0:1|0:1,0:0:0:0:
386,82,83327,2,0,B|346:73|346:73|325:84|325:84|269:72,1,104.65000199604,8|0,0:0|0:0,0:0:0:0:
96,56,83583,6,0,B|45:21|45:21|63:190,1,209.300003992081,10|8,0:1|0:0,0:0:0:0:
60,167,83968,1,0,0:0:0:0:
295,58,84096,5,10,0:1:0:0:
169,291,84224,1,8,0:1:0:0:
109,30,84353,1,8,0:0:0:0:
316,289,84481,6,0,B|433:318|390:222|513:264,1,209.300003992081,12|8,0:1|0:1,0:0:0:0:
366,126,84865,2,0,B|345:140|345:140|353:225,1,104.65000199604,8|0,0:0|0:0,0:0:0:0:
404,49,85122,1,10,0:1:0:0:
203,265,85250,1,8,0:1:0:0:
179,0,85378,1,8,0:0:0:0:
347,122,85506,6,0,P|296:89|127:105,1,209.300003992081,12|8,0:1|0:1,0:0:0:0:
181,366,85891,2,0,P|192:318|204:257,1,104.65000199604,8|0,0:0|0:0,0:0:0:0:
53,78,86148,1,10,0:1:0:0:
266,194,86276,1,8,0:1:0:0:
35,310,86404,2,0,P|26:258|19:197,1,104.65000199604,8|0,0:0|0:0,0:0:0:0:
257,116,86660,6,0,B|333:105|333:105|384:132|384:132|464:121,1,209.300003992081,12|8,0:1|0:0,0:0:0:0:
296,17,87045,1,0,0:0:0:0:
311,264,87173,2,0,B|305:306|305:306|315:325|315:325|310:370,1,104.65000199604,10|8,0:1|0:1,0:0:0:0:
86,152,87430,2,0,P|159:163|204:172,1,104.65000199604,8|0,0:0|0:0,0:0:0:0:
433,255,87686,6,0,P|426:349|331:349,1,209.300003992081,12|8,0:1|0:0,0:0:0:0:
257,116,88071,2,0,B|333:105|333:105|384:132|384:132|464:121,1,209.300003992081,12|8,0:1|0:1,0:0:0:0:
188,281,88455,2,0,P|130:267|80:257,1,104.65000199604,8|0,0:0|0:0,0:0:0:0:
346,18,88712,6,0,L|361:139,1,104.65000199604,12|0,0:1|0:0,0:0:0:0:
429,294,88968,5,8,0:0:0:0:
107,127,89096,1,8,0:1:0:0:
461,142,89224,5,8,0:0:0:0:
56,270,89353,1,8,0:1:0:0:
235,0,89481,5,8,0:0:0:0:
292,384,89609,1,12,0:1:0:0:
292,384,89865,5,8,0:1:0:0:
461,142,89994,1,8,0:0:0:0:
461,142,90763,6,0,B|391:130|391:130|348:162|348:162|257:145,1,200.200006109619,12|8,0:1|0:0,0:0:0:0:
