osu file format v14

[General]
AudioFilename: audio.mp3
AudioLeadIn: 0
PreviewTime: 49277
Countdown: 0
SampleSet: Normal
StackLeniency: 0.7
Mode: 1
LetterboxInBreaks: 0
WidescreenStoryboard: 0

[Editor]
DistanceSpacing: 0.5
BeatDivisor: 4
GridSize: 32
TimelineZoom: 3.199999

[Metadata]
Title:The Hourglass
TitleUnicode:The Hourglass
Artist:Tethra
ArtistUnicode:Tethra
Creator:Capu
Version:Timeless
Source:
Tags:english metal modern metalcore spaceuntravel
BeatmapID:3625669
BeatmapSetID:1771114

[Difficulty]
HPDrainRate:7.2
CircleSize:2
OverallDifficulty:7.2
ApproachRate:10
SliderMultiplier:1.4
SliderTickRate:1

[Events]
//Background and Video events
0,0,"G4dzeNM-hourglass-wallpaper.jpg",0,50
//Break Periods
//Storyboard Layer 0 (Background)
//Storyboard Layer 1 (Fail)
//Storyboard Layer 2 (Pass)
//Storyboard Layer 3 (Foreground)
//Storyboard Layer 4 (Overlay)
//Storyboard Sound Samples

[TimingPoints]
47,512.820512820513,4,1,0,40,1,0
47,-100,4,1,0,40,0,0
13375,-92.5925925925926,4,1,0,40,0,0
14141,-86.2068965517241,4,1,0,40,0,0
14397,-78.125,4,1,0,40,0,0
15298,-71.4285714285714,4,1,0,65,0,0
15423,-65.7894736842105,4,1,0,65,0,0
15936,-60.9756097560976,4,1,0,65,0,0
16192,-56.8181818181818,4,1,0,65,0,0
16388,-50,4,1,0,80,0,0
16457,256.410256410256,4,1,0,80,1,0
22603,-105.263157894737,4,1,0,80,0,0
22667,-102.564102564103,4,1,0,80,0,0
22731,-100,4,1,0,80,0,0
22859,-95.2380952380952,4,1,0,80,0,0
22987,-90.9090909090909,4,1,0,80,0,0
23372,-105.263157894737,4,1,0,80,0,0
23436,-102.564102564103,4,1,0,80,0,0
23500,-100,4,1,0,80,0,0
23628,-95.2380952380952,4,1,0,80,0,0
23756,-90.9090909090909,4,1,0,80,0,0
24141,-95.2380952380952,4,1,0,80,0,0
24269,-96.3832785345233,4,1,0,80,0,0
24397,-97.5563373585623,4,1,0,80,0,0
24526,-98.7678090103966,4,1,0,80,0,0
24654,-100,4,1,0,80,0,0
32410,-98.7678090103966,4,1,0,80,0,0
32474,-97.565614302016,4,1,0,80,0,0
32538,-96.3923337091319,4,1,0,80,0,0
32603,-95.2292556153703,4,1,0,80,0,0
32667,-94.1111722619703,4,1,0,80,0,0
32731,-93.0190389845875,4,1,0,80,0,0
32795,-91.9519627173329,4,1,0,80,0,0
32859,-90.9090909090909,4,1,0,80,0,0
33118,-125,4,1,0,80,0,0
34397,-111.111111111111,4,1,0,80,0,0
34526,-105.230769230769,4,1,0,80,0,0
34654,-99.9805106217112,4,1,0,80,0,0
34718,-97.5470621791215,4,1,0,80,0,0
34782,-95.2292556153703,4,1,0,80,0,0
34846,-93.0190389845875,4,1,0,80,0,0
34910,-90.9090909090909,4,1,0,80,0,0
35170,-125,4,1,0,80,0,0
35936,-90.9090909090909,4,1,0,80,0,0
36000,-92.4824229313142,4,1,0,80,0,0
36064,-94.1111722619703,4,1,0,80,0,0
36192,-97.5470621791215,4,1,0,80,0,0
36321,-101.273319514362,4,1,0,80,0,0
36449,-105.263157894737,4,1,0,80,0,0
36577,-109.580262736302,4,1,0,80,0,0
36705,-114.266622118276,4,1,0,80,0,0
36833,-119.371727748691,4,1,0,80,0,0
36962,-111.111111111111,4,1,0,80,0,0
37221,-125,4,1,0,80,0,0
39016,-111.111111111111,4,1,0,80,0,0
39272,-125,4,1,0,80,0,0
40551,-111.111111111111,4,1,0,80,0,0
40680,-105.230769230769,4,1,0,80,0,0
40808,-99.9805106217112,4,1,0,80,0,0
40872,-97.5470621791215,4,1,0,80,0,0
40936,-95.2292556153703,4,1,0,80,0,0
41000,-93.0190389845875,4,1,0,80,0,0
41064,-90.9090909090909,4,1,0,80,0,0
41324,-125,4,1,0,80,0,0
42090,-111.111111111111,4,1,0,80,0,0
42218,-108.110958759625,4,1,0,80,0,0
42346,-105.268563212488,4,1,0,80,0,0
42410,-103.902686264572,4,1,0,80,0,0
42474,-102.571800260182,4,1,0,80,0,0
42538,-101.274577610908,4,1,0,80,0,0
42603,-99.9902448541606,4,1,0,80,0,0
42667,-98.7571056941902,4,1,0,80,0,0
42731,-97.5540116113067,4,1,0,80,0,0
42795,-96.3798777621062,4,1,0,80,0,0
42859,-95.2336709095977,4,1,0,80,0,0
42923,-94.1144063905977,4,1,0,80,0,0
42987,-93.0211452944913,4,1,0,80,0,0
43051,-91.9529918363685,4,1,0,80,0,0
43115,-90.9090909090909,4,1,0,80,0,0
43375,-125,4,1,0,80,0,0
46192,-100,4,1,0,80,0,0
46321,-102.579484103179,4,1,0,80,0,0
46449,-105.273958547096,4,1,0,80,0,0
46577,-108.113804004215,4,1,0,80,0,0
46705,-111.111111111111,4,1,0,80,0,0
46833,-114.279349521051,4,1,0,80,0,0
46962,-117.660550458716,4,1,0,80,0,0
47090,-121.219281663516,4,1,0,80,0,0
47218,-111.111111111111,4,1,0,80,0,0
47477,-125,4,1,0,80,0,0
48244,-111.111111111111,4,1,0,80,0,0
48308,-109.59050572009,4,1,0,80,0,0
48372,-108.110958759625,4,1,0,80,0,0
48436,-106.670829430742,4,1,0,80,0,0
48500,-105.268563212488,4,1,0,80,0,0
48564,-103.902686264572,4,1,0,80,0,0
48628,-102.571800260182,4,1,0,80,0,0
48692,-101.274577610908,4,1,0,80,0,0
48756,-100.009757049468,4,1,0,80,0,0
48821,-98.7571056941902,4,1,0,80,0,0
48885,-97.5540116113067,4,1,0,80,0,0
48949,-96.3798777621062,4,1,0,80,0,0
49013,-95.2336709095977,4,1,0,80,0,0
49077,-94.1144063905977,4,1,0,80,0,0
49141,-93.0211452944913,4,1,0,80,0,0
49205,-91.9529918363685,4,1,0,80,0,0
49277,-90.9090909090909,4,1,0,80,0,1
49400,-100,4,1,0,80,0,1
57482,-100,4,1,0,80,0,0
57862,-111.111111111111,4,1,0,80,0,0
58247,-117.647058823529,4,1,0,80,0,0
58508,-100,4,1,0,80,0,1
59533,-100,4,1,0,80,0,0
59911,-111.111111111111,4,1,0,80,0,0
60296,-117.647058823529,4,1,0,80,0,0
60559,-100,4,1,0,80,0,1
61585,-100,4,1,0,80,0,0
61836,-111.111111111111,4,1,0,80,0,0
62221,-117.647058823529,4,1,0,80,0,0
62610,-100,4,1,0,80,0,1
65687,-100,4,1,0,80,0,0
72923,-99.3800852382797,4,1,0,80,0,0
72987,-98.7678090103966,4,1,0,80,0,0
73115,-97.565614302016,4,1,0,80,0,0
73244,-96.3832785345233,4,1,0,80,0,0
73372,-95.2380952380952,4,1,0,80,0,0
73436,-94.6756482421334,4,1,0,80,0,0
73500,-94.1198055224291,4,1,0,80,0,0
73564,-93.5704514363885,4,1,0,80,0,0
73628,-93.0274730256596,4,1,0,80,0,0
73692,-92.4907599387001,4,1,0,80,0,0
73756,-91.9602043560097,4,1,0,80,0,0
73821,-91.4275530208519,4,1,0,80,0,0
73885,-90.9090909090909,4,1,0,80,0,0
77047,-91.5996425379803,4,1,0,80,0,0
77133,-92.3090778097983,4,1,0,80,0,0
77218,-93.0211452944913,4,1,0,80,0,0
77303,-93.744283885129,4,1,0,80,0,0
77389,-94.4874631268437,4,1,0,80,0,0
77474,-95.2336709095977,4,1,0,80,0,0
77560,-96.0007492741407,4,1,0,80,0,0
77645,-96.7711480362538,4,1,0,80,0,0
77731,-97.5632971635256,4,1,0,80,0,0
77816,-98.3590826216294,4,1,0,80,0,0
77902,-99.1775520077407,4,1,0,80,0,0
77987,-100,4,1,0,80,0,0
82346,-125,4,1,0,80,0,0
83625,-111.111111111111,4,1,0,80,0,0
83754,-105.230769230769,4,1,0,80,0,0
83882,-99.9805106217112,4,1,0,80,0,0
83946,-97.5470621791215,4,1,0,80,0,0
84010,-95.2292556153703,4,1,0,80,0,0
84074,-93.0190389845875,4,1,0,80,0,0
84138,-90.9090909090909,4,1,0,80,0,0
84398,-125,4,1,0,80,0,0
85164,-90.9090909090909,4,1,0,80,0,0
85228,-92.4824229313142,4,1,0,80,0,0
85292,-94.1111722619703,4,1,0,80,0,0
85420,-97.5470621791215,4,1,0,80,0,0
85549,-101.273319514362,4,1,0,80,0,0
85677,-105.263157894737,4,1,0,80,0,0
85805,-109.580262736302,4,1,0,80,0,0
85933,-114.266622118276,4,1,0,80,0,0
86061,-119.371727748691,4,1,0,80,0,0
86190,-111.111111111111,4,1,0,80,0,0
86449,-125,4,1,0,80,0,0
88244,-111.111111111111,4,1,0,80,0,0
88500,-125,4,1,0,80,0,0
89779,-111.111111111111,4,1,0,80,0,0
89908,-105.230769230769,4,1,0,80,0,0
90036,-99.9805106217112,4,1,0,80,0,0
90100,-97.5470621791215,4,1,0,80,0,0
90164,-95.2292556153703,4,1,0,80,0,0
90228,-93.0190389845875,4,1,0,80,0,0
90292,-90.9090909090909,4,1,0,80,0,0
90552,-125,4,1,0,80,0,0
91318,-111.111111111111,4,1,0,80,0,0
91446,-108.110958759625,4,1,0,80,0,0
91574,-105.268563212488,4,1,0,80,0,0
91638,-103.902686264572,4,1,0,80,0,0
91702,-102.571800260182,4,1,0,80,0,0
91766,-101.274577610908,4,1,0,80,0,0
91831,-99.9902448541606,4,1,0,80,0,0
91895,-98.7571056941902,4,1,0,80,0,0
91959,-97.5540116113067,4,1,0,80,0,0
92023,-96.3798777621062,4,1,0,80,0,0
92087,-95.2336709095977,4,1,0,80,0,0
92151,-94.1144063905977,4,1,0,80,0,0
92215,-93.0211452944913,4,1,0,80,0,0
92279,-91.9529918363685,4,1,0,80,0,0
92343,-90.9090909090909,4,1,0,80,0,0
92603,-100,4,1,0,80,0,0
92987,-111.111111111111,4,1,0,80,0,0
93372,-125,4,1,0,80,0,0
94398,-111.111111111111,4,1,0,80,0,0
94654,-125,4,1,0,80,0,0
95420,-100,4,1,0,80,0,0
95549,-102.579484103179,4,1,0,80,0,0
95677,-105.273958547096,4,1,0,80,0,0
95805,-108.113804004215,4,1,0,80,0,0
95933,-111.111111111111,4,1,0,80,0,0
96061,-114.279349521051,4,1,0,80,0,0
96190,-117.660550458716,4,1,0,80,0,0
96318,-121.219281663516,4,1,0,80,0,0
96446,-111.111111111111,4,1,0,80,0,0
96705,-125,4,1,0,80,0,0
97472,-111.111111111111,4,1,0,80,0,0
97536,-109.59050572009,4,1,0,80,0,0
97600,-108.110958759625,4,1,0,80,0,0
97664,-106.670829430742,4,1,0,80,0,0
97728,-105.268563212488,4,1,0,80,0,0
97792,-103.902686264572,4,1,0,80,0,0
97856,-102.571800260182,4,1,0,80,0,0
97920,-101.274577610908,4,1,0,80,0,0
97984,-100.009757049468,4,1,0,80,0,0
98049,-98.7571056941902,4,1,0,80,0,0
98113,-97.5540116113067,4,1,0,80,0,0
98177,-96.3798777621062,4,1,0,80,0,0
98241,-95.2336709095977,4,1,0,80,0,0
98305,-94.1144063905977,4,1,0,80,0,0
98369,-93.0211452944913,4,1,0,80,0,0
98433,-91.9529918363685,4,1,0,80,0,0
98508,-90.9090909090909,4,1,0,80,0,1
98631,-100,4,1,0,80,0,1
106713,-100,4,1,0,80,0,0
107093,-111.111111111111,4,1,0,80,0,0
107478,-117.647058823529,4,1,0,80,0,0
107739,-100,4,1,0,80,0,1
108764,-100,4,1,0,80,0,0
109142,-111.111111111111,4,1,0,80,0,0
109527,-117.647058823529,4,1,0,80,0,0
109790,-100,4,1,0,80,0,1
110815,-100,4,1,0,80,0,0
111067,-111.111111111111,4,1,0,80,0,0
111452,-117.647058823529,4,1,0,80,0,0
111841,-100,4,1,0,80,0,1
114918,-100,4,1,0,80,0,0
115170,-142.857142857143,4,1,0,80,0,0
115680,-146.348421453024,4,1,0,80,0,0
115936,-150,4,1,0,80,0,0
116192,-153.838464614154,4,1,0,80,0,0
116449,-157.894736842105,4,1,0,80,0,0
116705,-162.153619218207,4,1,0,80,0,0
116962,-166.666666666667,4,1,0,80,0,0
119016,-111.111111111111,4,1,0,80,0,0
119144,-166.666666666667,4,1,0,80,0,0
123054,-125,4,1,0,80,0,0
129269,-100,4,1,0,80,0,0
129333,-100.627697136132,4,1,0,80,0,0
129397,-101.263324121595,4,1,0,80,0,0
129526,-102.569229231231,4,1,0,80,0,0
129654,-103.898734177215,4,1,0,80,0,0
129782,-105.263157894737,4,1,0,80,0,0
129910,-106.663894375715,4,1,0,80,0,0
130038,-108.102412812138,4,1,0,80,0,0
130167,-109.591967528306,4,1,0,80,0,0
130295,-111.111111111111,4,1,0,80,0,0
130423,-112.672962881617,4,1,0,80,0,0
130551,-114.279349521051,4,1,0,80,0,0
130680,-115.945304554187,4,1,0,80,0,0
130808,-117.647058823529,4,1,0,80,0,0
130872,-118.51680720804,4,1,0,80,0,0
130936,-119.399511230071,4,1,0,80,0,0
131000,-120.295462539571,4,1,0,80,0,0
131064,-121.204961606615,4,1,0,80,0,0
131128,-122.128318057374,4,1,0,80,0,0
131192,-123.065851025549,4,1,0,80,0,0
131256,-124.017889520126,4,1,0,80,0,0
131321,-125,4,1,0,80,0,0
137474,-111.111111111111,4,1,0,80,0,0
137603,-111.892687714706,4,1,0,80,0,0
137731,-112.679149964307,4,1,0,80,0,0
137859,-113.476746115136,4,1,0,80,0,0
137987,-114.285714285714,4,1,0,80,0,0
138051,-114.694539153764,4,1,0,80,0,0
138115,-115.106299433444,4,1,0,80,0,0
138244,-115.945304554187,4,1,0,80,0,0
138372,-116.789982925441,4,1,0,80,0,0
138500,-117.647058823529,4,1,0,80,0,0
138628,-118.51680720804,4,1,0,80,0,0
138756,-119.399511230071,4,1,0,80,0,0
138885,-120.302515096441,4,1,0,80,0,0
139013,-121.212121212121,4,1,0,80,0,0
139077,-121.672101986362,4,1,0,80,0,0
139141,-122.135587167431,4,1,0,80,0,0
139269,-123.073232171775,4,1,0,80,0,0
139397,-124.025385312783,4,1,0,80,0,0
139526,-125,4,1,0,80,0,0
145683,-117.647058823529,4,1,0,80,0,0
146513,-115.942028985507,4,1,0,80,0,0
146577,-114.285714285714,4,1,0,80,0,0
146641,-112.676056338028,4,1,0,80,0,0
146705,-111.111111111111,4,1,0,80,0,0
147538,-112.669881630864,4,1,0,80,0,0
147603,-114.298421169669,4,1,0,80,0,0
147667,-115.948567561471,4,1,0,80,0,0
147731,-117.647058823529,4,1,0,80,0,0
159269,-111.111111111111,4,1,0,80,0,0
159397,-109.093488438076,4,1,0,80,0,0
159526,-107.132906101978,4,1,0,80,0,0
159590,-106.186136426402,4,1,0,80,0,0
159654,-105.255954010402,4,1,0,80,0,0
159718,-104.341926729986,4,1,0,80,0,0
159782,-103.443637341942,4,1,0,80,0,0
159846,-102.56068284876,4,1,0,80,0,0
159910,-101.692673895795,4,1,0,80,0,0
159974,-100.839234198794,4,1,0,80,0,0
160038,-100,4,1,0,80,0,0
160234,-90.9090909090909,4,1,0,80,0,0
162218,-91.4278072482503,4,1,0,80,0,0
162346,-91.952477023089,4,1,0,80,0,0
162474,-92.4832033187537,4,1,0,80,0,0
162603,-93.0243105950653,4,1,0,80,0,0
162731,-93.5675182481752,4,1,0,80,0,0
162859,-94.117107195301,4,1,0,80,0,0
162987,-94.6731905465288,4,1,0,80,0,0
163115,-95.2358841010401,4,1,0,80,0,0
163244,-95.8097818470594,4,1,0,80,0,0
163372,-96.3861083697542,4,1,0,80,0,0
163500,-96.9694104297669,4,1,0,80,0,0
163628,-97.5598154402321,4,1,0,80,0,0
163756,-98.1574539363484,4,1,0,80,0,0
163885,-98.7672156409515,4,1,0,80,0,0
164013,-99.3797848628743,4,1,0,80,0,0
164149,-90.9090909090909,4,1,0,80,0,1
164272,-100,4,1,0,80,0,1
172354,-100,4,1,0,80,0,0
172734,-111.111111111111,4,1,0,80,0,0
173119,-117.647058823529,4,1,0,80,0,0
173380,-100,4,1,0,80,0,1
174405,-100,4,1,0,80,0,0
174783,-111.111111111111,4,1,0,80,0,0
175168,-117.647058823529,4,1,0,80,0,0
175431,-100,4,1,0,80,0,1
176456,-100,4,1,0,80,0,0
176708,-111.111111111111,4,1,0,80,0,0
177093,-117.647058823529,4,1,0,80,0,0
177482,-100,4,1,0,80,0,1
180559,-100,4,1,0,80,0,0
180683,-100,4,1,0,45,0,0
181067,-166.666666666667,4,1,0,45,0,0
184138,-142.857142857143,4,1,0,45,0,0
184651,-142.857142857143,4,1,0,45,0,0
184782,-147.058823529412,4,1,0,45,0,0
184910,-151.515151515152,4,1,0,45,0,0
185038,-156.25,4,1,0,45,0,0
185423,-166.666666666667,4,1,0,45,0,0
187731,-142.857142857143,4,1,0,45,0,0
188885,-147.058823529412,4,1,0,45,0,0
189013,-151.515151515152,4,1,0,45,0,0
189141,-156.25,4,1,0,45,0,0
189526,-166.666666666667,4,1,0,45,0,0
192346,-142.857142857143,4,1,0,45,0,0
192990,-147.058823529412,4,1,0,45,0,0
193118,-151.515151515152,4,1,0,45,0,0
193246,-156.25,4,1,0,45,0,0
193631,-166.666666666667,4,1,0,45,0,0
195936,-142.857142857143,4,1,0,45,0,0
200551,-125,4,1,0,45,0,0
201192,-128.205128205128,4,1,0,45,0,0
201321,-131.578947368421,4,1,0,45,0,0
201449,-135.135135135135,4,1,0,45,0,0
201705,-142.857142857143,4,1,0,45,0,0
204141,-125,4,1,0,45,0,0
205295,-128.205128205128,4,1,0,45,0,0
205424,-131.578947368421,4,1,0,45,0,0
205552,-135.135135135135,4,1,0,45,0,0
205808,-142.857142857143,4,1,0,45,0,0
208756,-125,4,1,0,45,0,0
209397,-128.205128205128,4,1,0,45,0,0
209526,-131.578947368421,4,1,0,45,0,0
209654,-135.135135135135,4,1,0,45,0,0
209910,-142.857142857143,4,1,0,45,0,0
211577,-141.093727572843,4,1,0,45,0,0
211705,-139.386491468545,4,1,0,45,0,0
211833,-137.720076588988,4,1,0,45,0,0
211961,-136.09303613457,4,1,0,45,0,0
212090,-134.491722533862,4,1,0,45,0,0
212218,-132.939638461885,4,1,0,45,0,0
212346,-131.42296893801,4,1,0,45,0,0
212431,-130.434782608696,4,1,0,45,0,0
212517,-129.449980246697,4,1,0,45,0,0
212602,-128.491133283953,4,1,0,45,0,0
212688,-127.53535440903,4,1,0,45,0,0
212773,-126.604559309664,4,1,0,45,0,0
212859,-125.676539526955,4,1,0,45,0,0
212944,-124.772583033637,4,1,0,45,0,0
213030,-123.871130339816,4,1,0,45,0,0
213115,-122.992868165325,4,1,0,45,0,0
213201,-122.116857840904,4,1,0,45,0,0
213286,-121.263209835931,4,1,0,45,0,0
213380,512.820512820513,4,1,0,40,1,0
213380,-60.2409638554217,4,1,0,40,0,0
213631,-100,4,1,0,30,0,0
229614,-96.1538461538461,4,1,0,30,0,0
229700,-92.5925925925926,4,1,0,35,0,0
229785,-89.2857142857143,4,1,0,40,0,0
244529,-89.2857142857143,4,1,0,70,0,0
244654,-84.7457627118644,4,1,0,70,0,0
244910,-79.3650793650794,4,1,0,70,0,0
245167,-75.7575757575758,4,1,0,70,0,0
245423,-71.4285714285714,4,1,0,70,0,0
245680,-68.4931506849315,4,1,0,70,0,0
245936,-64.9350649350649,4,1,0,70,0,0
246192,-62.5,4,1,0,70,0,0
246200,256.410256410256,4,1,0,40,1,0
246200,-125,4,1,0,70,0,0
260936,-123.895637769188,4,1,0,70,0,0
261064,-122.810618500274,4,1,0,70,0,0
261192,-121.744438415627,4,1,0,70,0,0
261321,-120.688495932226,4,1,0,70,0,0
261449,-119.658689420705,4,1,0,70,0,0
261577,-118.646308414304,4,1,0,70,0,0
261705,-117.650914334404,4,1,0,70,0,0
261833,-116.67208319792,4,1,0,70,0,0
261962,-115.701946628851,4,1,0,70,0,0
262090,-114.755146400716,4,1,0,70,0,0
262218,-113.823715916297,4,1,0,70,0,0
262346,-112.907283935086,4,1,0,70,0,0
262474,-112.005491077,4,1,0,70,0,0
262603,-111.111111111111,4,1,0,70,0,0
276021,-110.460106841289,4,1,0,70,0,0
276107,-109.809161613047,4,1,0,70,0,0
276192,-109.173280648568,4,1,0,70,0,0
276278,-108.537370043009,4,1,0,70,0,0
276363,-107.916091450891,4,1,0,70,0,0
276449,-107.29470054568,4,1,0,70,0,0
276534,-106.68752704637,4,1,0,70,0,0
276620,-106.080164167742,4,1,0,70,0,0
276705,-105.486620807689,4,1,0,70,0,0
276791,-104.892816233022,4,1,0,70,0,0
276876,-104.312449145647,4,1,0,70,0,0
276962,-103.731753891964,4,1,0,70,0,0
277047,-103.164129140245,4,1,0,70,0,0
277133,-102.596113832069,4,1,0,70,0,0
277218,-102.040816326531,4,1,0,70,0,0
277303,-101.491497514171,4,1,0,70,0,0
277389,-100.941702623539,4,1,0,70,0,0
277474,-100.404122677861,4,1,0,70,0,0
277560,-99.8660143956626,4,1,0,70,0,0
277645,-99.3398010104454,4,1,0,70,0,0
277731,-98.8130106366579,4,1,0,70,0,0
277816,-98.2978070848029,4,1,0,70,0,0
277902,-97.7819812673521,4,1,0,70,0,0
277987,-97.2774455944395,4,1,0,70,0,0
278073,-96.7722455388146,4,1,0,70,0,0
278158,-96.2780498062423,4,1,0,70,0,0
278244,-95.7831505334568,4,1,0,70,0,0
278329,-95.2989801076388,4,1,0,70,0,0
278415,-94.8140697571221,4,1,0,70,0,0
278500,-94.3396226415094,4,1,0,70,0,0
278586,-93.8644018157856,4,1,0,70,0,0
278671,-93.3993880227306,4,1,0,70,0,0
278756,-92.9389589676671,4,1,0,70,0,0
278842,-92.4777101307095,4,1,0,70,0,0
278927,-92.0263014327964,4,1,0,70,0,0
279013,-91.5740449727135,4,1,0,70,0,0
279141,-90.9090909090909,4,1,0,70,0,0
279982,-111.111111111111,4,1,0,70,0,0
280943,-111.111111111111,4,1,0,35,0,0
281067,-142.857142857143,4,1,0,70,0,0
281071,512.820512820513,4,1,0,40,1,0
281071,-71.4285714285714,4,1,0,70,0,0
282090,-76.9230769230769,4,1,0,70,0,0
283115,-75.7575757575758,4,1,0,70,0,0
284141,-79.3650793650794,4,1,0,70,0,0
285167,-84.7457627118644,4,1,0,70,0,0
286192,-90.9090909090909,4,1,0,60,0,0
287218,-98.0392156862745,4,1,0,50,0,0
288244,-106.382978723404,4,1,0,50,0,0
289269,-113.636363636364,4,1,0,50,0,0
290295,-125,4,1,0,50,0,0
297349,-125,4,1,0,40,0,0
300170,-125,4,1,0,35,0,0
301452,-125,4,1,0,30,0,0
302477,-125,4,1,0,25,0,0
303503,-125,4,1,0,20,0,0

[HitObjects]
256,192,47,5,8,0:0:0:0:
256,192,431,1,0,0:0:0:0:
256,192,816,1,0,0:0:0:0:
256,192,1072,1,8,0:0:0:0:
256,192,2098,1,8,0:0:0:0:
256,192,3123,1,0,0:0:0:0:
256,192,4149,1,8,0:0:0:0:
256,192,4534,1,0,0:0:0:0:
256,192,4918,1,8,0:0:0:0:
256,192,5175,1,0,0:0:0:0:
256,192,6200,1,0,0:0:0:0:
256,192,7226,1,0,0:0:0:0:
256,192,7354,1,8,0:0:0:0:
256,192,8252,1,8,0:0:0:0:
256,192,8636,1,0,0:0:0:0:
256,192,9021,1,0,0:0:0:0:
256,192,9277,1,8,0:0:0:0:
256,192,10303,1,8,0:0:0:0:
256,192,11072,1,8,0:0:0:0:
256,192,11329,1,8,0:0:0:0:
256,192,11841,1,0,0:0:0:0:
256,192,12098,1,0,0:0:0:0:
256,192,12354,1,8,0:0:0:0:
256,192,12739,1,0,0:0:0:0:
256,192,13123,1,0,0:0:0:0:
256,192,13380,5,8,0:0:0:0:
256,192,14149,1,8,0:0:0:0:
256,192,14405,1,0,0:0:0:0:
256,192,15431,1,0,0:0:0:0:
256,192,15944,1,8,0:0:0:0:
256,192,16200,1,8,0:0:0:0:
256,192,16457,1,0,0:0:0:0:
256,192,16521,1,0,0:0:0:0:
256,192,16585,1,0,0:0:0:0:
256,192,16713,1,8,0:0:0:0:
256,192,16841,1,8,0:0:0:0:
256,192,16970,1,0,0:0:0:0:
256,192,17098,1,8,0:0:0:0:
256,192,17354,1,8,0:0:0:0:
256,192,17482,1,0,0:0:0:0:
256,192,17611,1,8,0:0:0:0:
256,192,17739,1,8,0:0:0:0:
256,192,17867,1,0,0:0:0:0:
256,192,17995,1,8,0:0:0:0:
256,192,18123,1,0,0:0:0:0:
256,192,18252,1,0,0:0:0:0:
256,192,18380,1,0,0:0:0:0:
256,192,18508,1,8,0:0:0:0:
256,192,18572,1,8,0:0:0:0:
256,192,18636,1,8,0:0:0:0:
256,192,18764,1,0,0:0:0:0:
256,192,18893,1,0,0:0:0:0:
256,192,19021,1,8,0:0:0:0:
256,192,19149,1,8,0:0:0:0:
256,192,19277,1,0,0:0:0:0:
256,192,19341,1,0,0:0:0:0:
256,192,19405,1,0,0:0:0:0:
256,192,19534,1,8,0:0:0:0:
256,192,19662,1,0,0:0:0:0:
256,192,20046,1,8,0:0:0:0:
256,192,20175,1,8,0:0:0:0:
256,192,20303,1,0,0:0:0:0:
256,192,20431,1,0,0:0:0:0:
256,192,20559,1,8,0:0:0:0:
256,192,20623,1,8,0:0:0:0:
256,192,20688,1,0,0:0:0:0:
256,192,20816,1,8,0:0:0:0:
256,192,20944,1,0,0:0:0:0:
256,192,21008,1,0,0:0:0:0:
256,192,21072,1,8,0:0:0:0:
256,192,21200,1,0,0:0:0:0:
256,192,21329,1,0,0:0:0:0:
256,192,21457,1,8,0:0:0:0:
256,192,21585,1,0,0:0:0:0:
256,192,21713,1,8,0:0:0:0:
256,192,21841,1,8,0:0:0:0:
256,192,21970,1,0,0:0:0:0:
256,192,22098,1,8,0:0:0:0:
256,192,22226,1,0,0:0:0:0:
256,192,22354,1,8,0:0:0:0:
256,192,22482,1,8,0:0:0:0:
256,192,22611,5,0,0:0:0:0:
256,192,22675,1,0,0:0:0:0:
256,192,22739,1,0,0:0:0:0:
256,192,22867,1,0,0:0:0:0:
256,192,22995,1,12,0:0:0:0:
256,192,23380,1,8,0:0:0:0:
256,192,23444,1,8,0:0:0:0:
256,192,23508,1,8,0:0:0:0:
256,192,23636,1,8,0:0:0:0:
256,192,23764,1,4,0:0:0:0:
256,192,24149,1,8,0:0:0:0:
256,192,24277,1,0,0:0:0:0:
256,192,24405,1,8,0:0:0:0:
256,192,24534,1,8,0:0:0:0:
256,192,24662,1,0,0:0:0:0:
256,192,24726,1,0,0:0:0:0:
256,192,24790,1,0,0:0:0:0:
256,192,24918,1,8,0:0:0:0:
256,192,25046,1,8,0:0:0:0:
256,192,25303,1,0,0:0:0:0:
256,192,25431,1,8,0:0:0:0:
256,192,25495,1,8,0:0:0:0:
256,192,25559,1,8,0:0:0:0:
256,192,25688,1,0,0:0:0:0:
256,192,25816,1,8,0:0:0:0:
256,192,26200,1,8,0:0:0:0:
256,192,26329,1,8,0:0:0:0:
256,192,26457,1,0,0:0:0:0:
256,192,26713,1,8,0:0:0:0:
256,192,26777,1,8,0:0:0:0:
256,192,26841,1,8,0:0:0:0:
256,192,26970,1,0,0:0:0:0:
256,192,27098,1,8,0:0:0:0:
256,192,27482,1,0,0:0:0:0:
256,192,27546,1,0,0:0:0:0:
256,192,27611,1,0,0:0:0:0:
256,192,27739,1,8,0:0:0:0:
256,192,27867,1,0,0:0:0:0:
256,192,28123,1,0,0:0:0:0:
256,192,28252,1,8,0:0:0:0:
256,192,28380,1,0,0:0:0:0:
256,192,28508,1,8,0:0:0:0:
256,192,28636,1,8,0:0:0:0:
256,192,28764,1,0,0:0:0:0:
256,192,28829,1,0,0:0:0:0:
256,192,28893,1,8,0:0:0:0:
256,192,29021,1,0,0:0:0:0:
256,192,29149,1,8,0:0:0:0:
256,192,29213,1,8,0:0:0:0:
256,192,29277,1,0,0:0:0:0:
256,192,29405,1,8,0:0:0:0:
256,192,29534,1,8,0:0:0:0:
256,192,29662,1,8,0:0:0:0:
256,192,29790,1,0,0:0:0:0:
256,192,29918,1,8,0:0:0:0:
256,192,30046,1,0,0:0:0:0:
256,192,30175,1,8,0:0:0:0:
256,192,30303,1,8,0:0:0:0:
256,192,30431,1,0,0:0:0:0:
256,192,30559,1,8,0:0:0:0:
256,192,30688,1,0,0:0:0:0:
256,192,30816,1,8,0:0:0:0:
256,192,30944,1,0,0:0:0:0:
256,192,31072,1,0,0:0:0:0:
256,192,31200,1,8,0:0:0:0:
256,192,31329,1,0,0:0:0:0:
256,192,31393,1,0,0:0:0:0:
256,192,31457,1,0,0:0:0:0:
256,192,31585,1,8,0:0:0:0:
256,192,31713,1,0,0:0:0:0:
256,192,31841,1,0,0:0:0:0:
256,192,31970,1,8,0:0:0:0:
256,192,32098,1,0,0:0:0:0:
256,192,32162,1,0,0:0:0:0:
256,192,32226,1,0,0:0:0:0:
256,192,32354,1,8,0:0:0:0:
256,192,32418,1,8,0:0:0:0:
256,192,32482,1,8,0:0:0:0:
256,192,32546,1,8,0:0:0:0:
256,192,32611,1,0,0:0:0:0:
256,192,32675,1,0,0:0:0:0:
256,192,32739,1,0,0:0:0:0:
256,192,32803,1,0,0:0:0:0:
256,192,32867,1,12,0:0:0:0:
256,192,33252,1,0,0:0:0:0:
256,192,33380,1,8,0:0:0:0:
256,192,33636,1,0,0:0:0:0:
256,192,34021,1,0,0:0:0:0:
256,192,34149,1,8,0:0:0:0:
256,192,34405,1,8,0:0:0:0:
256,192,34534,1,8,0:0:0:0:
256,192,34662,1,0,0:0:0:0:
256,192,34726,1,0,0:0:0:0:
256,192,34790,1,0,0:0:0:0:
256,192,34854,1,0,0:0:0:0:
256,192,34918,1,12,0:0:0:0:
256,192,35303,1,0,0:0:0:0:
256,192,35431,1,8,0:0:0:0:
256,192,35688,1,0,0:0:0:0:
256,192,35816,1,0,0:0:0:0:
256,192,35944,1,8,0:0:0:0:
256,192,36008,1,8,0:0:0:0:
256,192,36072,1,8,0:0:0:0:
256,192,36200,1,0,0:0:0:0:
256,192,36329,1,0,0:0:0:0:
256,192,36457,1,8,0:0:0:0:
256,192,36585,1,0,0:0:0:0:
256,192,36713,1,8,0:0:0:0:
256,192,36841,1,8,0:0:0:0:
256,192,36970,1,4,0:0:0:0:
256,192,37354,1,0,0:0:0:0:
256,192,37739,1,8,0:0:0:0:
256,192,37995,1,8,0:0:0:0:
256,192,38123,1,0,0:0:0:0:
256,192,38508,1,0,0:0:0:0:
256,192,38636,1,0,0:0:0:0:
256,192,38764,1,0,0:0:0:0:
256,192,38893,1,0,0:0:0:0:
256,192,39021,1,12,0:0:0:0:
256,192,39405,1,0,0:0:0:0:
256,192,39790,1,0,0:0:0:0:
256,192,40046,1,8,0:0:0:0:
256,192,40175,1,0,0:0:0:0:
256,192,40431,1,0,0:0:0:0:
256,192,40559,1,8,0:0:0:0:
256,192,40688,1,8,0:0:0:0:
256,192,40816,1,0,0:0:0:0:
256,192,40880,1,0,0:0:0:0:
256,192,40944,1,0,0:0:0:0:
256,192,41008,1,0,0:0:0:0:
256,192,41072,1,12,0:0:0:0:
256,192,41457,1,0,0:0:0:0:
256,192,41841,1,0,0:0:0:0:
256,192,42098,1,8,0:0:0:0:
256,192,42226,1,0,0:0:0:0:
256,192,42354,1,8,0:0:0:0:
256,192,42418,1,0,0:0:0:0:
256,192,42482,1,8,0:0:0:0:
256,192,42546,1,0,0:0:0:0:
256,192,42611,1,8,0:0:0:0:
256,192,42675,1,8,0:0:0:0:
256,192,42739,1,0,0:0:0:0:
256,192,42803,1,0,0:0:0:0:
256,192,42867,1,8,0:0:0:0:
256,192,42931,1,0,0:0:0:0:
256,192,42995,1,8,0:0:0:0:
256,192,43059,1,8,0:0:0:0:
256,192,43123,1,4,0:0:0:0:
256,192,43508,1,0,0:0:0:0:
256,192,43636,1,0,0:0:0:0:
256,192,43893,1,0,0:0:0:0:
256,192,44149,1,8,0:0:0:0:
256,192,44277,1,0,0:0:0:0:
256,192,44662,1,8,0:0:0:0:
256,192,44790,1,8,0:0:0:0:
256,192,44918,1,0,0:0:0:0:
256,192,45046,1,0,0:0:0:0:
256,192,45175,1,12,0:0:0:0:
256,192,45559,1,0,0:0:0:0:
256,192,45944,1,0,0:0:0:0:
256,192,46200,1,8,0:0:0:0:
256,192,46329,1,0,0:0:0:0:
256,192,46457,1,8,0:0:0:0:
256,192,46585,1,8,0:0:0:0:
256,192,46713,1,0,0:0:0:0:
256,192,46841,1,8,0:0:0:0:
256,192,46970,1,0,0:0:0:0:
256,192,47098,1,0,0:0:0:0:
256,192,47226,1,12,0:0:0:0:
256,192,47611,1,0,0:0:0:0:
256,192,47995,1,0,0:0:0:0:
256,192,48252,1,8,0:0:0:0:
256,192,48316,1,8,0:0:0:0:
256,192,48380,1,0,0:0:0:0:
256,192,48444,1,0,0:0:0:0:
256,192,48508,1,8,0:0:0:0:
256,192,48572,1,0,0:0:0:0:
256,192,48636,1,8,0:0:0:0:
256,192,48700,1,0,0:0:0:0:
256,192,48764,1,8,0:0:0:0:
256,192,48829,1,8,0:0:0:0:
256,192,48893,1,0,0:0:0:0:
256,192,48957,1,0,0:0:0:0:
256,192,49021,1,8,0:0:0:0:
256,192,49085,1,0,0:0:0:0:
256,192,49149,1,8,0:0:0:0:
256,192,49213,1,8,0:0:0:0:
256,192,49277,1,4,0:0:0:0:
256,192,49534,1,8,0:0:0:0:
256,192,49662,1,0,0:0:0:0:
256,192,49790,1,8,0:0:0:0:
256,192,49918,1,8,0:0:0:0:
256,192,50046,1,0,0:0:0:0:
256,192,50175,1,8,0:0:0:0:
256,192,50303,1,4,0:0:0:0:
256,192,50431,1,0,0:0:0:0:
256,192,50559,1,8,0:0:0:0:
256,192,50688,1,0,0:0:0:0:
256,192,50816,1,8,0:0:0:0:
256,192,50944,1,8,0:0:0:0:
256,192,51072,1,0,0:0:0:0:
256,192,51200,1,8,0:0:0:0:
256,192,51329,1,4,0:0:0:0:
256,192,51585,1,8,0:0:0:0:
256,192,51713,1,0,0:0:0:0:
256,192,51841,1,8,0:0:0:0:
256,192,51970,1,8,0:0:0:0:
256,192,52098,1,0,0:0:0:0:
256,192,52226,1,0,0:0:0:0:
256,192,52354,1,12,0:0:0:0:
256,192,52482,1,8,0:0:0:0:
256,192,52611,1,0,0:0:0:0:
256,192,52739,1,8,0:0:0:0:
256,192,52867,1,4,0:0:0:0:
256,192,52995,1,0,0:0:0:0:
256,192,53123,1,8,0:0:0:0:
256,192,53252,1,8,0:0:0:0:
256,192,53380,1,4,0:0:0:0:
256,192,53636,1,8,0:0:0:0:
256,192,53764,1,8,0:0:0:0:
256,192,53893,1,0,0:0:0:0:
256,192,54021,1,0,0:0:0:0:
256,192,54149,1,8,0:0:0:0:
256,192,54277,1,0,0:0:0:0:
256,192,54405,1,12,0:0:0:0:
256,192,54534,1,0,0:0:0:0:
256,192,54662,1,8,0:0:0:0:
256,192,54790,1,8,0:0:0:0:
256,192,54918,1,0,0:0:0:0:
256,192,55046,1,8,0:0:0:0:
256,192,55175,1,0,0:0:0:0:
256,192,55239,1,0,0:0:0:0:
256,192,55303,1,8,0:0:0:0:
256,192,55367,1,8,0:0:0:0:
256,192,55431,1,4,0:0:0:0:
256,192,55688,1,8,0:0:0:0:
256,192,55816,1,0,0:0:0:0:
256,192,55944,1,8,0:0:0:0:
256,192,56072,1,8,0:0:0:0:
256,192,56200,1,0,0:0:0:0:
256,192,56329,1,0,0:0:0:0:
256,192,56457,1,12,0:0:0:0:
256,192,56585,1,0,0:0:0:0:
256,192,56713,1,0,0:0:0:0:
256,192,56841,1,12,0:0:0:0:
256,192,56970,1,0,0:0:0:0:
256,192,57098,1,0,0:0:0:0:
256,192,57226,1,8,0:0:0:0:
256,192,57354,1,8,0:0:0:0:
256,192,57482,1,0,0:0:0:0:
256,192,57867,1,0,0:0:0:0:
256,192,58252,1,0,0:0:0:0:
256,192,58508,1,12,0:0:0:0:
256,192,58764,1,0,0:0:0:0:
256,192,58893,1,8,0:0:0:0:
256,192,59021,1,0,0:0:0:0:
256,192,59149,1,8,0:0:0:0:
256,192,59277,1,0,0:0:0:0:
256,192,59405,1,0,0:0:0:0:
256,192,59534,1,12,0:0:0:0:
256,192,59918,1,0,0:0:0:0:
256,192,60303,1,0,0:0:0:0:
256,192,60559,1,12,0:0:0:0:
256,192,60688,1,0,0:0:0:0:
256,192,60816,1,8,0:0:0:0:
256,192,60944,1,8,0:0:0:0:
256,192,61072,1,0,0:0:0:0:
256,192,61200,1,0,0:0:0:0:
256,192,61329,1,8,0:0:0:0:
256,192,61457,1,0,0:0:0:0:
256,192,61585,1,12,0:0:0:0:
256,192,61841,1,0,0:0:0:0:
256,192,61970,1,0,0:0:0:0:
256,192,62226,1,0,0:0:0:0:
256,192,62354,1,0,0:0:0:0:
256,192,62610,1,12,0:0:0:0:
256,192,62995,1,0,0:0:0:0:
256,192,63252,1,0,0:0:0:0:
256,192,63380,1,8,0:0:0:0:
256,192,63444,1,0,0:0:0:0:
256,192,63508,1,0,0:0:0:0:
256,192,63572,1,0,0:0:0:0:
256,192,63636,1,8,0:0:0:0:
256,192,63764,1,0,0:0:0:0:
256,192,63893,1,8,0:0:0:0:
256,192,63957,1,8,0:0:0:0:
256,192,64021,1,0,0:0:0:0:
256,192,64085,1,0,0:0:0:0:
256,192,64149,1,8,0:0:0:0:
256,192,64405,1,0,0:0:0:0:
256,192,64662,1,12,0:0:0:0:
256,192,64918,1,0,0:0:0:0:
256,192,65046,1,0,0:0:0:0:
256,192,65175,1,8,0:0:0:0:
256,192,65303,1,8,0:0:0:0:
256,192,65431,1,0,0:0:0:0:
256,192,65495,1,0,0:0:0:0:
256,192,65559,1,0,0:0:0:0:
256,192,65623,1,0,0:0:0:0:
256,192,65688,1,8,0:0:0:0:
256,192,65816,1,0,0:0:0:0:
256,192,65944,1,8,0:0:0:0:
256,192,66008,1,8,0:0:0:0:
256,192,66072,1,0,0:0:0:0:
256,192,66200,1,8,0:0:0:0:
256,192,66329,1,8,0:0:0:0:
256,192,66457,1,0,0:0:0:0:
256,192,66521,1,0,0:0:0:0:
256,192,66585,1,0,0:0:0:0:
256,192,66713,1,8,0:0:0:0:
256,192,66841,1,0,0:0:0:0:
256,192,66970,1,8,0:0:0:0:
256,192,67034,1,0,0:0:0:0:
256,192,67098,1,8,0:0:0:0:
256,192,67226,1,0,0:0:0:0:
256,192,67354,1,8,0:0:0:0:
256,192,67482,1,0,0:0:0:0:
256,192,67546,1,0,0:0:0:0:
256,192,67611,1,8,0:0:0:0:
256,192,67739,1,0,0:0:0:0:
256,192,67803,1,0,0:0:0:0:
256,192,67867,1,0,0:0:0:0:
256,192,67995,1,8,0:0:0:0:
256,192,68123,1,0,0:0:0:0:
256,192,68252,1,8,0:0:0:0:
256,192,68316,1,8,0:0:0:0:
256,192,68380,1,0,0:0:0:0:
256,192,68508,1,8,0:0:0:0:
256,192,68572,1,8,0:0:0:0:
256,192,68636,1,8,0:0:0:0:
256,192,68764,1,0,0:0:0:0:
256,192,68893,1,8,0:0:0:0:
256,192,69021,1,0,0:0:0:0:
256,192,69085,1,0,0:0:0:0:
256,192,69149,1,0,0:0:0:0:
256,192,69277,1,8,0:0:0:0:
256,192,69341,1,8,0:0:0:0:
256,192,69405,1,0,0:0:0:0:
256,192,69534,1,8,0:0:0:0:
256,192,69662,1,8,0:0:0:0:
256,192,69790,1,4,0:0:0:0:
256,192,70046,1,8,0:0:0:0:
256,192,70111,1,0,0:0:0:0:
256,192,70175,1,8,0:0:0:0:
256,192,70239,1,0,0:0:0:0:
256,192,70303,1,8,0:0:0:0:
256,192,70367,1,8,0:0:0:0:
256,192,70431,1,0,0:0:0:0:
256,192,70495,1,0,0:0:0:0:
256,192,70559,1,8,0:0:0:0:
256,192,70623,1,0,0:0:0:0:
256,192,70688,1,8,0:0:0:0:
256,192,70752,1,0,0:0:0:0:
256,192,70816,1,8,0:0:0:0:
256,192,70880,1,8,0:0:0:0:
256,192,70944,1,0,0:0:0:0:
256,192,71008,1,0,0:0:0:0:
256,192,71072,1,8,0:0:0:0:
256,192,71136,1,8,0:0:0:0:
256,192,71200,1,0,0:0:0:0:
256,192,71264,1,0,0:0:0:0:
256,192,71329,1,8,0:0:0:0:
256,192,71393,1,0,0:0:0:0:
256,192,71457,1,8,0:0:0:0:
256,192,71521,1,0,0:0:0:0:
256,192,71585,1,8,0:0:0:0:
256,192,71649,1,0,0:0:0:0:
256,192,71713,1,8,0:0:0:0:
256,192,71777,1,8,0:0:0:0:
256,192,71841,1,0,0:0:0:0:
256,192,71970,1,0,0:0:0:0:
256,192,72098,1,8,0:0:0:0:
256,192,72226,1,0,0:0:0:0:
256,192,72354,1,8,0:0:0:0:
256,192,72482,1,8,0:0:0:0:
256,192,72611,1,0,0:0:0:0:
256,192,72739,1,0,0:0:0:0:
256,192,72867,1,8,0:0:0:0:
256,192,72931,1,8,0:0:0:0:
256,192,72995,1,0,0:0:0:0:
256,192,73123,1,8,0:0:0:0:
256,192,73252,1,0,0:0:0:0:
256,192,73380,1,8,0:0:0:0:
256,192,73444,1,0,0:0:0:0:
256,192,73508,1,8,0:0:0:0:
256,192,73572,1,8,0:0:0:0:
256,192,73636,1,0,0:0:0:0:
256,192,73700,1,0,0:0:0:0:
256,192,73764,1,8,0:0:0:0:
256,192,73829,1,0,0:0:0:0:
256,192,73893,1,8,0:0:0:0:
256,192,74149,1,8,0:0:0:0:
256,192,74213,1,8,0:0:0:0:
256,192,74277,1,8,0:0:0:0:
256,192,74405,1,0,0:0:0:0:
256,192,74534,1,0,0:0:0:0:
256,192,74662,1,8,0:0:0:0:
256,192,74726,1,8,0:0:0:0:
256,192,74790,1,8,0:0:0:0:
256,192,74918,1,0,0:0:0:0:
256,192,75046,1,0,0:0:0:0:
256,192,75175,1,8,0:0:0:0:
256,192,75239,1,8,0:0:0:0:
256,192,75303,1,0,0:0:0:0:
256,192,75367,1,0,0:0:0:0:
256,192,75431,1,8,0:0:0:0:
256,192,75495,1,8,0:0:0:0:
256,192,75559,1,0,0:0:0:0:
256,192,75623,1,0,0:0:0:0:
256,192,75688,1,8,0:0:0:0:
256,192,75752,1,8,0:0:0:0:
256,192,75816,1,0,0:0:0:0:
256,192,75880,1,0,0:0:0:0:
256,192,75944,1,8,0:0:0:0:
256,192,76008,1,0,0:0:0:0:
256,192,76072,1,8,0:0:0:0:
256,192,76200,1,0,0:0:0:0:
256,192,76329,1,0,0:0:0:0:
256,192,76457,1,8,0:0:0:0:
256,192,76521,1,8,0:0:0:0:
256,192,76585,1,0,0:0:0:0:
256,192,76713,1,8,0:0:0:0:
256,192,76841,1,0,0:0:0:0:
256,192,76970,1,8,0:0:0:0:
256,192,77055,1,8,0:0:0:0:
256,192,77141,1,0,0:0:0:0:
256,192,77226,1,8,0:0:0:0:
256,192,77311,1,0,0:0:0:0:
256,192,77397,1,0,0:0:0:0:
256,192,77482,1,8,0:0:0:0:
256,192,77568,1,8,0:0:0:0:
256,192,77653,1,0,0:0:0:0:
256,192,77739,1,8,0:0:0:0:
256,192,77824,1,0,0:0:0:0:
256,192,77910,1,0,0:0:0:0:
256,192,77995,1,12,0:0:0:0:
256,192,78252,1,8,0:0:0:0:
256,192,78380,1,8,0:0:0:0:
256,192,78508,1,0,0:0:0:0:
256,192,78572,1,0,0:0:0:0:
256,192,78636,1,0,0:0:0:0:
256,192,78764,1,8,0:0:0:0:
256,192,78893,1,0,0:0:0:0:
256,192,79277,1,8,0:0:0:0:
256,192,79405,1,8,0:0:0:0:
256,192,79534,1,0,0:0:0:0:
256,192,79598,1,0,0:0:0:0:
256,192,79662,1,0,0:0:0:0:
256,192,79790,1,8,0:0:0:0:
256,192,79918,1,0,0:0:0:0:
256,192,80046,1,12,0:0:0:0:
256,192,80303,1,0,0:0:0:0:
256,192,80431,1,0,0:0:0:0:
256,192,80559,1,8,0:0:0:0:
256,192,80623,1,8,0:0:0:0:
256,192,80688,1,8,0:0:0:0:
256,192,80816,1,0,0:0:0:0:
256,192,80944,1,8,0:0:0:0:
256,192,82098,1,12,0:0:0:0:
256,192,82482,1,0,0:0:0:0:
256,192,82611,1,8,0:0:0:0:
256,192,82867,1,0,0:0:0:0:
256,192,82995,1,0,0:0:0:0:
256,192,83252,1,0,0:0:0:0:
256,192,83508,1,0,0:0:0:0:
256,192,83636,1,8,0:0:0:0:
256,192,83764,1,8,0:0:0:0:
256,192,83893,1,0,0:0:0:0:
256,192,83957,1,0,0:0:0:0:
256,192,84021,1,0,0:0:0:0:
256,192,84085,1,0,0:0:0:0:
256,192,84149,1,12,0:0:0:0:
256,192,84534,1,0,0:0:0:0:
256,192,84662,1,8,0:0:0:0:
256,192,84918,1,0,0:0:0:0:
256,192,85175,1,8,0:0:0:0:
256,192,85239,1,8,0:0:0:0:
256,192,85303,1,0,0:0:0:0:
256,192,85431,1,8,0:0:0:0:
256,192,85559,1,8,0:0:0:0:
256,192,85688,1,0,0:0:0:0:
256,192,85816,1,0,0:0:0:0:
256,192,85944,1,8,0:0:0:0:
256,192,86072,1,0,0:0:0:0:
256,192,86200,1,12,0:0:0:0:
256,192,86585,1,0,0:0:0:0:
256,192,86713,1,0,0:0:0:0:
256,192,86970,1,0,0:0:0:0:
256,192,87226,1,8,0:0:0:0:
256,192,87354,1,0,0:0:0:0:
256,192,87739,1,0,0:0:0:0:
256,192,87867,1,0,0:0:0:0:
256,192,87995,1,0,0:0:0:0:
256,192,88123,1,0,0:0:0:0:
256,192,88252,1,12,0:0:0:0:
256,192,88636,1,0,0:0:0:0:
256,192,88764,1,0,0:0:0:0:
256,192,89021,1,0,0:0:0:0:
256,192,89277,1,8,0:0:0:0:
256,192,89405,1,0,0:0:0:0:
256,192,89662,1,0,0:0:0:0:
256,192,89790,1,8,0:0:0:0:
256,192,89918,1,8,0:0:0:0:
256,192,90046,1,0,0:0:0:0:
256,192,90111,1,0,0:0:0:0:
256,192,90175,1,8,0:0:0:0:
256,192,90239,1,8,0:0:0:0:
256,192,90303,1,4,0:0:0:0:
256,192,90688,1,0,0:0:0:0:
256,192,90816,1,0,0:0:0:0:
256,192,91072,1,0,0:0:0:0:
256,192,91329,1,8,0:0:0:0:
256,192,91457,1,0,0:0:0:0:
256,192,91585,1,8,0:0:0:0:
256,192,91649,1,0,0:0:0:0:
256,192,91713,1,8,0:0:0:0:
256,192,91777,1,0,0:0:0:0:
256,192,91841,1,8,0:0:0:0:
256,192,91905,1,0,0:0:0:0:
256,192,91970,1,8,0:0:0:0:
256,192,92034,1,0,0:0:0:0:
256,192,92098,1,8,0:0:0:0:
256,192,92162,1,0,0:0:0:0:
256,192,92226,1,8,0:0:0:0:
256,192,92290,1,8,0:0:0:0:
256,192,92354,1,4,0:0:0:0:
256,192,92739,1,0,0:0:0:0:
256,192,92867,1,0,0:0:0:0:
256,192,93123,1,0,0:0:0:0:
256,192,93380,1,8,0:0:0:0:
256,192,93508,1,0,0:0:0:0:
256,192,93893,1,0,0:0:0:0:
256,192,94021,1,0,0:0:0:0:
256,192,94149,1,8,0:0:0:0:
256,192,94277,1,0,0:0:0:0:
256,192,94405,1,12,0:0:0:0:
256,192,94790,1,0,0:0:0:0:
256,192,95175,1,0,0:0:0:0:
256,192,95431,1,8,0:0:0:0:
256,192,95559,1,8,0:0:0:0:
256,192,95688,1,0,0:0:0:0:
256,192,95816,1,8,0:0:0:0:
256,192,95944,1,0,0:0:0:0:
256,192,96072,1,0,0:0:0:0:
256,192,96200,1,8,0:0:0:0:
256,192,96329,1,0,0:0:0:0:
256,192,96457,1,12,0:0:0:0:
256,192,96841,1,0,0:0:0:0:
256,192,97226,1,0,0:0:0:0:
256,192,97482,1,8,0:0:0:0:
256,192,97546,1,8,0:0:0:0:
256,192,97611,1,8,0:0:0:0:
256,192,97675,1,8,0:0:0:0:
256,192,97739,1,0,0:0:0:0:
256,192,97803,1,0,0:0:0:0:
256,192,97867,1,0,0:0:0:0:
256,192,97931,1,0,0:0:0:0:
256,192,97995,1,8,0:0:0:0:
256,192,98059,1,8,0:0:0:0:
256,192,98123,1,0,0:0:0:0:
256,192,98188,1,0,0:0:0:0:
256,192,98252,1,8,0:0:0:0:
256,192,98316,1,8,0:0:0:0:
256,192,98380,1,0,0:0:0:0:
256,192,98444,1,0,0:0:0:0:
256,192,98508,1,12,0:0:0:0:
256,192,98764,1,0,0:0:0:0:
256,192,98893,1,0,0:0:0:0:
256,192,99021,1,8,0:0:0:0:
256,192,99149,1,0,0:0:0:0:
256,192,99277,1,8,0:0:0:0:
256,192,99405,1,8,0:0:0:0:
256,192,99534,1,4,0:0:0:0:
256,192,99662,1,8,0:0:0:0:
256,192,99790,1,0,0:0:0:0:
256,192,99918,1,0,0:0:0:0:
256,192,100046,1,8,0:0:0:0:
256,192,100175,1,8,0:0:0:0:
256,192,100303,1,0,0:0:0:0:
256,192,100431,1,8,0:0:0:0:
256,192,100559,1,4,0:0:0:0:
256,192,100816,1,8,0:0:0:0:
256,192,100944,1,0,0:0:0:0:
256,192,101072,1,8,0:0:0:0:
256,192,101200,1,8,0:0:0:0:
256,192,101329,1,0,0:0:0:0:
256,192,101457,1,8,0:0:0:0:
256,192,101585,1,4,0:0:0:0:
256,192,101713,1,0,0:0:0:0:
256,192,101841,1,0,0:0:0:0:
256,192,101970,1,8,0:0:0:0:
256,192,102098,1,4,0:0:0:0:
256,192,102226,1,0,0:0:0:0:
256,192,102354,1,8,0:0:0:0:
256,192,102482,1,8,0:0:0:0:
256,192,102611,1,4,0:0:0:0:
256,192,102867,1,8,0:0:0:0:
256,192,102995,1,8,0:0:0:0:
256,192,103123,1,0,0:0:0:0:
256,192,103252,1,8,0:0:0:0:
256,192,103380,1,0,0:0:0:0:
256,192,103508,1,8,0:0:0:0:
256,192,103636,1,4,0:0:0:0:
256,192,103764,1,8,0:0:0:0:
256,192,103893,1,8,0:0:0:0:
256,192,104021,1,0,0:0:0:0:
256,192,104149,1,8,0:0:0:0:
256,192,104277,1,0,0:0:0:0:
256,192,104405,1,8,0:0:0:0:
256,192,104470,1,8,0:0:0:0:
256,192,104534,1,0,0:0:0:0:
256,192,104598,1,0,0:0:0:0:
256,192,104662,1,12,0:0:0:0:
256,192,104918,1,0,0:0:0:0:
256,192,105046,1,8,0:0:0:0:
256,192,105175,1,0,0:0:0:0:
256,192,105303,1,0,0:0:0:0:
256,192,105431,1,8,0:0:0:0:
256,192,105559,1,0,0:0:0:0:
256,192,105688,1,12,0:0:0:0:
256,192,105816,1,8,0:0:0:0:
256,192,105944,1,0,0:0:0:0:
256,192,106072,1,12,0:0:0:0:
256,192,106200,1,0,0:0:0:0:
256,192,106329,1,0,0:0:0:0:
256,192,106457,1,8,0:0:0:0:
256,192,106585,1,8,0:0:0:0:
256,192,106713,1,0,0:0:0:0:
256,192,107098,1,0,0:0:0:0:
256,192,107482,1,0,0:0:0:0:
256,192,107739,1,12,0:0:0:0:
256,192,107995,1,0,0:0:0:0:
256,192,108123,1,8,0:0:0:0:
256,192,108252,1,0,0:0:0:0:
256,192,108380,1,0,0:0:0:0:
256,192,108508,1,8,0:0:0:0:
256,192,108636,1,0,0:0:0:0:
256,192,108764,1,8,0:0:0:0:
256,192,109149,1,0,0:0:0:0:
256,192,109534,1,0,0:0:0:0:
256,192,109790,1,12,0:0:0:0:
256,192,109918,1,0,0:0:0:0:
256,192,110046,1,8,0:0:0:0:
256,192,110175,1,0,0:0:0:0:
256,192,110303,1,8,0:0:0:0:
256,192,110431,1,8,0:0:0:0:
256,192,110559,1,0,0:0:0:0:
256,192,110688,1,8,0:0:0:0:
256,192,110816,1,4,0:0:0:0:
256,192,111072,1,8,0:0:0:0:
256,192,111200,1,8,0:0:0:0:
256,192,111457,1,0,0:0:0:0:
256,192,111585,1,0,0:0:0:0:
256,192,111841,1,12,0:0:0:0:
256,192,112226,1,0,0:0:0:0:
256,192,112611,1,0,0:0:0:0:
256,192,112675,1,0,0:0:0:0:
256,192,112739,1,0,0:0:0:0:
256,192,112803,1,0,0:0:0:0:
256,192,112867,1,8,0:0:0:0:
256,192,112995,1,0,0:0:0:0:
256,192,113123,1,8,0:0:0:0:
256,192,113188,1,8,0:0:0:0:
256,192,113252,1,0,0:0:0:0:
256,192,113316,1,0,0:0:0:0:
256,192,113380,1,8,0:0:0:0:
256,192,113636,1,0,0:0:0:0:
256,192,113893,1,12,0:0:0:0:
256,192,114149,1,0,0:0:0:0:
256,192,114277,1,0,0:0:0:0:
256,192,114405,1,8,0:0:0:0:
256,192,114534,1,0,0:0:0:0:
256,192,114662,1,8,0:0:0:0:
256,192,114726,1,8,0:0:0:0:
256,192,114790,1,8,0:0:0:0:
256,192,114854,1,8,0:0:0:0:
256,192,114918,1,4,0:0:0:0:
256,192,115431,5,0,0:0:0:0:
256,192,115688,1,0,0:0:0:0:
256,192,115944,1,8,0:0:0:0:
256,192,116200,1,0,0:0:0:0:
256,192,116457,1,0,0:0:0:0:
256,192,116713,1,0,0:0:0:0:
256,192,116970,1,8,0:0:0:0:
256,192,117226,1,0,0:0:0:0:
256,192,117290,1,0,0:0:0:0:
256,192,117354,1,0,0:0:0:0:
256,192,117418,1,0,0:0:0:0:
256,192,117482,1,0,0:0:0:0:
256,192,117739,1,0,0:0:0:0:
256,192,117995,1,8,0:0:0:0:
256,192,118252,1,0,0:0:0:0:
256,192,118316,1,0,0:0:0:0:
256,192,118380,1,0,0:0:0:0:
256,192,118444,1,0,0:0:0:0:
256,192,118508,1,8,0:0:0:0:
256,192,118764,1,8,0:0:0:0:
256,192,119021,1,4,0:0:0:0:
256,192,119534,1,0,0:0:0:0:
256,192,119790,1,0,0:0:0:0:
256,192,120046,1,8,0:0:0:0:
256,192,120303,1,0,0:0:0:0:
256,192,120559,1,0,0:0:0:0:
256,192,120816,1,0,0:0:0:0:
256,192,121072,1,8,0:0:0:0:
64,320,121329,1,0,0:0:0:0:
480,224,121393,1,0,0:0:0:0:
32,160,121457,1,0,0:0:0:0:
512,96,121521,1,0,0:0:0:0:
0,0,121585,1,0,0:0:0:0:
256,192,121841,1,0,0:0:0:0:
256,192,122098,1,8,0:0:0:0:
256,192,122354,1,0,0:0:0:0:
256,192,122611,1,8,0:0:0:0:
256,192,123123,1,0,0:0:0:0:
256,192,123252,1,0,0:0:0:0:
256,192,123380,1,0,0:0:0:0:
256,192,123508,1,8,0:0:0:0:
256,192,123893,1,0,0:0:0:0:
256,192,124021,1,0,0:0:0:0:
256,192,124149,1,0,0:0:0:0:
256,192,124277,1,8,0:0:0:0:
256,192,124662,1,8,0:0:0:0:
256,192,124790,1,8,0:0:0:0:
256,192,124918,1,0,0:0:0:0:
256,192,125046,1,8,0:0:0:0:
256,192,125175,1,0,0:0:0:0:
256,192,125303,1,0,0:0:0:0:
256,192,125431,1,0,0:0:0:0:
256,192,125559,1,8,0:0:0:0:
256,192,125944,1,0,0:0:0:0:
256,192,126072,1,0,0:0:0:0:
256,192,126200,1,0,0:0:0:0:
256,192,126329,1,8,0:0:0:0:
256,192,126713,1,8,0:0:0:0:
256,192,126841,1,0,0:0:0:0:
256,192,126970,1,8,0:0:0:0:
256,192,127098,1,8,0:0:0:0:
256,192,127226,1,0,0:0:0:0:
256,192,127354,1,0,0:0:0:0:
256,192,127482,1,0,0:0:0:0:
256,192,127611,1,8,0:0:0:0:
256,192,127995,1,0,0:0:0:0:
256,192,128123,1,0,0:0:0:0:
256,192,128252,1,0,0:0:0:0:
256,192,128380,1,8,0:0:0:0:
256,192,128764,1,8,0:0:0:0:
256,192,128893,1,8,0:0:0:0:
256,192,129021,1,0,0:0:0:0:
256,192,129149,1,0,0:0:0:0:
256,192,129277,1,8,0:0:0:0:
256,192,129341,1,8,0:0:0:0:
256,192,129405,1,0,0:0:0:0:
256,192,129534,1,8,0:0:0:0:
256,192,129662,1,0,0:0:0:0:
256,192,129790,1,8,0:0:0:0:
256,192,129918,1,8,0:0:0:0:
256,192,130046,1,0,0:0:0:0:
256,192,130175,1,8,0:0:0:0:
256,192,130303,1,0,0:0:0:0:
256,192,130431,1,0,0:0:0:0:
256,192,130559,1,8,0:0:0:0:
256,192,130688,1,0,0:0:0:0:
256,192,130816,1,8,0:0:0:0:
256,192,130880,1,0,0:0:0:0:
256,192,130944,1,8,0:0:0:0:
256,192,131008,1,0,0:0:0:0:
256,192,131072,1,8,0:0:0:0:
256,192,131136,1,8,0:0:0:0:
256,192,131200,1,0,0:0:0:0:
256,192,131264,1,0,0:0:0:0:
256,192,131329,1,8,0:0:0:0:
256,192,131457,1,0,0:0:0:0:
256,192,131585,1,0,0:0:0:0:
256,192,131713,1,8,0:0:0:0:
256,192,132098,1,0,0:0:0:0:
256,192,132226,1,0,0:0:0:0:
256,192,132354,1,0,0:0:0:0:
256,192,132482,1,8,0:0:0:0:
256,192,132867,1,8,0:0:0:0:
256,192,132995,1,0,0:0:0:0:
256,192,133123,1,8,0:0:0:0:
256,192,133252,1,8,0:0:0:0:
256,192,133380,1,0,0:0:0:0:
256,192,133508,1,0,0:0:0:0:
256,192,133636,1,0,0:0:0:0:
256,192,133764,1,8,0:0:0:0:
256,192,134021,1,8,0:0:0:0:
256,192,134149,1,0,0:0:0:0:
256,192,134277,1,0,0:0:0:0:
256,192,134405,1,8,0:0:0:0:
256,192,134491,1,8,0:0:0:0:
256,192,134576,1,0,0:0:0:0:
256,192,134662,1,8,0:0:0:0:
256,192,134747,1,0,0:0:0:0:
256,192,134833,1,0,0:0:0:0:
256,192,134918,1,8,0:0:0:0:
256,192,135004,1,8,0:0:0:0:
256,192,135089,1,0,0:0:0:0:
256,192,135175,1,8,0:0:0:0:
256,192,135260,1,0,0:0:0:0:
256,192,135346,1,0,0:0:0:0:
256,192,135431,1,12,0:0:0:0:
256,192,135559,1,0,0:0:0:0:
256,192,135688,1,0,0:0:0:0:
256,192,135816,1,8,0:0:0:0:
256,192,136200,1,0,0:0:0:0:
256,192,136329,1,0,0:0:0:0:
256,192,136457,1,0,0:0:0:0:
256,192,136585,1,8,0:0:0:0:
256,192,136970,1,8,0:0:0:0:
256,192,137098,1,8,0:0:0:0:
256,192,137226,1,0,0:0:0:0:
256,192,137354,1,0,0:0:0:0:
256,192,137482,1,8,0:0:0:0:
256,192,137611,1,8,0:0:0:0:
256,192,137739,1,0,0:0:0:0:
256,192,137867,1,8,0:0:0:0:
256,192,137995,1,0,0:0:0:0:
256,192,138059,1,0,0:0:0:0:
256,192,138123,1,0,0:0:0:0:
256,192,138252,1,8,0:0:0:0:
256,192,138380,1,0,0:0:0:0:
256,192,138508,1,8,0:0:0:0:
256,192,138636,1,0,0:0:0:0:
256,192,138764,1,0,0:0:0:0:
256,192,138893,1,8,0:0:0:0:
256,192,139021,1,0,0:0:0:0:
256,192,139085,1,0,0:0:0:0:
256,192,139149,1,0,0:0:0:0:
256,192,139277,1,8,0:0:0:0:
256,192,139405,1,0,0:0:0:0:
256,192,139534,1,12,0:0:0:0:
256,192,139662,1,0,0:0:0:0:
256,192,139918,1,0,0:0:0:0:
256,192,140175,1,0,0:0:0:0:
256,192,140303,1,0,0:0:0:0:
256,192,140431,1,0,0:0:0:0:
256,192,140559,1,8,0:0:0:0:
256,192,140688,1,8,0:0:0:0:
256,192,140816,1,0,0:0:0:0:
256,192,140944,1,0,0:0:0:0:
256,192,141072,1,8,0:0:0:0:
256,192,141200,1,0,0:0:0:0:
256,192,141329,1,8,0:0:0:0:
256,192,141457,1,8,0:0:0:0:
256,192,141585,1,4,0:0:0:0:
256,192,141713,1,0,0:0:0:0:
256,192,141970,1,0,0:0:0:0:
256,192,142226,1,0,0:0:0:0:
256,192,142354,1,0,0:0:0:0:
256,192,142482,1,8,0:0:0:0:
256,192,142611,1,8,0:0:0:0:
256,192,142739,1,0,0:0:0:0:
256,192,142867,1,8,0:0:0:0:
256,192,142995,1,0,0:0:0:0:
256,192,143123,1,8,0:0:0:0:
256,192,143252,1,8,0:0:0:0:
256,192,143380,1,0,0:0:0:0:
256,192,143444,1,0,0:0:0:0:
256,192,143508,1,8,0:0:0:0:
256,192,143572,1,8,0:0:0:0:
256,192,143636,1,4,0:0:0:0:
256,192,143764,1,0,0:0:0:0:
256,192,144021,1,0,0:0:0:0:
256,192,144277,1,0,0:0:0:0:
256,192,144405,1,8,0:0:0:0:
256,192,144534,1,0,0:0:0:0:
256,192,144662,1,0,0:0:0:0:
256,192,144790,1,8,0:0:0:0:
256,192,145046,1,8,0:0:0:0:
256,192,145303,1,0,0:0:0:0:
256,192,145431,1,8,0:0:0:0:
256,192,145559,1,8,0:0:0:0:
256,192,145688,1,4,0:0:0:0:
256,192,145816,1,0,0:0:0:0:
256,192,146072,1,0,0:0:0:0:
256,192,146329,1,8,0:0:0:0:
256,192,146457,1,0,0:0:0:0:
256,192,146521,1,0,0:0:0:0:
256,192,146585,1,0,0:0:0:0:
256,192,146649,1,0,0:0:0:0:
256,192,146713,1,12,0:0:0:0:
256,192,146841,1,8,0:0:0:0:
256,192,147098,1,0,0:0:0:0:
256,192,147354,1,8,0:0:0:0:
256,192,147482,1,0,0:0:0:0:
256,192,147546,1,0,0:0:0:0:
256,192,147611,1,8,0:0:0:0:
256,192,147675,1,8,0:0:0:0:
256,192,147739,1,4,0:0:0:0:
256,192,147867,1,0,0:0:0:0:
256,192,148123,1,0,0:0:0:0:
256,192,148252,1,8,0:0:0:0:
256,192,148380,1,0,0:0:0:0:
256,192,148508,1,0,0:0:0:0:
256,192,148893,1,0,0:0:0:0:
256,192,149277,1,8,0:0:0:0:
256,192,149534,1,0,0:0:0:0:
256,192,149662,1,0,0:0:0:0:
256,192,149790,1,12,0:0:0:0:
256,192,150175,1,0,0:0:0:0:
256,192,150303,1,8,0:0:0:0:
256,192,150559,1,0,0:0:0:0:
256,192,150944,1,0,0:0:0:0:
256,192,151329,1,8,0:0:0:0:
256,192,151585,1,8,0:0:0:0:
256,192,151713,1,8,0:0:0:0:
256,192,151841,1,4,0:0:0:0:
256,192,152226,1,0,0:0:0:0:
256,192,152354,1,8,0:0:0:0:
256,192,152611,1,0,0:0:0:0:
256,192,152995,1,0,0:0:0:0:
256,192,153380,1,0,0:0:0:0:
256,192,153636,1,0,0:0:0:0:
256,192,153764,1,0,0:0:0:0:
256,192,153893,1,12,0:0:0:0:
256,192,154021,1,0,0:0:0:0:
256,192,154277,1,0,0:0:0:0:
256,192,154405,1,8,0:0:0:0:
256,192,154534,1,0,0:0:0:0:
256,192,154662,1,0,0:0:0:0:
256,192,154918,1,0,0:0:0:0:
256,192,155046,1,0,0:0:0:0:
256,192,155303,1,0,0:0:0:0:
256,192,155431,1,8,0:0:0:0:
256,192,155559,1,0,0:0:0:0:
256,192,155688,1,8,0:0:0:0:
256,192,155816,1,8,0:0:0:0:
256,192,155944,1,4,0:0:0:0:
256,192,156200,1,8,0:0:0:0:
256,192,156329,1,4,0:0:0:0:
256,192,156585,1,0,0:0:0:0:
256,192,156713,1,12,0:0:0:0:
256,192,156970,1,0,0:0:0:0:
256,192,157226,1,8,0:0:0:0:
256,192,157354,1,0,0:0:0:0:
256,192,157482,1,8,0:0:0:0:
256,192,157611,1,8,0:0:0:0:
256,192,157739,1,0,0:0:0:0:
256,192,157867,1,0,0:0:0:0:
256,192,157995,1,12,0:0:0:0:
256,192,158252,1,8,0:0:0:0:
256,192,158380,1,4,0:0:0:0:
256,192,158636,1,0,0:0:0:0:
256,192,158764,1,12,0:0:0:0:
256,192,159021,1,0,0:0:0:0:
256,192,159277,1,8,0:0:0:0:
256,192,159405,1,0,0:0:0:0:
256,192,159534,1,8,0:0:0:0:
256,192,159598,1,8,0:0:0:0:
256,192,159662,1,0,0:0:0:0:
256,192,159726,1,0,0:0:0:0:
256,192,159790,1,8,0:0:0:0:
256,192,159854,1,8,0:0:0:0:
256,192,159918,1,0,0:0:0:0:
256,192,159982,1,0,0:0:0:0:
256,192,160046,1,12,0:0:0:0:
256,192,160303,1,8,0:0:0:0:
256,192,160367,1,8,0:0:0:0:
256,192,160431,1,0,0:0:0:0:
256,192,160495,1,0,0:0:0:0:
256,192,160559,1,8,0:0:0:0:
256,192,160623,1,8,0:0:0:0:
256,192,160688,1,0,0:0:0:0:
256,192,160752,1,0,0:0:0:0:
256,192,160816,1,8,0:0:0:0:
256,192,160880,1,0,0:0:0:0:
256,192,160944,1,8,0:0:0:0:
256,192,161008,1,0,0:0:0:0:
256,192,161072,1,8,0:0:0:0:
256,192,161136,1,8,0:0:0:0:
256,192,161200,1,0,0:0:0:0:
256,192,161264,1,0,0:0:0:0:
256,192,161329,1,8,0:0:0:0:
256,192,161393,1,8,0:0:0:0:
256,192,161457,1,0,0:0:0:0:
256,192,161521,1,0,0:0:0:0:
256,192,161585,1,8,0:0:0:0:
256,192,161649,1,0,0:0:0:0:
256,192,161713,1,8,0:0:0:0:
256,192,161777,1,0,0:0:0:0:
256,192,161841,1,8,0:0:0:0:
256,192,161905,1,8,0:0:0:0:
256,192,161970,1,0,0:0:0:0:
256,192,162034,1,0,0:0:0:0:
256,192,162098,1,8,0:0:0:0:
256,192,162226,1,0,0:0:0:0:
256,192,162354,1,0,0:0:0:0:
256,192,162482,1,8,0:0:0:0:
256,192,162611,1,0,0:0:0:0:
256,192,162739,1,0,0:0:0:0:
256,192,162867,1,8,0:0:0:0:
256,192,162995,1,0,0:0:0:0:
256,192,163123,1,8,0:0:0:0:
256,192,163252,1,0,0:0:0:0:
256,192,163380,1,0,0:0:0:0:
256,192,163508,1,8,0:0:0:0:
256,192,163636,1,0,0:0:0:0:
256,192,163764,1,0,0:0:0:0:
256,192,163893,1,8,0:0:0:0:
256,192,164021,1,0,0:0:0:0:
256,192,164149,1,12,0:0:0:0:
256,192,164405,1,8,0:0:0:0:
256,192,164534,1,0,0:0:0:0:
256,192,164662,1,8,0:0:0:0:
256,192,164790,1,8,0:0:0:0:
256,192,164918,1,0,0:0:0:0:
256,192,165046,1,8,0:0:0:0:
256,192,165175,1,4,0:0:0:0:
256,192,165303,1,0,0:0:0:0:
256,192,165431,1,8,0:0:0:0:
256,192,165559,1,0,0:0:0:0:
256,192,165688,1,8,0:0:0:0:
256,192,165816,1,8,0:0:0:0:
256,192,165944,1,0,0:0:0:0:
256,192,166072,1,8,0:0:0:0:
256,192,166200,1,4,0:0:0:0:
256,192,166457,1,8,0:0:0:0:
256,192,166585,1,0,0:0:0:0:
256,192,166713,1,8,0:0:0:0:
256,192,166841,1,8,0:0:0:0:
256,192,166970,1,0,0:0:0:0:
256,192,167098,1,8,0:0:0:0:
256,192,167226,1,4,0:0:0:0:
256,192,167354,1,0,0:0:0:0:
256,192,167482,1,0,0:0:0:0:
256,192,167611,1,0,0:0:0:0:
256,192,167739,1,12,0:0:0:0:
256,192,167867,1,0,0:0:0:0:
256,192,167995,1,8,0:0:0:0:
256,192,168123,1,8,0:0:0:0:
256,192,168252,1,4,0:0:0:0:
256,192,168508,1,8,0:0:0:0:
256,192,168636,1,8,0:0:0:0:
256,192,168764,1,0,0:0:0:0:
256,192,168893,1,0,0:0:0:0:
256,192,169021,1,8,0:0:0:0:
256,192,169149,1,0,0:0:0:0:
256,192,169277,1,12,0:0:0:0:
256,192,169405,1,0,0:0:0:0:
256,192,169534,1,8,0:0:0:0:
256,192,169662,1,8,0:0:0:0:
256,192,169790,1,0,0:0:0:0:
256,192,169918,1,8,0:0:0:0:
256,192,170046,1,0,0:0:0:0:
256,192,170111,1,0,0:0:0:0:
256,192,170175,1,8,0:0:0:0:
256,192,170239,1,8,0:0:0:0:
256,192,170303,1,4,0:0:0:0:
256,192,170559,1,8,0:0:0:0:
256,192,170688,1,0,0:0:0:0:
256,192,170816,1,8,0:0:0:0:
256,192,170944,1,8,0:0:0:0:
256,192,171072,1,0,0:0:0:0:
256,192,171200,1,0,0:0:0:0:
256,192,171329,1,12,0:0:0:0:
256,192,171457,1,0,0:0:0:0:
256,192,171585,1,0,0:0:0:0:
256,192,171713,1,12,0:0:0:0:
256,192,171841,1,0,0:0:0:0:
256,192,171970,1,0,0:0:0:0:
256,192,172098,1,8,0:0:0:0:
256,192,172226,1,8,0:0:0:0:
256,192,172354,1,0,0:0:0:0:
256,192,172739,1,0,0:0:0:0:
256,192,173123,1,0,0:0:0:0:
256,192,173380,1,12,0:0:0:0:
256,192,173636,1,0,0:0:0:0:
256,192,173764,1,8,0:0:0:0:
256,192,173893,1,0,0:0:0:0:
256,192,174021,1,8,0:0:0:0:
256,192,174149,1,8,0:0:0:0:
256,192,174277,1,0,0:0:0:0:
256,192,174405,1,8,0:0:0:0:
256,192,174790,1,0,0:0:0:0:
256,192,175175,1,0,0:0:0:0:
256,192,175431,1,12,0:0:0:0:
256,192,175559,1,0,0:0:0:0:
256,192,175688,1,8,0:0:0:0:
256,192,175816,1,8,0:0:0:0:
256,192,175944,1,0,0:0:0:0:
256,192,176072,1,0,0:0:0:0:
256,192,176200,1,8,0:0:0:0:
256,192,176329,1,0,0:0:0:0:
256,192,176457,1,12,0:0:0:0:
256,192,176713,1,0,0:0:0:0:
256,192,176841,1,0,0:0:0:0:
256,192,177098,1,0,0:0:0:0:
256,192,177226,1,0,0:0:0:0:
256,192,177482,1,12,0:0:0:0:
256,192,177867,1,0,0:0:0:0:
256,192,178123,1,0,0:0:0:0:
256,192,178252,1,8,0:0:0:0:
256,192,178316,1,0,0:0:0:0:
256,192,178380,1,0,0:0:0:0:
256,192,178444,1,0,0:0:0:0:
256,192,178508,1,8,0:0:0:0:
256,192,178636,1,0,0:0:0:0:
256,192,178764,1,8,0:0:0:0:
256,192,178829,1,8,0:0:0:0:
256,192,178893,1,0,0:0:0:0:
256,192,178957,1,0,0:0:0:0:
256,192,179021,1,8,0:0:0:0:
256,192,179277,1,0,0:0:0:0:
256,192,179534,1,12,0:0:0:0:
256,192,179790,1,0,0:0:0:0:
256,192,179918,1,0,0:0:0:0:
256,192,180046,1,8,0:0:0:0:
256,192,180175,1,8,0:0:0:0:
256,192,180303,1,0,0:0:0:0:
256,192,180367,1,0,0:0:0:0:
256,192,180431,1,0,0:0:0:0:
256,192,180495,1,0,0:0:0:0:
256,192,180559,1,12,0:0:0:0:
256,192,181329,1,0,0:0:0:0:
256,192,181457,1,0,0:0:0:0:
256,192,181585,1,8,0:0:0:0:
256,192,181713,1,8,0:0:0:0:
256,192,182098,1,8,0:0:0:0:
256,192,182226,1,0,0:0:0:0:
256,192,182354,1,8,0:0:0:0:
256,192,182482,1,0,0:0:0:0:
256,192,182611,1,8,0:0:0:0:
256,192,182739,1,0,0:0:0:0:
256,192,182867,1,0,0:0:0:0:
256,192,182995,1,8,0:0:0:0:
256,192,183380,1,8,0:0:0:0:
256,192,183508,1,8,0:0:0:0:
256,192,183636,1,0,0:0:0:0:
256,192,183764,1,8,0:0:0:0:
256,192,183893,1,0,0:0:0:0:
256,192,184021,1,0,0:0:0:0:
256,192,184149,1,8,0:0:0:0:
256,192,184235,1,8,0:0:0:0:
256,192,184320,1,0,0:0:0:0:
256,192,184405,1,8,0:0:0:0:
256,192,184491,1,0,0:0:0:0:
256,192,184576,1,0,0:0:0:0:
256,192,184662,1,8,0:0:0:0:
256,192,184790,1,0,0:0:0:0:
256,192,184918,1,0,0:0:0:0:
256,192,185046,1,8,0:0:0:0:
256,192,185431,1,8,0:0:0:0:
256,192,185559,1,8,0:0:0:0:
256,192,185688,1,8,0:0:0:0:
256,192,185816,1,0,0:0:0:0:
256,192,186200,1,8,0:0:0:0:
256,192,186329,1,8,0:0:0:0:
256,192,186457,1,0,0:0:0:0:
256,192,186585,1,0,0:0:0:0:
256,192,186713,1,8,0:0:0:0:
256,192,186841,1,0,0:0:0:0:
256,192,186970,1,8,0:0:0:0:
256,192,187098,1,8,0:0:0:0:
256,192,187226,1,0,0:0:0:0:
256,192,187354,1,8,0:0:0:0:
256,192,187482,1,0,0:0:0:0:
256,192,187611,1,0,0:0:0:0:
256,192,187739,1,8,0:0:0:0:
256,192,187824,1,0,0:0:0:0:
256,192,187910,1,8,0:0:0:0:
256,192,187995,1,0,0:0:0:0:
256,192,188081,1,8,0:0:0:0:
256,192,188166,1,0,0:0:0:0:
256,192,188252,1,8,0:0:0:0:
256,192,188337,1,8,0:0:0:0:
256,192,188423,1,0,0:0:0:0:
256,192,188508,1,0,0:0:0:0:
256,192,188594,1,8,0:0:0:0:
256,192,188679,1,0,0:0:0:0:
256,192,188764,1,8,0:0:0:0:
256,192,188893,1,0,0:0:0:0:
256,192,189021,1,0,0:0:0:0:
256,192,189149,1,0,0:0:0:0:
256,192,189534,1,8,0:0:0:0:
256,192,189662,1,8,0:0:0:0:
256,192,189790,1,0,0:0:0:0:
256,192,189918,1,0,0:0:0:0:
256,192,190303,1,8,0:0:0:0:
256,192,190431,1,8,0:0:0:0:
256,192,190559,1,0,0:0:0:0:
256,192,190688,1,0,0:0:0:0:
256,192,190816,1,8,0:0:0:0:
256,192,190944,1,0,0:0:0:0:
256,192,191072,1,8,0:0:0:0:
256,192,191200,1,8,0:0:0:0:
256,192,191585,1,8,0:0:0:0:
256,192,191713,1,8,0:0:0:0:
256,192,191841,1,0,0:0:0:0:
256,192,191970,1,8,0:0:0:0:
256,192,192098,1,0,0:0:0:0:
256,192,192226,1,0,0:0:0:0:
256,192,192354,1,8,0:0:0:0:
256,192,192440,1,8,0:0:0:0:
256,192,192525,1,0,0:0:0:0:
256,192,192611,1,8,0:0:0:0:
256,192,192696,1,0,0:0:0:0:
256,192,192782,1,0,0:0:0:0:
256,192,192867,1,8,0:0:0:0:
256,192,192995,1,0,0:0:0:0:
256,192,193123,1,8,0:0:0:0:
256,192,193252,1,0,0:0:0:0:
256,192,193636,1,8,0:0:0:0:
256,192,193764,1,8,0:0:0:0:
256,192,193893,1,8,0:0:0:0:
256,192,194021,1,8,0:0:0:0:
256,192,194405,1,0,0:0:0:0:
256,192,194534,1,0,0:0:0:0:
256,192,194662,1,0,0:0:0:0:
256,192,194790,1,0,0:0:0:0:
256,192,194918,1,8,0:0:0:0:
256,192,195046,1,0,0:0:0:0:
256,192,195175,1,8,0:0:0:0:
256,192,195303,1,8,0:0:0:0:
256,192,195431,1,0,0:0:0:0:
256,192,195559,1,8,0:0:0:0:
256,192,195688,1,0,0:0:0:0:
256,192,195816,1,0,0:0:0:0:
256,192,195944,1,8,0:0:0:0:
256,192,196029,1,8,0:0:0:0:
256,192,196115,1,0,0:0:0:0:
256,192,196200,1,8,0:0:0:0:
256,192,196286,1,0,0:0:0:0:
256,192,196371,1,0,0:0:0:0:
256,192,196457,1,8,0:0:0:0:
256,192,196542,1,0,0:0:0:0:
256,192,196628,1,8,0:0:0:0:
256,192,196713,1,8,0:0:0:0:
256,192,196799,1,0,0:0:0:0:
256,192,196884,1,8,0:0:0:0:
256,192,196970,1,0,0:0:0:0:
256,192,197098,1,0,0:0:0:0:
256,192,197226,1,0,0:0:0:0:
256,192,197354,1,8,0:0:0:0:
256,192,197739,1,0,0:0:0:0:
256,192,197867,1,0,0:0:0:0:
256,192,197995,1,8,0:0:0:0:
256,192,198123,1,8,0:0:0:0:
256,192,198508,1,8,0:0:0:0:
256,192,198636,1,0,0:0:0:0:
256,192,198764,1,8,0:0:0:0:
256,192,198893,1,0,0:0:0:0:
256,192,199021,1,8,0:0:0:0:
256,192,199149,1,0,0:0:0:0:
256,192,199277,1,0,0:0:0:0:
256,192,199405,1,8,0:0:0:0:
256,192,199790,1,8,0:0:0:0:
256,192,199918,1,8,0:0:0:0:
256,192,200046,1,0,0:0:0:0:
256,192,200175,1,8,0:0:0:0:
256,192,200303,1,0,0:0:0:0:
256,192,200431,1,0,0:0:0:0:
256,192,200559,1,8,0:0:0:0:
256,192,200645,1,8,0:0:0:0:
256,192,200730,1,0,0:0:0:0:
256,192,200816,1,8,0:0:0:0:
256,192,200901,1,0,0:0:0:0:
256,192,200987,1,0,0:0:0:0:
256,192,201072,1,8,0:0:0:0:
256,192,201200,1,0,0:0:0:0:
256,192,201329,1,0,0:0:0:0:
256,192,201457,1,8,0:0:0:0:
256,192,201841,1,8,0:0:0:0:
256,192,201970,1,8,0:0:0:0:
256,192,202098,1,8,0:0:0:0:
256,192,202226,1,0,0:0:0:0:
256,192,202611,1,8,0:0:0:0:
256,192,202739,1,8,0:0:0:0:
256,192,202867,1,0,0:0:0:0:
256,192,202995,1,0,0:0:0:0:
256,192,203123,1,8,0:0:0:0:
256,192,203252,1,0,0:0:0:0:
256,192,203380,1,8,0:0:0:0:
256,192,203508,1,8,0:0:0:0:
256,192,203636,1,0,0:0:0:0:
256,192,203764,1,8,0:0:0:0:
256,192,203893,1,0,0:0:0:0:
256,192,204021,1,0,0:0:0:0:
256,192,204149,1,8,0:0:0:0:
256,192,204235,1,0,0:0:0:0:
256,192,204320,1,8,0:0:0:0:
256,192,204405,1,0,0:0:0:0:
256,192,204491,1,8,0:0:0:0:
256,192,204576,1,0,0:0:0:0:
256,192,204662,1,8,0:0:0:0:
256,192,204747,1,8,0:0:0:0:
256,192,204833,1,0,0:0:0:0:
256,192,204918,1,0,0:0:0:0:
256,192,205004,1,8,0:0:0:0:
256,192,205089,1,0,0:0:0:0:
256,192,205175,1,8,0:0:0:0:
256,192,205303,1,0,0:0:0:0:
256,192,205431,1,0,0:0:0:0:
256,192,205559,1,0,0:0:0:0:
256,192,205944,1,8,0:0:0:0:
256,192,206072,1,8,0:0:0:0:
256,192,206200,1,0,0:0:0:0:
256,192,206329,1,0,0:0:0:0:
256,192,206713,1,8,0:0:0:0:
256,192,206841,1,8,0:0:0:0:
256,192,206970,1,0,0:0:0:0:
256,192,207098,1,0,0:0:0:0:
256,192,207226,1,8,0:0:0:0:
256,192,207354,1,0,0:0:0:0:
256,192,207482,1,8,0:0:0:0:
256,192,207611,1,8,0:0:0:0:
256,192,207995,1,8,0:0:0:0:
256,192,208123,1,8,0:0:0:0:
256,192,208252,1,0,0:0:0:0:
256,192,208380,1,8,0:0:0:0:
256,192,208508,1,0,0:0:0:0:
256,192,208636,1,0,0:0:0:0:
256,192,208764,1,8,0:0:0:0:
256,192,208850,1,8,0:0:0:0:
256,192,208935,1,0,0:0:0:0:
256,192,209021,1,8,0:0:0:0:
256,192,209106,1,0,0:0:0:0:
256,192,209192,1,0,0:0:0:0:
256,192,209277,1,8,0:0:0:0:
256,192,209405,1,0,0:0:0:0:
256,192,209534,1,8,0:0:0:0:
256,192,209662,1,0,0:0:0:0:
256,192,210046,1,8,0:0:0:0:
256,192,210175,1,8,0:0:0:0:
256,192,210303,1,8,0:0:0:0:
256,192,210431,1,8,0:0:0:0:
256,192,210816,1,0,0:0:0:0:
256,192,210944,1,0,0:0:0:0:
256,192,211072,1,0,0:0:0:0:
256,192,211200,1,0,0:0:0:0:
256,192,211329,5,8,0:0:0:0:
256,192,211457,1,0,0:0:0:0:
256,192,211585,1,8,0:0:0:0:
256,192,211713,1,8,0:0:0:0:
256,192,211841,1,0,0:0:0:0:
256,192,211970,1,8,0:0:0:0:
256,192,212098,1,0,0:0:0:0:
256,192,212226,1,0,0:0:0:0:
256,192,212354,1,8,0:0:0:0:
256,192,212440,1,8,0:0:0:0:
256,192,212525,1,0,0:0:0:0:
256,192,212611,1,8,0:0:0:0:
256,192,212696,1,0,0:0:0:0:
256,192,212782,1,0,0:0:0:0:
256,192,212867,1,8,0:0:0:0:
256,192,212952,1,0,0:0:0:0:
256,192,213038,1,8,0:0:0:0:
256,192,213123,1,8,0:0:0:0:
256,192,213209,1,0,0:0:0:0:
256,192,213294,1,8,0:0:0:0:
256,192,213380,1,0,0:0:0:0:
256,192,214405,1,0,0:0:0:0:
256,192,215431,1,8,0:0:0:0:
256,192,216457,1,0,0:0:0:0:
256,192,217311,1,0,0:0:0:0:
256,192,217397,1,0,0:0:0:0:
256,192,217482,1,8,0:0:0:0:
256,192,218508,1,8,0:0:0:0:
256,192,219534,1,0,0:0:0:0:
256,192,220559,1,0,0:0:0:0:
256,192,221414,1,0,0:0:0:0:
256,192,221499,1,0,0:0:0:0:
256,192,221585,1,8,0:0:0:0:
256,192,222611,1,8,0:0:0:0:
256,192,223636,1,0,0:0:0:0:
256,192,224662,1,0,0:0:0:0:
256,192,225517,1,0,0:0:0:0:
256,192,225602,1,0,0:0:0:0:
256,192,225688,1,8,0:0:0:0:
256,192,226713,1,0,0:0:0:0:
256,192,227739,1,8,0:0:0:0:
256,192,228764,1,0,0:0:0:0:
256,192,229619,1,0,0:0:0:0:
256,192,229705,1,0,0:0:0:0:
256,192,229790,1,8,0:0:0:0:
256,192,230175,1,8,0:0:0:0:
256,192,230559,1,8,0:0:0:0:
256,192,230816,1,0,0:0:0:0:
256,192,231200,1,0,0:0:0:0:
256,192,231585,1,0,0:0:0:0:
256,192,231841,1,8,0:0:0:0:
256,192,232226,1,0,0:0:0:0:
256,192,232611,1,8,0:0:0:0:
256,192,232867,1,8,0:0:0:0:
256,192,233764,1,0,0:0:0:0:
256,192,233828,1,0,0:0:0:0:
256,192,233893,1,8,0:0:0:0:
256,192,234277,1,0,0:0:0:0:
256,192,234662,1,8,0:0:0:0:
256,192,234918,1,8,0:0:0:0:
256,192,235303,1,0,0:0:0:0:
256,192,235688,1,8,0:0:0:0:
256,192,235944,1,0,0:0:0:0:
256,192,236329,1,8,0:0:0:0:
256,192,236713,1,8,0:0:0:0:
256,192,236970,1,8,0:0:0:0:
256,192,237739,1,0,0:0:0:0:
256,192,237867,1,0,0:0:0:0:
256,192,237931,1,0,0:0:0:0:
256,192,237995,1,8,0:0:0:0:
256,192,238380,1,0,0:0:0:0:
256,192,238764,1,0,0:0:0:0:
256,192,239021,1,8,0:0:0:0:
256,192,239405,1,8,0:0:0:0:
256,192,239790,1,0,0:0:0:0:
256,192,240046,1,8,0:0:0:0:
256,192,240431,1,8,0:0:0:0:
256,192,240816,1,0,0:0:0:0:
256,192,241072,1,8,0:0:0:0:
256,192,242098,1,8,0:0:0:0:
256,192,242611,1,0,0:0:0:0:
256,192,242867,1,0,0:0:0:0:
256,192,243123,1,8,0:0:0:0:
256,192,243380,1,8,0:0:0:0:
256,192,244405,1,0,0:0:0:0:
256,192,244662,1,8,0:0:0:0:
256,192,244918,1,8,0:0:0:0:
256,192,245175,1,8,0:0:0:0:
256,192,245431,1,8,0:0:0:0:
256,192,245688,1,8,0:0:0:0:
256,192,245944,1,8,0:0:0:0:
256,192,246200,1,4,0:0:0:0:
256,192,246457,1,0,0:0:0:0:
256,192,246713,1,0,0:0:0:0:
256,192,246970,1,0,0:0:0:0:
256,192,247226,1,12,0:0:0:0:
256,192,247482,1,0,0:0:0:0:
256,192,247739,1,0,0:0:0:0:
256,192,247995,1,8,0:0:0:0:
256,192,248252,1,4,0:0:0:0:
256,192,248508,1,0,0:0:0:0:
256,192,248764,1,8,0:0:0:0:
256,192,249021,1,0,0:0:0:0:
256,192,249277,1,12,0:0:0:0:
256,192,249534,1,8,0:0:0:0:
256,192,249790,1,4,0:0:0:0:
256,192,250046,1,0,0:0:0:0:
256,192,250303,1,12,0:0:0:0:
256,192,250559,1,0,0:0:0:0:
256,192,250816,1,8,0:0:0:0:
256,192,251072,1,0,0:0:0:0:
256,192,251329,1,12,0:0:0:0:
256,192,251585,1,8,0:0:0:0:
256,192,251841,1,0,0:0:0:0:
256,192,252098,1,8,0:0:0:0:
256,192,252354,1,4,0:0:0:0:
256,192,252611,1,8,0:0:0:0:
256,192,252867,1,8,0:0:0:0:
256,192,253123,1,0,0:0:0:0:
256,192,253380,1,12,0:0:0:0:
256,192,253636,1,12,0:0:0:0:
256,192,253893,1,0,0:0:0:0:
256,192,254021,1,0,0:0:0:0:
256,192,254149,1,0,0:0:0:0:
256,192,254277,1,0,0:0:0:0:
256,192,254405,1,12,0:0:0:0:
256,192,254662,1,0,0:0:0:0:
256,192,254918,1,8,0:0:0:0:
256,192,255175,1,0,0:0:0:0:
256,192,255431,1,12,0:0:0:0:
256,192,255688,1,8,0:0:0:0:
256,192,255944,1,0,0:0:0:0:
256,192,256200,1,12,0:0:0:0:
256,192,256457,1,0,0:0:0:0:
256,192,256713,1,12,0:0:0:0:
256,192,256970,1,12,0:0:0:0:
256,192,257226,1,0,0:0:0:0:
256,192,257482,1,12,0:0:0:0:
256,192,257739,1,0,0:0:0:0:
256,192,257995,1,8,0:0:0:0:
256,192,258252,1,8,0:0:0:0:
256,192,258508,1,4,0:0:0:0:
256,192,258764,1,0,0:0:0:0:
256,192,259021,1,8,0:0:0:0:
256,192,259277,1,0,0:0:0:0:
256,192,259534,1,12,0:0:0:0:
256,192,259790,1,0,0:0:0:0:
256,192,260046,1,0,0:0:0:0:
256,192,260303,1,8,0:0:0:0:
256,192,260559,1,4,0:0:0:0:
256,192,260816,1,8,0:0:0:0:
256,192,260944,1,0,0:0:0:0:
256,192,261072,1,8,0:0:0:0:
256,192,261200,1,8,0:0:0:0:
256,192,261329,1,0,0:0:0:0:
256,192,261457,1,0,0:0:0:0:
256,192,261585,1,8,0:0:0:0:
256,192,261713,1,0,0:0:0:0:
256,192,261841,1,8,0:0:0:0:
256,192,261970,1,0,0:0:0:0:
256,192,262098,1,8,0:0:0:0:
256,192,262226,1,8,0:0:0:0:
256,192,262354,1,0,0:0:0:0:
256,192,262482,1,0,0:0:0:0:
256,192,262611,1,12,0:0:0:0:
256,192,262867,1,0,0:0:0:0:
256,192,263123,1,0,0:0:0:0:
256,192,263380,1,8,0:0:0:0:
256,192,263636,1,12,0:0:0:0:
256,192,263893,1,0,0:0:0:0:
256,192,264149,1,8,0:0:0:0:
256,192,264405,1,0,0:0:0:0:
256,192,264662,1,4,0:0:0:0:
256,192,264918,1,0,0:0:0:0:
256,192,265175,1,4,0:0:0:0:
256,192,265431,1,0,0:0:0:0:
256,192,265688,1,12,0:0:0:0:
256,192,265944,1,8,0:0:0:0:
256,192,266200,1,0,0:0:0:0:
256,192,266457,1,0,0:0:0:0:
256,192,266713,1,12,0:0:0:0:
256,192,266970,1,0,0:0:0:0:
256,192,267226,1,0,0:0:0:0:
256,192,267482,1,8,0:0:0:0:
256,192,267739,1,12,0:0:0:0:
256,192,267995,1,0,0:0:0:0:
256,192,268252,1,8,0:0:0:0:
256,192,268508,1,0,0:0:0:0:
256,192,268764,1,4,0:0:0:0:
256,192,269021,1,8,0:0:0:0:
256,192,269277,1,4,0:0:0:0:
256,192,269534,1,0,0:0:0:0:
256,192,269790,1,12,0:0:0:0:
256,192,270046,1,8,0:0:0:0:
256,192,270303,1,0,0:0:0:0:
256,192,270431,1,0,0:0:0:0:
256,192,270559,1,0,0:0:0:0:
256,192,270688,1,0,0:0:0:0:
256,192,270816,1,12,0:0:0:0:
256,192,271072,1,8,0:0:0:0:
256,192,271329,1,8,0:0:0:0:
256,192,271585,1,0,0:0:0:0:
256,192,271841,1,8,0:0:0:0:
256,192,271970,1,8,0:0:0:0:
256,192,272098,1,0,0:0:0:0:
256,192,272226,1,8,0:0:0:0:
256,192,272354,1,8,0:0:0:0:
256,192,272482,1,0,0:0:0:0:
256,192,272611,1,8,0:0:0:0:
256,192,272739,1,0,0:0:0:0:
256,192,272867,1,0,0:0:0:0:
256,192,272995,1,8,0:0:0:0:
256,192,273123,1,0,0:0:0:0:
256,192,273252,1,0,0:0:0:0:
256,192,273380,1,8,0:0:0:0:
256,192,273508,1,8,0:0:0:0:
256,192,273572,1,8,0:0:0:0:
256,192,273636,1,0,0:0:0:0:
256,192,273764,1,0,0:0:0:0:
256,192,273893,1,8,0:0:0:0:
256,192,274021,1,0,0:0:0:0:
256,192,274149,1,8,0:0:0:0:
256,192,274405,1,0,0:0:0:0:
256,192,274662,1,0,0:0:0:0:
256,192,274918,1,12,0:0:0:0:
256,192,275175,1,0,0:0:0:0:
256,192,275431,1,0,0:0:0:0:
256,192,275688,1,0,0:0:0:0:
256,192,275944,1,8,0:0:0:0:
256,192,276029,1,0,0:0:0:0:
256,192,276115,1,0,0:0:0:0:
256,192,276200,1,8,0:0:0:0:
256,192,276286,1,0,0:0:0:0:
256,192,276371,1,0,0:0:0:0:
256,192,276457,1,8,0:0:0:0:
256,192,276542,1,8,0:0:0:0:
256,192,276628,1,0,0:0:0:0:
256,192,276713,1,8,0:0:0:0:
256,192,276799,1,8,0:0:0:0:
256,192,276884,1,0,0:0:0:0:
256,192,276970,1,8,0:0:0:0:
256,192,277055,1,0,0:0:0:0:
256,192,277141,1,0,0:0:0:0:
256,192,277226,1,8,0:0:0:0:
256,192,277311,1,8,0:0:0:0:
256,192,277397,1,0,0:0:0:0:
256,192,277482,1,8,0:0:0:0:
256,192,277568,1,8,0:0:0:0:
256,192,277653,1,0,0:0:0:0:
256,192,277739,1,8,0:0:0:0:
256,192,277824,1,8,0:0:0:0:
256,192,277910,1,0,0:0:0:0:
256,192,277995,1,8,0:0:0:0:
256,192,278081,1,0,0:0:0:0:
256,192,278166,1,0,0:0:0:0:
256,192,278252,1,8,0:0:0:0:
256,192,278337,1,0,0:0:0:0:
256,192,278423,1,0,0:0:0:0:
256,192,278508,1,8,0:0:0:0:
256,192,278594,1,8,0:0:0:0:
256,192,278679,1,0,0:0:0:0:
256,192,278764,1,8,0:0:0:0:
256,192,278850,1,0,0:0:0:0:
256,192,278935,1,0,0:0:0:0:
256,192,279021,1,12,0:0:0:0:
256,192,279149,12,0,280944,0:0:0:0:
256,192,281071,5,0,0:0:0:0:
256,192,282096,5,0,0:0:0:0:
256,192,283122,5,8,0:0:0:0:
256,192,284148,1,8,0:0:0:0:
256,192,285174,1,0,0:0:0:0:
256,192,286199,1,0,0:0:0:0:
256,192,287225,1,8,0:0:0:0:
256,192,288251,1,0,0:0:0:0:
256,192,289276,1,8,0:0:0:0:
256,192,290302,1,0,0:0:0:0:
256,192,291328,1,8,0:0:0:0:
256,192,292353,1,8,0:0:0:0:
256,192,293379,1,0,0:0:0:0:
256,192,294404,1,0,0:0:0:0:
256,192,295430,1,8,0:0:0:0:
256,192,295687,1,0,0:0:0:0:
256,192,296199,1,8,0:0:0:0:
256,192,297481,1,8,0:0:0:0:
256,192,297738,1,8,0:0:0:0:
256,192,299533,1,8,0:0:0:0:
256,192,300302,1,0,0:0:0:0:
256,192,301584,1,0,0:0:0:0:
256,192,301840,1,0,0:0:0:0:
256,192,302610,1,8,0:0:0:0:
256,192,302866,1,8,0:0:0:0:
256,192,303635,1,0,0:0:0:0:
