osu file format v14

[General]
AudioFilename: audio.mp3
AudioLeadIn: 0
PreviewTime: 114731
Countdown: 0
SampleSet: None
StackLeniency: 0.7
Mode: 0
LetterboxInBreaks: 0
WidescreenStoryboard: 1

[Editor]
Bookmarks: 3114,17231,31349,45466,59584,66643,73261,80761,87819,101937,116055,123114,130172,137231,144290,158408,172525,186643,193702,200761,207819,214878
DistanceSpacing: 4.6
BeatDivisor: 2
GridSize: 8
TimelineZoom: 1.9

[Metadata]
Title:Crush
TitleUnicode:Crush
Artist:Tessa Violet
ArtistUnicode:Tessa Violet
Creator:Godot
Version:hitsound
Source:
Tags:tessa violet crush pop
BeatmapID:2098677
BeatmapSetID:873466

[Difficulty]
HPDrainRate:4
CircleSize:4
OverallDifficulty:8
ApproachRate:9
SliderMultiplier:1.79999990463257
SliderTickRate:1

[Events]
//Background and Video events
0,0,"1361795.png",0,0
//Break Periods
//Storyboard Layer 0 (Background)
//Storyboard Layer 1 (Fail)
//Storyboard Layer 2 (Pass)
//Storyboard Layer 3 (Foreground)
//Storyboard Sound Samples

[TimingPoints]
3114,441.176470588235,4,2,0,30,1,0
3114,-233.644859813084,4,2,0,30,0,0
16349,-233.644859813084,4,3,0,30,0,0
17231,-85.6898029134533,4,1,0,40,0,0
18996,-111.856823266219,4,3,1,100,0,0
20099,-85.6898029134533,4,1,0,40,0,0
22525,-111.856823266219,4,2,0,30,0,0
23849,-111.856823266219,4,1,0,40,0,0
26055,-111.856823266219,4,3,1,100,0,0
27819,-133.333333333333,4,1,0,40,0,0
27819,-133.333333333333,4,1,0,40,0,0
30908,-85.6898029134533,4,1,0,40,0,0
31349,-233.644859813084,4,2,0,30,0,0
44584,-233.644859813084,4,3,0,30,0,0
45466,-85.6898029134533,4,2,0,30,0,0
45481,-85.6898029134533,4,1,0,40,0,0
47231,-85.6898029134533,4,3,1,100,0,0
48555,-85.6898029134533,4,1,0,40,0,0
50761,-111.856823266219,4,2,0,30,0,0
51643,-111.856823266219,4,3,0,40,0,0
52525,-85.6898029134533,4,1,0,40,0,0
54290,-85.6898029134533,4,3,1,100,0,0
55834,-85.6898029134533,4,1,0,40,0,0
57847,-85.6898029134533,4,2,0,5,0,0
59584,-32.123353678124,4,3,0,90,0,1
60022,-257.06940874036,4,1,0,60,0,1
60902,-32.123353678124,4,3,0,90,0,1
61790,-257.06940874036,4,1,0,60,0,1
62672,-32.123353678124,4,3,0,75,0,1
63114,-257.06940874036,4,1,0,60,0,1
64437,-32.123353678124,4,3,0,90,0,1
65319,-32.123353678124,4,1,0,60,0,1
66202,-32.123353678124,4,3,0,75,0,1
66643,-42.8333333333325,4,3,0,70,0,1
67084,-38.9393939393941,4,3,0,75,0,1
67525,-35.3994490358128,4,3,0,80,0,1
67966,-32.1813173052848,4,3,0,85,0,1
68408,-29.2594434853849,4,3,0,90,0,1
68508,-32.1543408360129,4,1,0,60,0,1
69731,-32.1543408360129,4,3,0,75,0,1
70172,-42.8333333333325,4,3,0,70,0,1
70614,-38.9393939393941,4,3,0,75,0,1
71055,-35.3994490358128,4,3,0,80,0,1
71496,-32.1813173052848,4,3,0,85,0,1
71937,-29.2594434853849,4,3,0,90,0,1
73261,-32.1813173052848,4,3,0,75,0,1
73702,-256.410256410256,4,1,0,60,0,1
75022,-32.1543408360129,4,3,0,90,0,1
75908,-256.410256410256,4,1,0,60,0,1
76790,-32.1543408360129,4,3,0,75,0,1
77231,-256.410256410256,4,1,0,60,0,1
78555,-32.1543408360129,4,3,0,90,0,1
79437,-32.1543408360129,4,1,0,60,0,1
80319,-32.1543408360129,4,3,0,75,0,1
80761,-42.8333333333325,4,3,0,70,0,1
81202,-38.9393939393941,4,3,0,75,0,1
81643,-35.3994490358128,4,3,0,80,0,1
82084,-32.1813173052848,4,3,0,85,0,1
82525,-29.2594434853849,4,3,0,90,0,1
82966,-29.2594434853849,4,1,0,60,0,1
83849,-32.1813173052848,4,3,0,75,0,1
84290,-42.8333333333325,4,3,0,70,0,1
84731,-38.9393939393941,4,3,0,75,0,1
85172,-35.3994490358128,4,3,0,80,0,1
85613,-32.1813173052848,4,3,0,85,0,1
86054,-29.2594434853849,4,3,0,90,0,1
86496,-29.2594434853849,4,1,0,60,0,0
87819,-233.644859813084,4,2,0,30,0,0
94878,-85.6898029134533,4,2,0,30,0,0
95319,-233.644859813084,4,2,0,30,0,0
101055,-233.644859813084,4,3,0,30,0,0
101937,-85.6898029134533,4,1,0,40,0,0
103696,-85.6898029134533,4,3,1,100,0,0
105025,-85.6898029134533,4,1,0,40,0,0
107231,-111.856823266219,4,1,0,30,0,0
108114,-85.6898029134533,4,1,0,40,0,0
110761,-85.6898029134533,4,3,1,100,0,0
112305,-85.6898029134533,4,1,0,40,0,0
114318,-85.6898029134533,4,2,0,5,0,0
116055,-28.5714285714286,4,3,0,90,0,1
116496,-257.06940874036,4,1,0,60,0,1
117378,-28.5714285714286,4,3,0,90,0,1
118261,-257.06940874036,4,1,0,60,0,1
119143,-28.5714285714286,4,3,0,75,0,1
119584,-257.06940874036,4,1,0,60,0,1
120908,-28.5714285714286,4,3,0,90,0,1
121790,-28.5714285714286,4,1,0,60,0,1
122672,-28.5714285714286,4,3,0,75,0,1
123114,-42.8333333333325,4,3,0,70,0,1
123555,-38.9393939393941,4,3,0,75,0,1
123996,-35.3994490358128,4,3,0,80,0,1
124437,-32.1813173052848,4,3,0,85,0,1
124878,-29.2594434853849,4,3,0,90,0,1
125319,-29.2594434853849,4,1,0,60,0,1
126202,-29.2594434853849,4,3,0,75,0,1
126643,-42.8333333333325,4,3,0,70,0,1
127084,-38.9393939393941,4,3,0,75,0,1
127525,-35.3994490358128,4,3,0,80,0,1
127966,-32.1813173052848,4,3,0,85,0,1
128408,-29.2594434853849,4,3,0,90,0,1
129731,-29.2594434853849,4,3,0,75,0,1
130172,-257.06940874036,4,1,0,60,0,1
131496,-29.2594434853849,4,3,0,90,0,1
132378,-257.06940874036,4,1,0,60,0,1
133261,-29.2594434853849,4,3,0,75,0,1
133702,-257.06940874036,4,1,0,60,0,1
135025,-29.2594434853849,4,3,0,90,0,1
135908,-29.2594434853849,4,1,0,60,0,1
136790,-29.2594434853849,4,3,0,75,0,1
137231,-42.8333333333325,4,3,0,70,0,1
137672,-38.9393939393941,4,3,0,75,0,1
138114,-35.3994490358128,4,3,0,80,0,1
138555,-32.1813173052848,4,3,0,85,0,1
138996,-29.2594434853849,4,3,0,90,0,1
139437,-29.2594434853849,4,1,0,60,0,1
140319,-29.2594434853849,4,3,0,75,0,1
140761,-42.8333333333325,4,3,0,70,0,1
141202,-38.9393939393941,4,3,0,75,0,1
141643,-35.3994490358128,4,3,0,80,0,1
142084,-32.1813173052848,4,3,0,85,0,1
142525,-29.2594434853849,4,3,0,90,0,1
142966,-32.123353678124,4,1,0,30,0,0
144290,-333.333333333333,4,1,0,40,0,0
164584,-333.333333333333,4,3,1,100,0,0
165466,-333.333333333333,4,1,0,40,0,0
172525,-333.333333333333,4,2,0,30,0,0
174290,-333.333333333333,4,3,1,100,0,0
175614,-233.644859813084,4,2,0,30,0,0
177819,-233.644859813084,4,3,1,100,0,0
179143,-233.644859813084,4,2,0,30,0,0
181349,-233.644859813084,4,3,1,100,0,0
182672,-233.644859813084,4,2,0,30,0,0
184878,-85.6898029134533,4,2,0,30,0,0
184906,-85.6898029134533,4,2,0,5,0,0
186643,-26.3157894736842,4,3,0,100,0,1
187084,-257.06940874036,4,1,0,70,0,1
187966,-26.3157894736842,4,3,0,100,0,1
188849,-257.06940874036,4,1,0,70,0,1
189731,-28.5714285714286,4,3,0,85,0,1
190172,-257.06940874036,4,1,0,70,0,1
191493,-26.3157894736842,4,3,0,100,0,1
192378,-26.3157894736842,4,1,0,70,0,1
193261,-28.5714285714286,4,3,0,85,0,1
193702,-42.8333333333325,4,3,0,80,0,1
194143,-38.9393939393941,4,3,0,85,0,1
194584,-35.3994490358128,4,3,0,90,0,1
195025,-32.1813173052848,4,3,0,95,0,1
195466,-29.2594434853849,4,3,0,100,0,1
195908,-29.2594434853849,4,1,0,70,0,1
196790,-28.5714285714286,4,3,0,85,0,1
197231,-42.8333333333325,4,3,0,80,0,1
197672,-38.9393939393941,4,3,0,85,0,1
198114,-35.3994490358128,4,3,0,90,0,1
198555,-32.1813173052848,4,3,0,95,0,1
198996,-29.2594434853849,4,3,0,100,0,1
200319,-28.5714285714286,4,3,0,85,0,1
200761,-257.06940874036,4,1,0,70,0,1
202084,-26.3157894736842,4,3,0,100,0,1
202966,-26.3157894736842,4,1,0,70,0,1
203849,-28.5714285714286,4,3,0,85,0,1
204290,-257.06940874036,4,1,0,70,0,1
205614,-26.3157894736842,4,3,0,100,0,1
206496,-26.3157894736842,4,1,0,70,0,1
207378,-28.5714285714286,4,3,0,85,0,1
207819,-42.8333333333325,4,3,0,80,0,1
208261,-38.9393939393941,4,3,0,85,0,1
208702,-35.3994490358128,4,3,0,90,0,1
209143,-32.1813173052848,4,3,0,95,0,1
209584,-29.2594434853849,4,3,0,100,0,1
210025,-29.2594434853849,4,1,0,70,0,1
210908,-28.5714285714286,4,3,0,85,0,1
211349,-42.8333333333325,4,3,0,80,0,1
211790,-38.9393939393941,4,3,0,85,0,1
212231,-35.3994490358128,4,3,0,90,0,1
212672,-32.1813173052848,4,3,0,85,0,1
213114,-29.2594434853849,4,3,0,100,0,1
213555,-85.6898029134533,4,1,0,30,0,0

[Colours]
Combo1 : 178,67,255
Combo2 : 255,67,238
Combo3 : 238,255,67
Combo4 : 67,238,255
Combo5 : 255,67,144

[HitObjects]
59,37,3113,5,8,3:3:0:0:
143,271,3334,1,0,0:0:0:0:
144,263,3555,1,0,0:0:0:0:
146,262,3775,1,0,0:0:0:0:
418,69,3996,1,8,0:1:0:0:
69,51,4878,1,8,3:3:0:0:
124,268,5099,1,0,0:0:0:0:
124,268,5319,1,0,0:0:0:0:
124,268,5540,1,0,0:0:0:0:
396,55,5761,1,8,0:1:0:0:
72,54,6643,1,8,3:3:0:0:
124,268,6863,1,0,0:0:0:0:
124,268,7084,1,0,0:0:0:0:
124,268,7305,1,0,0:0:0:0:
343,71,7525,1,8,0:1:0:0:
124,268,7746,1,0,0:0:0:0:
124,268,7966,1,0,0:0:0:0:
76,48,8187,1,8,3:3:0:0:
76,48,8408,1,8,3:3:0:0:
124,268,8628,1,0,0:0:0:0:
124,268,8849,1,0,0:0:0:0:
124,268,9069,1,0,0:0:0:0:
403,67,9290,1,8,0:1:0:0:
64,50,10172,1,8,3:3:0:0:
96,283,10393,1,0,0:0:0:0:
98,283,10613,1,0,0:0:0:0:
98,283,10834,1,0,0:0:0:0:
365,86,11055,1,8,0:1:0:0:
98,283,11275,1,0,0:0:0:0:
95,283,11496,1,0,0:0:0:0:
98,283,11716,1,0,0:0:0:0:
98,283,11937,1,0,0:0:0:0:
98,283,12158,1,0,0:0:0:0:
96,283,12378,1,0,0:0:0:0:
98,283,12599,1,0,0:0:0:0:
363,79,12819,1,8,0:1:0:0:
98,283,13702,1,0,0:0:0:0:
98,283,13922,1,0,0:0:0:0:
98,283,14143,1,0,0:0:0:0:
98,283,14363,1,0,0:0:0:0:
370,76,14584,1,8,0:1:0:0:
98,283,14805,1,0,0:0:0:0:
98,283,15025,1,0,0:0:0:0:
98,283,15246,1,0,0:0:0:0:
98,283,15466,1,0,0:0:0:0:
98,283,15687,1,0,0:0:0:0:
98,283,15908,1,0,0:0:0:0:
98,283,16128,1,0,0:0:0:0:
398,97,16349,1,8,0:1:0:0:
98,283,16569,1,0,0:0:0:0:
398,97,16790,1,8,0:1:0:0:
398,97,17011,1,8,0:1:0:0:
414,311,17231,5,4,0:2:0:0:
103,283,17452,1,2,2:2:0:0:
103,283,17672,1,2,2:2:0:0:
103,283,17893,1,2,2:2:0:0:
376,57,18113,1,8,0:1:0:0:
103,283,18334,1,2,2:2:0:0:
110,277,18555,1,2,2:2:0:0:
110,278,18775,1,2,2:2:0:0:
89,50,18996,1,0,0:0:0:0:
95,52,19437,1,0,0:0:0:0:
95,52,19878,1,0,0:0:0:0:
74,248,20099,1,2,2:2:0:0:
387,57,20319,1,8,0:1:0:0:
104,58,20540,1,8,0:3:0:0:
361,240,20761,1,4,0:2:0:0:
86,290,20981,1,2,2:2:0:0:
86,290,21202,1,2,2:2:0:0:
86,290,21422,1,2,2:2:0:0:
406,88,21643,1,8,0:1:0:0:
86,290,21863,1,2,2:2:0:0:
86,290,22084,1,2,2:2:0:0:
86,290,22305,1,2,2:2:0:0:
83,85,22525,1,8,0:3:0:0:
87,281,22746,1,2,2:2:0:0:
85,278,22966,1,2,2:2:0:0:
86,278,23187,1,2,2:2:0:0:
404,72,23408,1,8,0:1:0:0:
92,261,23628,1,2,2:2:0:0:
418,58,23849,1,8,0:1:0:0:
411,58,24069,1,8,0:1:0:0:
106,83,24290,1,8,0:3:0:0:
91,268,24511,1,2,2:2:0:0:
91,268,24731,1,2,2:2:0:0:
91,268,24952,1,2,2:2:0:0:
386,67,25172,1,8,0:1:0:0:
116,244,25393,1,2,2:2:0:0:
102,246,25613,1,2,2:2:0:0:
102,246,25834,1,2,2:2:0:0:
118,102,26055,1,0,0:0:0:0:
118,102,26496,1,0,0:0:0:0:
124,104,26937,1,0,0:0:0:0:
125,111,27378,1,0,0:0:0:0:
125,111,27819,1,8,3:3:0:0:
108,247,28040,1,2,2:2:0:0:
108,247,28261,1,2,2:2:0:0:
108,247,28481,1,2,2:2:0:0:
365,101,28702,1,8,0:1:0:0:
102,258,28922,1,2,2:2:0:0:
103,254,29143,1,2,2:2:0:0:
103,254,29363,1,2,2:2:0:0:
121,66,29584,1,8,0:3:0:0:
97,254,29805,1,2,2:2:0:0:
103,254,30025,1,2,2:2:0:0:
97,258,30246,1,2,2:2:0:0:
375,39,30466,1,8,0:1:0:0:
375,39,30687,1,8,0:1:0:0:
98,241,30908,5,2,2:2:0:0:
97,249,31128,1,2,2:2:0:0:
102,54,31349,1,8,3:3:0:0:
90,242,31569,1,0,0:0:0:0:
92,241,31790,1,0,0:0:0:0:
97,249,32011,1,0,0:0:0:0:
384,64,32231,1,8,0:1:0:0:
96,272,32452,1,0,0:0:0:0:
96,272,32672,1,0,0:0:0:0:
96,272,32893,1,0,0:0:0:0:
85,60,33113,1,8,3:3:0:0:
99,283,33334,1,0,0:0:0:0:
97,283,33555,1,0,0:0:0:0:
97,283,33775,1,0,0:0:0:0:
374,77,33996,1,8,0:1:0:0:
93,275,34216,1,0,0:0:0:0:
95,277,34437,1,0,0:0:0:0:
95,277,34658,1,0,0:0:0:0:
107,70,34878,1,8,3:3:0:0:
93,275,35099,1,0,0:0:0:0:
90,271,35319,1,0,0:0:0:0:
90,271,35540,1,0,0:0:0:0:
382,54,35761,1,8,0:1:0:0:
93,275,35981,1,0,0:0:0:0:
97,276,36202,1,0,0:0:0:0:
113,75,36422,1,8,3:3:0:0:
103,76,36643,1,8,3:3:0:0:
83,273,36863,1,0,0:0:0:0:
85,268,37084,1,0,0:0:0:0:
85,268,37305,1,0,0:0:0:0:
372,55,37525,1,8,0:1:0:0:
375,61,37746,1,8,0:1:0:0:
113,70,38408,1,8,3:3:0:0:
102,294,38628,1,0,0:0:0:0:
102,294,38849,1,0,0:0:0:0:
102,294,39069,1,0,0:0:0:0:
396,57,39290,1,8,0:1:0:0:
118,263,39511,1,0,0:0:0:0:
106,285,39731,1,0,0:0:0:0:
109,283,39952,1,0,0:0:0:0:
95,265,40172,1,0,0:0:0:0:
98,268,40393,1,0,0:0:0:0:
100,265,40613,1,0,0:0:0:0:
100,265,40834,1,0,0:0:0:0:
392,66,41055,1,8,0:1:0:0:
93,261,41275,1,0,0:0:0:0:
90,261,41496,1,0,0:0:0:0:
90,261,41716,1,0,0:0:0:0:
114,86,41937,1,8,3:3:0:0:
93,261,42158,1,0,0:0:0:0:
90,261,42378,1,0,0:0:0:0:
85,266,42599,1,0,0:0:0:0:
382,67,42819,1,8,0:1:0:0:
86,268,43040,1,0,0:0:0:0:
87,266,43261,1,0,0:0:0:0:
85,266,43481,1,0,0:0:0:0:
137,53,43702,1,8,3:3:0:0:
79,282,43922,1,0,0:0:0:0:
81,282,44143,1,0,0:0:0:0:
83,278,44363,1,0,0:0:0:0:
345,64,44584,1,8,0:1:0:0:
362,43,44805,1,8,0:1:0:0:
360,59,45025,1,8,0:1:0:0:
355,65,45246,1,8,0:1:0:0:
387,317,45466,5,4,0:2:0:0:
103,283,45687,1,2,2:2:0:0:
103,283,45907,1,2,2:2:0:0:
103,283,46128,1,2,2:2:0:0:
376,57,46348,1,8,0:1:0:0:
103,283,46569,1,2,2:2:0:0:
110,277,46790,1,2,2:2:0:0:
110,278,47010,1,2,2:2:0:0:
89,50,47231,1,0,0:0:0:0:
95,52,47672,1,0,0:0:0:0:
95,52,48113,1,0,0:0:0:0:
74,248,48334,1,2,2:2:0:0:
387,57,48554,1,8,0:1:0:0:
104,58,48775,1,8,3:3:0:0:
361,240,48996,1,4,0:2:0:0:
86,290,49216,1,2,2:2:0:0:
86,290,49437,1,2,2:2:0:0:
86,290,49657,1,2,2:2:0:0:
406,88,49878,1,8,0:1:0:0:
86,290,50098,1,2,2:2:0:0:
86,290,50319,1,2,2:2:0:0:
86,290,50540,1,2,2:2:0:0:
83,85,50760,1,8,3:3:0:0:
87,281,50981,1,2,2:2:0:0:
85,278,51201,1,2,2:2:0:0:
86,278,51422,1,2,2:2:0:0:
404,72,51643,1,8,0:1:0:0:
393,72,51863,1,10,2:1:0:0:
418,58,52084,1,8,0:1:0:0:
411,58,52304,1,8,0:1:0:0:
404,297,52525,1,8,0:3:0:0:
91,268,52746,1,2,2:2:0:0:
91,268,52966,1,2,2:2:0:0:
91,268,53187,1,2,2:2:0:0:
386,67,53407,1,8,0:1:0:0:
116,244,53628,1,2,2:2:0:0:
102,246,53848,1,2,2:2:0:0:
102,246,54069,1,2,2:2:0:0:
118,102,54290,1,0,0:0:0:0:
118,102,54731,1,0,0:0:0:0:
124,104,55172,1,0,0:0:0:0:
125,111,55613,1,8,3:3:0:0:
118,76,55834,1,8,3:3:0:0:
125,111,56055,1,8,3:3:0:0:
108,247,56275,1,2,2:2:0:0:
108,247,56496,1,2,2:2:0:0:
108,247,56716,1,2,2:2:0:0:
365,101,56937,1,8,0:1:0:0:
102,258,57157,1,2,2:2:0:0:
103,254,57378,1,2,2:2:0:0:
103,254,57598,1,2,2:2:0:0:
121,66,57819,1,8,3:3:0:0:
375,277,59584,5,4,0:2:0:0:
129,274,59805,1,2,2:2:0:0:
134,274,60025,1,2,2:2:0:0:
135,267,60246,1,2,2:2:0:0:
371,29,60466,1,8,0:1:0:0:
129,274,60687,1,2,2:2:0:0:
392,293,60908,1,4,0:2:0:0:
117,264,61128,1,2,2:2:0:0:
407,303,61349,1,4,0:2:0:0:
117,264,61790,1,2,2:2:0:0:
391,47,62231,1,8,0:1:0:0:
104,280,62452,1,2,2:2:0:0:
405,291,62672,1,4,0:2:0:0:
98,276,62893,1,2,2:2:0:0:
389,277,63113,1,4,0:2:0:0:
96,268,63334,1,2,2:2:0:0:
98,276,63555,1,2,2:2:0:0:
98,276,63775,1,2,2:2:0:0:
427,61,63996,1,8,0:1:0:0:
96,268,64216,1,2,2:2:0:0:
400,283,64437,1,4,0:2:0:0:
52,242,64658,1,2,2:2:0:0:
391,270,64878,1,4,0:2:0:0:
82,267,65099,1,2,2:2:0:0:
110,266,65319,1,2,2:2:0:0:
106,265,65540,1,2,2:2:0:0:
349,115,65761,1,8,0:1:0:0:
353,103,65981,1,8,0:1:0:0:
400,278,66202,1,4,0:2:0:0:
101,117,66422,1,8,3:3:0:0:
396,286,66643,1,4,0:2:0:0:
92,130,67084,1,8,3:3:0:0:
92,130,67525,1,8,3:3:0:0:
388,293,67966,1,4,0:2:0:0:
388,293,68408,1,4,0:2:0:0:
87,300,68628,1,2,2:2:0:0:
96,313,68849,1,2,2:2:0:0:
94,321,69069,1,2,2:2:0:0:
366,76,69290,1,8,0:1:0:0:
87,300,69511,1,2,2:2:0:0:
381,278,69731,1,4,0:2:0:0:
90,68,69952,1,8,3:3:0:0:
381,278,70172,1,4,0:2:0:0:
72,93,70613,1,8,3:3:0:0:
73,99,71055,1,8,3:3:0:0:
388,288,71496,1,4,0:2:0:0:
388,288,71937,1,4,0:2:0:0:
381,288,73261,1,4,0:2:0:0:
381,288,73481,1,4,0:2:0:0:
381,288,73702,1,4,0:2:0:0:
89,261,73922,1,2,2:2:0:0:
89,261,74143,1,2,2:2:0:0:
89,261,74363,1,2,2:2:0:0:
382,83,74584,1,8,0:1:0:0:
97,262,74805,1,2,2:2:0:0:
372,278,75025,1,4,0:2:0:0:
89,268,75246,1,2,2:2:0:0:
372,278,75466,1,4,0:2:0:0:
95,274,75687,1,2,2:2:0:0:
93,276,75908,1,2,2:2:0:0:
96,274,76128,1,2,2:2:0:0:
390,69,76349,1,8,0:1:0:0:
102,280,76569,1,2,2:2:0:0:
368,263,76790,1,4,0:2:0:0:
106,75,77011,1,8,3:3:0:0:
362,252,77231,1,4,0:2:0:0:
124,273,77672,1,2,2:2:0:0:
106,279,77893,1,2,2:2:0:0:
371,62,78113,1,8,0:1:0:0:
111,266,78334,1,2,2:2:0:0:
392,264,78555,1,4,0:2:0:0:
108,268,78775,1,2,2:2:0:0:
386,253,78996,1,4,0:2:0:0:
95,274,79437,1,2,2:2:0:0:
95,274,79658,1,2,2:2:0:0:
359,49,79878,1,8,0:1:0:0:
359,49,80099,1,8,0:1:0:0:
384,292,80319,1,4,0:2:0:0:
96,75,80540,1,8,3:3:0:0:
384,292,80761,1,4,0:2:0:0:
103,79,81202,1,8,3:3:0:0:
103,79,81643,1,8,3:3:0:0:
431,289,82084,1,4,0:2:0:0:
333,264,82525,1,4,0:2:0:0:
56,301,82966,1,2,2:2:0:0:
63,298,83187,1,2,2:2:0:0:
357,87,83408,1,8,0:1:0:0:
62,269,83628,1,2,2:2:0:0:
370,275,83849,1,4,0:2:0:0:
93,86,84069,1,8,3:3:0:0:
376,274,84290,1,4,0:2:0:0:
119,109,84731,1,8,3:3:0:0:
119,109,85172,1,8,3:3:0:0:
381,305,85613,1,4,0:2:0:0:
381,305,86055,1,4,0:2:0:0:
59,37,87819,5,8,3:3:0:0:
143,271,88040,1,0,0:0:0:0:
144,263,88261,1,0,0:0:0:0:
146,262,88481,1,0,0:0:0:0:
418,69,88702,1,8,0:1:0:0:
69,51,89584,1,8,3:3:0:0:
124,268,89805,1,0,0:0:0:0:
124,268,90025,1,0,0:0:0:0:
124,268,90246,1,0,0:0:0:0:
396,55,90467,1,8,0:1:0:0:
72,54,91349,1,8,3:3:0:0:
124,268,91569,1,0,0:0:0:0:
124,268,91790,1,0,0:0:0:0:
124,268,92011,1,0,0:0:0:0:
343,71,92231,1,8,0:1:0:0:
124,268,92452,1,0,0:0:0:0:
124,268,92672,1,0,0:0:0:0:
76,48,92893,1,8,3:3:0:0:
76,48,93114,1,8,3:3:0:0:
124,268,93334,1,0,0:0:0:0:
124,268,93555,1,0,0:0:0:0:
124,268,93775,1,0,0:0:0:0:
403,67,93996,1,8,0:1:0:0:
64,50,94878,1,8,3:3:0:0:
96,283,95099,1,0,0:0:0:0:
98,283,95319,1,0,0:0:0:0:
98,283,95540,1,0,0:0:0:0:
365,86,95761,1,8,0:1:0:0:
98,283,95981,1,0,0:0:0:0:
95,283,96202,1,0,0:0:0:0:
98,283,96422,1,0,0:0:0:0:
98,283,96643,1,0,0:0:0:0:
98,283,96864,1,0,0:0:0:0:
96,283,97084,1,0,0:0:0:0:
98,283,97305,1,0,0:0:0:0:
363,79,97525,1,8,0:1:0:0:
101,275,97746,1,0,0:0:0:0:
101,275,97966,1,0,0:0:0:0:
101,275,98187,1,0,0:0:0:0:
98,283,98408,1,0,0:0:0:0:
98,283,98628,1,0,0:0:0:0:
98,283,98849,1,0,0:0:0:0:
98,283,99069,1,0,0:0:0:0:
370,76,99290,1,8,0:1:0:0:
98,283,99511,1,0,0:0:0:0:
98,283,99731,1,0,0:0:0:0:
98,283,99952,1,0,0:0:0:0:
98,283,100172,1,0,0:0:0:0:
98,283,100393,1,0,0:0:0:0:
98,283,100614,1,0,0:0:0:0:
98,283,100834,1,0,0:0:0:0:
398,97,101055,1,8,0:1:0:0:
98,283,101275,1,0,0:0:0:0:
398,97,101496,1,8,0:1:0:0:
398,97,101717,1,8,0:1:0:0:
387,317,101937,5,4,0:2:0:0:
103,283,102158,1,2,2:2:0:0:
103,283,102378,1,2,2:2:0:0:
103,283,102599,1,2,2:2:0:0:
376,57,102819,1,8,0:1:0:0:
103,283,103040,1,2,2:2:0:0:
110,277,103261,1,2,2:2:0:0:
110,278,103481,1,2,2:2:0:0:
89,50,103702,1,0,0:0:0:0:
95,52,104143,1,0,0:0:0:0:
95,52,104584,1,0,0:0:0:0:
74,248,104805,1,2,2:2:0:0:
387,57,105025,1,8,0:1:0:0:
104,58,105246,1,8,3:3:0:0:
361,240,105467,1,4,0:2:0:0:
86,290,105687,1,2,2:2:0:0:
86,290,105908,1,2,2:2:0:0:
86,290,106128,1,2,2:2:0:0:
406,88,106349,1,8,0:1:0:0:
86,290,106569,1,2,2:2:0:0:
86,290,106790,1,2,2:2:0:0:
86,290,107011,1,2,2:2:0:0:
83,85,107231,1,8,3:3:0:0:
87,281,107452,1,2,2:2:0:0:
85,278,107672,1,2,2:2:0:0:
86,278,107893,1,2,2:2:0:0:
404,72,108114,1,8,0:1:0:0:
393,72,108334,1,10,2:1:0:0:
418,58,108555,1,8,0:1:0:0:
411,58,108775,1,8,0:1:0:0:
404,297,108996,1,8,0:3:0:0:
91,268,109217,1,2,2:2:0:0:
91,268,109437,1,2,2:2:0:0:
91,268,109658,1,2,2:2:0:0:
386,67,109878,1,8,0:1:0:0:
116,244,110099,1,2,2:2:0:0:
102,246,110319,1,2,2:2:0:0:
102,246,110540,1,2,2:2:0:0:
118,102,110761,1,0,0:0:0:0:
118,102,111202,1,0,0:0:0:0:
124,104,111643,1,0,0:0:0:0:
125,111,112084,1,8,3:3:0:0:
118,76,112305,1,8,3:3:0:0:
125,111,112526,1,8,3:3:0:0:
108,247,112746,1,2,2:2:0:0:
108,247,112967,1,2,2:2:0:0:
108,247,113187,1,2,2:2:0:0:
365,101,113408,1,8,0:1:0:0:
102,258,113628,1,2,2:2:0:0:
103,254,113849,1,2,2:2:0:0:
103,254,114069,1,2,2:2:0:0:
121,66,114290,1,8,3:3:0:0:
375,277,116055,5,4,0:2:0:0:
129,274,116276,1,2,2:2:0:0:
134,274,116496,1,2,2:2:0:0:
135,267,116717,1,2,2:2:0:0:
371,29,116937,1,8,0:1:0:0:
129,274,117158,1,2,2:2:0:0:
392,293,117379,1,4,0:2:0:0:
117,264,117599,1,2,2:2:0:0:
407,303,117820,1,4,0:2:0:0:
117,264,118261,1,2,2:2:0:0:
391,47,118702,1,8,0:1:0:0:
104,280,118923,1,2,2:2:0:0:
405,291,119143,1,4,0:2:0:0:
98,276,119364,1,2,2:2:0:0:
389,277,119584,1,4,0:2:0:0:
96,268,119805,1,2,2:2:0:0:
98,276,120026,1,2,2:2:0:0:
98,276,120246,1,2,2:2:0:0:
427,61,120467,1,8,0:1:0:0:
96,268,120687,1,2,2:2:0:0:
400,283,120908,1,4,0:2:0:0:
52,242,121129,1,2,2:2:0:0:
391,270,121349,1,4,0:2:0:0:
82,267,121570,1,2,2:2:0:0:
110,266,121790,1,2,2:2:0:0:
106,265,122011,1,2,2:2:0:0:
349,115,122232,1,8,0:1:0:0:
353,103,122452,1,8,0:1:0:0:
400,278,122673,1,4,0:2:0:0:
101,117,122893,1,8,3:3:0:0:
396,286,123114,1,4,0:2:0:0:
92,130,123555,1,8,3:3:0:0:
92,130,123996,1,8,3:3:0:0:
388,293,124437,1,4,0:2:0:0:
388,293,124879,1,4,0:2:0:0:
87,300,125099,1,2,2:2:0:0:
96,313,125320,1,2,2:2:0:0:
94,321,125540,1,2,2:2:0:0:
366,76,125761,1,8,0:1:0:0:
87,300,125982,1,2,2:2:0:0:
381,278,126202,1,4,0:2:0:0:
90,68,126423,1,8,3:3:0:0:
381,278,126643,1,4,0:2:0:0:
72,93,127084,1,8,3:3:0:0:
73,99,127526,1,8,3:3:0:0:
388,288,127967,1,4,0:2:0:0:
388,288,128408,1,4,0:2:0:0:
381,288,129732,1,4,0:2:0:0:
381,288,129952,1,4,0:2:0:0:
381,288,130173,1,4,0:2:0:0:
89,261,130393,1,2,2:2:0:0:
89,261,130614,1,2,2:2:0:0:
89,261,130834,1,2,2:2:0:0:
382,83,131055,1,8,0:1:0:0:
97,262,131276,1,2,2:2:0:0:
372,278,131496,1,4,0:2:0:0:
89,268,131717,1,2,2:2:0:0:
372,278,131937,1,4,0:2:0:0:
95,274,132158,1,2,2:2:0:0:
93,276,132379,1,2,2:2:0:0:
96,274,132599,1,2,2:2:0:0:
390,69,132820,1,8,0:1:0:0:
102,280,133040,1,2,2:2:0:0:
368,263,133261,1,4,0:2:0:0:
106,75,133482,1,8,3:3:0:0:
362,252,133702,1,4,0:2:0:0:
124,273,134143,1,2,2:2:0:0:
106,279,134364,1,2,2:2:0:0:
371,62,134584,1,8,0:1:0:0:
111,266,134805,1,2,2:2:0:0:
392,264,135026,1,4,0:2:0:0:
101,270,135246,1,2,2:2:0:0:
386,253,135467,1,4,0:2:0:0:
95,274,135908,1,2,2:2:0:0:
95,274,136129,1,2,2:2:0:0:
359,49,136349,1,8,0:1:0:0:
359,49,136570,1,8,0:1:0:0:
384,292,136790,1,4,0:2:0:0:
96,75,137011,1,8,3:3:0:0:
384,292,137232,1,4,0:2:0:0:
103,79,137673,1,8,3:3:0:0:
103,79,138114,1,8,3:3:0:0:
431,289,138555,1,4,0:2:0:0:
333,264,138996,1,4,0:2:0:0:
56,301,139437,1,2,2:2:0:0:
63,298,139658,1,2,2:2:0:0:
357,87,139879,1,8,0:1:0:0:
62,269,140099,1,2,2:2:0:0:
370,275,140320,1,4,0:2:0:0:
93,86,140540,1,8,3:3:0:0:
376,274,140761,1,4,0:2:0:0:
119,109,141202,1,8,3:3:0:0:
119,109,141643,1,8,3:3:0:0:
381,305,142084,1,4,0:2:0:0:
381,305,142526,1,4,0:2:0:0:
91,87,144290,5,0,0:0:0:0:
91,87,144511,1,0,0:0:0:0:
143,308,144731,1,0,0:0:0:0:
143,308,144952,1,0,0:0:0:0:
425,81,145172,1,0,0:0:0:0:
137,313,145393,1,0,0:0:0:0:
137,313,145613,1,0,0:0:0:0:
137,313,145834,1,0,0:0:0:0:
118,70,146055,1,0,0:0:0:0:
118,70,146275,1,0,0:0:0:0:
137,302,146496,1,0,0:0:0:0:
137,302,146716,1,0,0:0:0:0:
435,75,146937,1,0,0:0:0:0:
134,293,147158,1,0,0:0:0:0:
134,291,147378,1,0,0:0:0:0:
134,291,147599,1,0,0:0:0:0:
129,74,147819,1,0,0:0:0:0:
129,74,148040,1,0,0:0:0:0:
124,265,148261,1,0,0:0:0:0:
124,270,148481,1,0,0:0:0:0:
381,66,148702,1,0,0:0:0:0:
130,252,148922,1,0,0:0:0:0:
126,273,149143,1,0,0:0:0:0:
124,270,149363,1,0,0:0:0:0:
158,76,149584,1,0,0:0:0:0:
160,81,149805,1,0,0:0:0:0:
112,294,150025,1,0,0:0:0:0:
112,294,150246,1,0,0:0:0:0:
112,294,150466,1,0,0:0:0:0:
112,294,150687,1,0,0:0:0:0:
111,302,150908,1,0,0:0:0:0:
111,302,151128,1,0,0:0:0:0:
145,67,151349,1,0,0:0:0:0:
137,64,151569,1,0,0:0:0:0:
103,287,151790,1,0,0:0:0:0:
103,287,152011,1,0,0:0:0:0:
396,79,152231,1,0,0:0:0:0:
114,285,152452,1,0,0:0:0:0:
114,285,152672,1,0,0:0:0:0:
114,285,152893,1,0,0:0:0:0:
126,51,153113,1,0,0:0:0:0:
126,51,153334,1,0,0:0:0:0:
104,284,153555,1,0,0:0:0:0:
104,284,153775,1,0,0:0:0:0:
387,85,153996,1,0,0:0:0:0:
116,268,154216,1,0,0:0:0:0:
116,268,154437,1,0,0:0:0:0:
116,268,154658,1,0,0:0:0:0:
139,78,154878,1,0,0:0:0:0:
132,80,155099,1,0,0:0:0:0:
123,262,155319,1,0,0:0:0:0:
123,262,155540,1,0,0:0:0:0:
374,75,155761,1,0,0:0:0:0:
121,251,155981,1,0,0:0:0:0:
119,257,156202,1,0,0:0:0:0:
402,310,156422,1,0,0:0:0:0:
86,70,156643,1,0,0:0:0:0:
107,90,158408,5,8,3:3:0:0:
107,90,158628,1,8,3:3:0:0:
106,292,158849,1,2,2:2:0:0:
106,292,159069,1,2,2:2:0:0:
397,84,159290,1,8,0:1:0:0:
377,296,159511,1,2,3:3:0:0:
100,66,159731,1,8,3:3:0:0:
368,292,159952,1,2,3:3:0:0:
106,62,160172,1,8,3:3:0:0:
106,62,160393,1,8,3:3:0:0:
120,265,160613,1,2,2:2:0:0:
122,275,160834,1,2,2:2:0:0:
393,76,161055,1,8,0:1:0:0:
126,262,161275,1,2,2:2:0:0:
120,276,161496,1,2,2:2:0:0:
121,265,161716,1,2,2:2:0:0:
119,78,161937,1,8,3:3:0:0:
119,78,162158,1,8,3:3:0:0:
112,240,162378,1,2,2:2:0:0:
114,266,162599,1,2,2:2:0:0:
370,62,162819,1,8,0:1:0:0:
378,297,163040,1,2,3:3:0:0:
92,267,163261,1,2,2:2:0:0:
378,297,163481,1,2,3:3:0:0:
392,293,163536,1,2,3:3:0:0:
391,293,163591,1,2,3:3:0:0:
394,292,163647,1,2,3:3:0:0:
123,79,163702,1,8,3:3:0:0:
122,88,163922,1,8,3:3:0:0:
116,280,164143,1,2,2:2:0:0:
122,279,164363,1,2,2:2:0:0:
261,183,164584,1,0,0:0:0:0:
261,183,164805,1,0,0:0:0:0:
261,183,165025,1,0,0:0:0:0:
261,183,165246,1,0,0:0:0:0:
117,83,165466,1,8,3:3:0:0:
117,83,165687,1,8,3:3:0:0:
92,262,165908,1,2,2:2:0:0:
97,273,166128,1,2,2:2:0:0:
384,85,166349,1,8,0:1:0:0:
379,306,166569,1,2,3:3:0:0:
88,281,166790,1,2,2:2:0:0:
379,306,167011,1,2,3:3:0:0:
117,83,167231,1,8,3:3:0:0:
117,83,167452,1,8,3:3:0:0:
111,276,167672,1,2,2:2:0:0:
111,276,167893,1,2,2:2:0:0:
416,31,168113,1,8,0:1:0:0:
103,281,168334,1,2,2:2:0:0:
103,281,168555,1,2,2:2:0:0:
103,281,168775,1,2,2:2:0:0:
110,76,168996,1,8,3:3:0:0:
110,76,169216,1,8,3:3:0:0:
102,288,169437,1,2,2:2:0:0:
102,288,169658,1,2,2:2:0:0:
363,88,169878,1,8,0:1:0:0:
382,308,170099,1,2,3:3:0:0:
87,280,170319,1,2,2:2:0:0:
382,308,170540,1,2,3:3:0:0:
118,68,170761,1,8,3:3:0:0:
106,318,172525,5,0,2:2:0:0:
114,302,172746,1,0,2:2:0:0:
114,302,172966,1,0,2:2:0:0:
263,187,174290,1,0,0:0:0:0:
263,187,174731,1,0,0:0:0:0:
263,187,175172,1,0,0:0:0:0:
100,295,175613,1,0,2:2:0:0:
100,295,176055,1,0,2:2:0:0:
100,295,176275,1,0,2:2:0:0:
100,295,176496,1,0,2:2:0:0:
91,312,176937,1,0,2:2:0:0:
91,312,177378,1,0,2:2:0:0:
254,180,177819,1,0,0:0:0:0:
97,296,178261,1,0,2:2:0:0:
100,302,178702,1,0,2:2:0:0:
91,312,179143,1,0,2:2:0:0:
100,302,179584,1,0,2:2:0:0:
100,302,179805,1,0,2:2:0:0:
100,302,180025,1,0,2:2:0:0:
91,312,180466,1,0,2:2:0:0:
91,312,180908,1,0,2:2:0:0:
250,190,181349,1,0,0:0:0:0:
250,190,181790,1,0,0:0:0:0:
250,190,182231,1,0,0:0:0:0:
91,312,182672,1,0,2:2:0:0:
91,312,183113,1,0,2:2:0:0:
91,312,183334,1,0,2:2:0:0:
91,312,183555,1,0,2:2:0:0:
91,312,183996,1,0,2:2:0:0:
91,312,184437,1,0,2:2:0:0:
257,192,184878,1,0,0:0:0:0:
375,277,186643,5,4,0:2:0:0:
129,274,186864,1,2,2:2:0:0:
134,274,187084,1,2,2:2:0:0:
135,267,187305,1,2,2:2:0:0:
371,29,187525,1,8,0:1:0:0:
129,274,187746,1,2,2:2:0:0:
392,293,187967,1,4,0:2:0:0:
117,264,188187,1,2,2:2:0:0:
407,303,188408,1,4,0:2:0:0:
117,264,188849,1,2,2:2:0:0:
391,47,189290,1,8,0:1:0:0:
104,280,189511,1,2,2:2:0:0:
405,291,189731,1,4,0:2:0:0:
98,276,189952,1,2,2:2:0:0:
389,277,190172,1,4,0:2:0:0:
96,268,190393,1,2,2:2:0:0:
98,276,190614,1,2,2:2:0:0:
98,276,190834,1,2,2:2:0:0:
427,61,191055,1,8,0:1:0:0:
96,268,191275,1,2,2:2:0:0:
400,283,191496,1,4,0:2:0:0:
52,242,191717,1,2,2:2:0:0:
391,270,191937,1,4,0:2:0:0:
82,267,192158,1,2,2:2:0:0:
110,266,192378,1,2,2:2:0:0:
106,265,192599,1,2,2:2:0:0:
349,115,192820,1,8,0:1:0:0:
353,103,193040,1,8,0:1:0:0:
400,278,193261,1,4,0:2:0:0:
101,117,193481,1,8,3:3:0:0:
396,286,193702,1,4,0:2:0:0:
92,130,194143,1,8,3:3:0:0:
92,130,194584,1,8,3:3:0:0:
388,293,195025,1,4,0:2:0:0:
388,293,195467,1,4,0:2:0:0:
87,300,195687,1,2,2:2:0:0:
96,313,195908,1,2,2:2:0:0:
94,321,196128,1,2,2:2:0:0:
366,76,196349,1,8,0:1:0:0:
87,300,196570,1,2,2:2:0:0:
381,278,196790,1,4,0:2:0:0:
90,68,197011,1,8,3:3:0:0:
381,278,197231,1,4,0:2:0:0:
72,93,197672,1,8,3:3:0:0:
73,99,198114,1,8,3:3:0:0:
388,288,198555,1,4,0:2:0:0:
388,288,198996,1,4,0:2:0:0:
381,288,200320,1,4,0:2:0:0:
381,288,200540,1,4,0:2:0:0:
381,288,200761,1,4,0:2:0:0:
89,261,200981,1,2,2:2:0:0:
89,261,201202,1,2,2:2:0:0:
89,261,201422,1,2,2:2:0:0:
382,83,201643,1,8,0:1:0:0:
97,262,201864,1,2,2:2:0:0:
372,278,202084,1,4,0:2:0:0:
89,268,202305,1,2,2:2:0:0:
372,278,202525,1,4,0:2:0:0:
95,274,202746,1,2,2:2:0:0:
93,276,202967,1,2,2:2:0:0:
96,274,203187,1,2,2:2:0:0:
390,69,203408,1,8,0:1:0:0:
102,280,203628,1,2,2:2:0:0:
368,263,203849,1,4,0:2:0:0:
106,75,204070,1,8,3:3:0:0:
362,252,204290,1,4,0:2:0:0:
124,273,204731,1,2,2:2:0:0:
106,279,204952,1,2,2:2:0:0:
371,62,205172,1,8,0:1:0:0:
111,266,205393,1,2,2:2:0:0:
392,264,205614,1,4,0:2:0:0:
101,270,205834,1,2,2:2:0:0:
386,253,206055,1,4,0:2:0:0:
95,274,206496,1,2,2:2:0:0:
95,274,206717,1,2,2:2:0:0:
359,49,206937,1,8,0:1:0:0:
359,49,207158,1,8,0:1:0:0:
384,292,207378,1,4,0:2:0:0:
96,75,207599,1,8,3:3:0:0:
384,292,207820,1,4,0:2:0:0:
103,79,208261,1,8,3:3:0:0:
103,79,208702,1,8,3:3:0:0:
431,289,209143,1,4,0:2:0:0:
333,264,209584,1,4,0:2:0:0:
56,301,210025,1,2,2:2:0:0:
63,298,210246,1,2,2:2:0:0:
357,87,210467,1,8,0:1:0:0:
62,269,210687,1,2,2:2:0:0:
370,275,210908,1,4,0:2:0:0:
93,86,211128,1,8,3:3:0:0:
376,274,211349,1,4,0:2:0:0:
119,109,211790,1,8,3:3:0:0:
119,109,212231,1,8,3:3:0:0:
381,305,212672,1,4,0:2:0:0:
381,305,213114,1,4,0:2:0:0:
